osu file format v14

[General]
AudioFilename: cYsmix - Manic 224.mp3
AudioLeadIn: 0
PreviewTime: 52858
Countdown: 0
SampleSet: None
StackLeniency: 0.4
Mode: 0
LetterboxInBreaks: 0
WidescreenStoryboard: 0

[Editor]
Bookmarks: 14458,27258,40058,91258,104058,116858,129658,149058,150858,168058
DistanceSpacing: 1
BeatDivisor: 2
GridSize: 8
TimelineZoom: 1.200001

[Metadata]
Title:Manic
TitleUnicode:Manic
Artist:cYsmix
ArtistUnicode:cYsmix
Creator:Bonsai
Version:Normal
Source:osu!
Tags:Mapping With Rewards
BeatmapID:806267
BeatmapSetID:361214

[Difficulty]
HPDrainRate:3
CircleSize:3
OverallDifficulty:3.5
ApproachRate:4.5
SliderMultiplier:1.1
SliderTickRate:1

[Events]
//Background and Video events
0,0,"osu!cysmix-bgtiny.jpg",0,0
//Break Periods
2,14458,19598
2,40258,45198
2,78658,86798
2,117058,121998
//Storyboard Layer 0 (Background)
//Storyboard Layer 1 (Fail)
//Storyboard Layer 2 (Pass)
//Storyboard Layer 3 (Foreground)
//Storyboard Sound Samples

[TimingPoints]
1658,400,4,3,0,55,1,0
11258,-125,4,3,0,55,0,0
13058,-125,4,3,0,35,0,0
13258,-125,4,3,0,20,0,0
13458,-125,4,3,0,10,0,0
14058,-100,4,3,0,55,0,0
14458,-100,4,2,0,45,0,0
20858,-100,4,2,1,60,0,0
24058,-100,4,2,0,60,0,0
27258,-100,4,3,0,65,0,0
40058,-100,4,3,0,55,0,0
52858,-90.9090909090909,4,3,0,65,0,1
64458,-90.9090909090909,4,3,0,65,0,0
65658,-90.9090909090909,4,3,0,65,0,1
77258,-90.9090909090909,4,3,0,55,0,0
88058,-100,4,3,0,55,0,0
91258,-100,4,3,0,55,0,0
104058,-100,4,3,0,65,0,0
116858,-100,4,3,0,55,0,0
129658,-100,4,2,0,45,0,0
132858,-90.9090909090909,4,3,0,65,0,1
141258,-90.9090909090909,4,3,0,65,0,0
142458,-90.9090909090909,4,3,0,65,0,1
154058,-90.9090909090909,4,3,0,65,0,0
155258,-90.9090909090909,4,3,0,65,0,1
161658,-100,4,3,0,55,0,0

[Colours]
Combo1 : 221,221,221
Combo2 : 242,236,0
Combo3 : 254,103,183
Combo4 : 0,86,191

[HitObjects]
142,245,1258,5,0,0:0:0:0:
106,137,1658,6,0,P|179:88|258:130,3,165,2|2|2|2,0:0|0:0|0:0|0:0,0:0:0:0:
282,274,4058,2,0,P|357:298|420:250,3,165,2|2|2|2,0:0|0:0|0:0|0:0,0:0:0:0:
387,86,6458,2,0,P|311:61|248:109,2,165,2|2|2,0:0|0:0|0:0,0:0:0:0:
375,198,8058,6,0,P|390:268|441:308,2,110,4|4|4,0:0|0:0|0:0,0:0:0:0:
387,86,9258,1,4,0:0:0:0:
285,129,9658,2,0,P|213:121|168:74,2,110,4|4|4,0:0|0:0|0:0,0:0:0:0:
293,21,10858,1,4,0:0:0:0:
387,86,11258,6,2,B|384:173|384:173|319:234|319:234|316:333,1,264,4|8,0:0|0:0,0:1:0:0:
219,316,12858,2,8,P|154:209|31:225,1,264,4|10,0:0|0:0,0:0:0:0:
203,322,20858,5,2,0:3:0:0:
123,116,21658,1,2,0:3:0:0:
328,36,22458,1,2,0:3:0:0:
407,241,23258,2,0,B|432:289|432:289|489:323,1,110,2|2,0:3|0:3,0:3:0:0:
506,210,24058,6,0,L|483:159,1,55,2|2,0:3|0:3,0:3:0:0:
373,160,24658,2,0,L|350:109,1,55,2|2,0:3|0:3,0:3:0:0:
240,110,25258,2,0,L|217:59,1,55,2|2,0:3|0:3,0:3:0:0:
107,60,25858,2,0,L|84:9,1,55,2|2,0:3|0:3,0:3:0:0:
4,101,26458,2,0,L|26:151,2,55,2|2|2,0:3|0:3|0:3,0:3:0:0:
114,151,27258,6,0,P|179:117|198:80,1,110,6|8,0:0|0:0,0:0:0:0:
306,86,28058,2,0,P|337:130|387:150,1,110,6|8,0:0|0:0,0:0:0:0:
387,260,28858,2,0,P|336:279|305:324,1,110,6|8,0:0|0:0,0:0:0:0:
195,324,29658,1,6,0:0:0:0:
114,249,30058,1,10,0:0:0:0:
114,139,30458,5,6,0:0:0:0:
270,190,31058,1,6,0:0:0:0:
114,249,31658,1,6,0:0:0:0:
263,318,32258,1,6,0:0:0:0:
418,262,32858,2,0,P|442:213|435:159,1,110,6|8,0:0|0:0,0:0:0:0:
360,78,33658,6,0,L|243:87,1,110,6|8,0:0|0:0,0:0:0:0:
200,184,34458,2,0,L|317:193,1,110,6|8,0:0|0:0,0:0:0:0:
359,290,35258,2,0,L|242:299,1,110,6|8,0:0|0:0,0:0:0:0:
147,257,36058,1,6,0:0:0:0:
51,312,36458,1,10,0:0:0:0:
148,363,36858,5,6,0:0:0:0:
291,280,37458,1,6,0:0:0:0:
146,200,38058,1,6,0:0:0:0:
290,120,38658,1,6,0:0:0:0:
147,36,39258,2,0,P|92:38|48:69,2,110,6|10|4,0:0|0:0|0:0,0:0:0:0:
236,49,46458,5,4,0:0:0:0:
219,157,46858,1,4,0:0:0:0:
267,254,47258,2,0,P|322:293|365:299,1,110,4|4,0:0|0:0,0:0:0:0:
417,293,47858,1,8,0:2:0:0:
463,263,48058,5,4,0:0:0:0:
394,179,48458,1,4,0:0:0:0:
287,163,48858,2,0,P|234:178|195:216,1,110,4|4,0:0|0:0,0:0:0:0:
181,269,49458,1,8,0:2:0:0:
178,320,49658,5,4,0:0:0:0:
85,262,50058,1,4,0:0:0:0:
44,160,50458,2,0,L|37:66,1,55,4|0,0:0|0:0,0:0:0:0:
90,82,50858,2,0,L|111:-5,1,55,4|8,0:0|0:2,0:0:0:0:
155,8,51258,6,2,B|263:24|263:24|328:112|328:112|447:134,1,330,4|12,0:0|0:0,0:1:0:0:
422,255,52858,5,6,0:0:0:0:
362,243,53058,2,0,P|301:245|252:280,1,121.000003692627,10|6,0:0|0:0,0:0:0:0:
209,321,53658,2,0,L|194:180,1,121.000003692627,10|6,0:0|0:0,0:0:0:0:
139,221,54258,2,0,L|126:100,1,121.000003692627,10|6,0:0|0:0,0:0:0:0:
174,64,54858,1,8,0:0:0:0:
294,55,55258,2,0,B|350:34|350:34|418:50,1,121.000003692627,6|10,0:0|0:0,0:0:0:0:
426,167,56058,6,0,L|420:245,1,60.5000018463135,6|2,0:0|0:0,0:0:0:0:
330,308,56658,2,0,L|334:247,1,60.5000018463135,6|2,0:0|0:0,0:0:0:0:
257,153,57258,2,0,L|251:231,1,60.5000018463135,6|2,0:0|0:0,0:0:0:0:
161,294,57858,2,0,L|165:233,1,60.5000018463135,6|2,0:0|0:0,0:0:0:0:
100,131,58458,2,0,P|59:124|38:127,2,60.5000018463135,6|2|10,0:0|0:0|0:0,0:0:0:0:
194,54,59258,5,6,0:0:0:0:
219,109,59458,2,0,P|278:114|331:86,1,121.000003692627,10|6,0:0|0:0,0:0:0:0:
383,55,60058,2,0,L|390:178,1,121.000003692627,10|6,0:0|0:0,0:0:0:0:
391,236,60658,2,0,P|332:231|279:259,1,121.000003692627,10|6,0:0|0:0,0:0:0:0:
243,308,61258,1,10,0:0:0:0:
356,349,61658,2,0,B|394:346|394:346|432:367|432:367|490:363,1,121.000003692627,6|10,0:0|0:0,0:0:0:0:
483,245,62458,6,0,L|477:167,1,60.5000018463135,6|2,0:0|0:0,0:0:0:0:
357,180,63058,2,0,L|322:109,1,60.5000018463135,6|2,0:0|0:0,0:0:0:0:
213,158,63658,2,0,L|154:106,1,60.5000018463135,6|2,0:0|0:0,0:0:0:0:
74,195,64258,2,0,L|1:168,1,60.5000018463135,6|2,0:0|0:0,0:0:0:0:
312,349,65658,5,6,0:0:0:0:
319,228,66058,2,0,P|336:170|448:124,1,181.500005538941,10|6,0:0|0:0,0:0:0:0:
500,130,66858,1,10,0:0:0:0:
430,228,67258,2,0,P|412:285|366:323,1,121.000003692627,6|8,0:0|0:0,0:0:0:0:
245,336,68058,1,4,0:0:0:0:
139,276,68458,1,10,0:0:0:0:
113,157,68858,6,0,P|130:99|176:61,1,121.000003692627,6|10,0:0|0:0,0:0:0:0:
236,60,69458,2,0,P|276:103|334:118,1,121.000003692627,6|4,0:0|0:0,0:0:0:0:
394,110,70058,1,10,0:0:0:0:
328,211,70458,1,6,0:0:0:0:
424,284,70858,1,8,0:0:0:0:
341,372,71258,2,0,L|242:385,2,60.5000018463135,4|0|10,0:0|0:0|0:0,0:0:0:0:
272,272,72058,6,0,P|213:257|157:278,1,121.000003692627,6|8,0:0|0:0,0:0:0:0:
60,343,72858,2,0,L|49:198,1,121.000003692627,6|10,0:0|0:0,0:0:0:0:
85,172,73458,2,0,B|145:182|145:182|200:158,1,121.000003692627,6|4,0:0|0:0,0:0:0:0:
253,129,74058,1,10,0:0:0:0:
273,248,74458,1,6,0:0:0:0:
372,317,74858,1,10,0:0:0:0:
433,212,75258,5,6,0:0:0:0:
387,100,75658,1,10,0:0:0:0:
270,66,76058,2,0,P|209:67|160:102,1,121.000003692627,14|10,0:0|0:0,0:0:0:0:
122,147,76658,2,0,L|147:307,1,121.000003692627,6|4,0:0|0:0,0:0:0:0:
150,326,77258,1,8,0:0:0:0:
390,304,78058,5,8,0:0:0:0:
372,184,78458,1,4,0:0:0:0:
256,192,88058,12,0,89658,0:0:0:0:
100,67,91258,6,0,P|150:46|204:56,2,110,2|0|2,0:0|0:0|0:0,0:0:0:0:
65,110,92258,2,0,L|76:225,1,110
82,274,92858,1,2,0:0:0:0:
188,299,93258,1,0,0:0:0:0:
294,326,93658,2,0,P|315:275|305:222,1,110,2|0,0:0|0:0,0:0:0:0:
254,125,94458,6,0,P|244:71|265:21,2,110,2|0|2,0:0|0:0|0:0,0:0:0:0:
308,132,95458,2,0,L|440:148,1,110,2|2,0:0|0:0,0:0:0:0:
419,200,96058,2,0,L|287:216,1,110,2|2,0:0|0:0,0:0:0:0:
314,268,96658,2,0,L|446:284,1,110,2|2,0:0|0:0,0:0:0:0:
425,336,97258,1,2,0:0:0:0:
309,352,97658,6,0,L|214:361,2,55,2|0|2,0:0|0:0|0:0,0:0:0:0:
347,248,98458,2,0,P|315:226|296:221,1,55,2|2,0:0|0:0,0:0:0:0:
274,114,99058,2,0,P|236:121|219:131,1,55,2|2,0:0|0:0,0:0:0:0:
132,65,99658,2,0,P|110:96|105:115,1,55,2|2,0:0|0:0,0:0:0:0:
0,133,100258,2,0,P|7:170|17:187,1,55,2|2,0:0|0:0,0:0:0:0:
104,249,100858,6,0,L|209:254,2,55,2|2|2,0:0|0:0|0:0,0:0:0:0:
164,341,101658,2,0,L|197:384,1,55,2|2,0:0|0:0,0:0:0:0:
252,289,102258,2,0,L|303:307,1,55,2|2,0:0|0:0,0:0:0:0:
291,197,102858,2,0,L|343:184,1,55,2|2,0:0|0:0,0:0:0:0:
264,108,103458,2,0,L|301:68,2,55,2|2|0,0:0|0:0|0:0,0:0:0:0:
221,143,104058,6,0,P|167:156|116:138,1,110,6|8,0:0|0:0,0:0:0:0:
125,29,104858,2,0,P|177:14|228:32,1,110,6|8,0:0|0:0,0:0:0:0:
306,110,105658,2,0,L|299:233,1,110,6|8,0:0|0:0,0:0:0:0:
239,311,106458,1,6,0:0:0:0:
130,326,106858,1,10,0:0:0:0:
28,286,107258,5,6,0:0:0:0:
179,221,107858,1,6,0:0:0:0:
331,283,108458,1,6,0:0:0:0:
483,219,109058,1,6,0:0:0:0:
331,153,109658,2,0,B|275:158|275:158|232:192,1,110,6|10,0:0|0:0,0:0:0:0:
155,270,110458,6,0,L|143:138,1,110,6|8,0:0|0:0,0:0:0:0:
223,82,111258,2,0,L|235:214,1,110,6|8,0:0|0:0,0:0:0:0:
323,254,112058,2,0,L|311:122,1,110,6|8,0:0|0:0,0:0:0:0:
223,82,112858,1,6,0:0:0:0:
113,88,113258,1,10,0:0:0:0:
25,154,113658,5,6,0:0:0:0:
185,194,114258,1,6,0:0:0:0:
35,264,114858,1,6,0:0:0:0:
189,320,115458,1,6,0:0:0:0:
332,238,116058,2,0,P|382:222|434:239,2,110,6|8|4,0:0|0:0|0:0,0:0:0:0:
113,80,123258,5,4,0:0:0:0:
200,13,123658,1,4,0:0:0:0:
310,2,124058,2,0,P|363:12|405:47,1,110,4|4,0:0|0:0,0:0:0:0:
424,99,124658,1,8,0:2:0:0:
427,153,124858,5,4,0:0:0:0:
319,129,125258,1,4,0:0:0:0:
214,165,125658,2,0,P|170:197|146:246,1,110,4|4,0:0|0:0,0:0:0:0:
152,302,126258,1,8,0:2:0:0:
177,350,126458,5,4,0:0:0:0:
285,333,126858,1,4,0:0:0:0:
393,312,127258,2,0,L|477:294,1,55,4|0,0:0|0:0,0:0:0:0:
438,246,127658,2,0,L|489:194,1,55,4|8,0:0|0:2,0:0:0:0:
437,167,128058,6,2,B|327:157|327:157|241:226|241:226|132:214,1,330,4|12,0:0|0:0,0:1:0:0:
115,104,129658,5,4,0:0:0:0:
146,321,130458,5,4,0:0:0:0:
366,321,131258,5,4,0:0:0:0:
397,104,132058,5,4,0:0:0:0:
314,176,132458,1,4,0:0:0:0:
195,198,132858,6,0,L|91:192,1,60.5000018463135,6|2,0:0|0:0,0:0:0:0:
52,283,133458,2,0,L|112:286,1,60.5000018463135,6|2,0:0|0:0,0:0:0:0:
233,296,134058,1,6,0:0:0:0:
293,299,134258,2,0,B|330:303|330:303|364:331|364:331|421:338,1,121.000003692627,2|6,0:0|0:0,0:0:0:0:
463,344,134858,1,10,0:0:0:0:
459,223,135258,2,0,P|479:201|506:186,2,60.5000018463135,6|2|10,0:0|0:0|0:0,0:0:0:0:
336,241,136058,5,6,0:0:0:0:
325,181,136258,2,0,P|297:128|244:99,1,121.000003692627,10|6,0:0|0:0,0:0:0:0:
190,127,136858,2,0,L|202:247,1,121.000003692627,10|6,0:0|0:0,0:0:0:0:
156,286,137458,2,0,P|103:257|75:204,1,121.000003692627,10|6,0:0|0:0,0:0:0:0:
69,143,138058,1,10,0:0:0:0:
154,56,138458,2,0,B|211:32|215:72|274:45,1,121.000003692627,6|6,0:0|0:0,0:0:0:0:
392,46,139258,6,0,L|390:108,1,60.5000018463135,6|2,0:0|0:0,0:0:0:0:
477,191,139858,2,0,L|478:128,1,60.5000018463135,6|2,0:0|0:0,0:0:0:0:
389,213,140458,2,0,L|387:275,1,60.5000018463135,6|2,0:0|0:0,0:0:0:0:
470,362,141058,2,0,L|471:299,1,60.5000018463135,6|2,0:0|0:0,0:0:0:0:
188,74,142458,5,6,0:0:0:0:
87,141,142858,2,0,P|129:182|257:175,1,181.500005538941,10|6,0:0|0:0,0:0:0:0:
303,161,143658,1,10,0:0:0:0:
290,281,144058,2,0,B|167:337,1,121.000003692627,6|8,0:0|0:0,0:0:0:0:
62,299,144858,1,4,0:0:0:0:
1,194,145258,1,10,0:0:0:0:
38,79,145658,6,0,P|83:40|142:33,1,121.000003692627,6|10,0:0|0:0,0:0:0:0:
171,86,146258,2,0,P|230:78|275:40,1,121.000003692627,6|6,0:0|0:0,0:0:0:0:
314,86,146858,1,10,0:0:0:0:
253,191,147258,2,0,L|251:291,2,60.5000018463135,6|0|8,0:0|0:0|0:0,0:0:0:0:
374,192,148058,1,4,0:0:0:0:
456,280,148458,1,10,0:0:0:0:
366,360,148858,6,0,B|326:358|326:358|290:333|290:333|252:332,1,121.000003692627,6|8,0:0|0:0,0:0:0:0:
135,360,149658,2,0,P|158:304|147:246,1,121.000003692627,6|10,0:0|0:0,0:0:0:0:
108,199,150258,2,0,L|226:150,1,121.000003692627,6|4,0:0|0:0,0:0:0:0:
276,129,150858,1,10,0:0:0:0:
261,249,151258,1,6,0:0:0:0:
372,202,151658,1,10,0:0:0:0:
357,322,152058,5,6,0:0:0:0:
246,372,152458,1,10,0:0:0:0:
146,303,152858,2,0,P|115:251|116:192,1,121.000003692627,6|10,0:0|0:0,0:0:0:0:
143,137,153458,2,0,L|286:128,1,121.000003692627,6|4,0:0|0:0,0:0:0:0:
324,124,154058,1,8,0:0:0:0:
21,293,155258,5,6,0:0:0:0:
65,179,155658,2,0,P|111:141|170:136,1,121.000003692627,6|0,0:0|0:0,0:0:0:0:
231,153,156258,2,0,L|254:42,2,60.5000018463135,6|10|2,0:0|0:0|0:0,0:0:0:0:
264,212,156858,2,0,B|209:235|209:235|140:223,1,121.000003692627,4|8,0:0|0:0,0:0:0:0:
80,124,157658,1,4,0:0:0:0:
163,36,158058,1,10,0:0:0:0:
230,136,158458,6,0,P|285:157|344:144,1,121.000003692627,6|10,0:0|0:0,0:0:0:0:
397,114,159058,2,0,L|407:239,1,121.000003692627,6|6,0:0|0:0,0:0:0:0:
411,294,159658,1,10,0:0:0:0:
310,360,160058,2,0,P|252:375|194:355,1,121.000003692627,6|8,0:0|0:0,0:0:0:0:
256,251,160858,2,0,L|331:224,2,60.5000018463135,4|0|10,0:0|0:0|0:0,0:0:0:0:
187,125,161658,6,0,B|290:86|290:86|420:109,1,220,2|2,0:0|0:0,0:0:0:0:
477,29,162858,2,0,L|392:11,1,55,2|2,0:0|0:0,0:0:0:0:
477,173,163658,1,2,0:0:0:0:
400,252,164058,2,0,L|279:267,1,110,2|2,0:0|0:0,0:0:0:0:
194,211,164858,5,2,0:0:0:0:
181,101,165258,1,2,0:0:0:0:
263,26,165658,2,0,L|379:11,1,110,2|2,0:0|0:0,0:0:0:0:
399,60,166258,2,0,P|373:174|489:156,1,275,2|0,0:0|0:0,0:0:0:0:
