osu file format v14

[General]
AudioFilename: cYsmix - Manic 224.mp3
AudioLeadIn: 0
PreviewTime: 52858
Countdown: 0
SampleSet: None
StackLeniency: 0.5
Mode: 0
LetterboxInBreaks: 0
WidescreenStoryboard: 0

[Editor]
Bookmarks: 14458,25858,27258,40058,65658,91258,104058,116858,129658,168058
DistanceSpacing: 1.9
BeatDivisor: 4
GridSize: 8
TimelineZoom: 1.5

[Metadata]
Title:Manic
TitleUnicode:Manic
Artist:cYsmix
ArtistUnicode:cYsmix
Creator:Bonsai
Version:Insane
Source:osu!
Tags:Mapping With Rewards
BeatmapID:793704
BeatmapSetID:361214

[Difficulty]
HPDrainRate:6
CircleSize:4.3
OverallDifficulty:7.5
ApproachRate:8.8
SliderMultiplier:1.5
SliderTickRate:1

[Events]
//Background and Video events
0,0,"osu!cysmix-bgtiny.jpg",0,0
//Break Periods
2,78658,87429
//Storyboard Layer 0 (Background)
//Storyboard Layer 1 (Fail)
//Storyboard Layer 2 (Pass)
//Storyboard Layer 3 (Foreground)
//Storyboard Sound Samples

[TimingPoints]
1658,400,4,3,0,55,1,0
8058,-125,4,3,0,55,0,0
11258,-100,4,3,0,55,0,0
13058,-100,4,3,0,45,0,0
13258,-100,4,3,0,35,0,0
13458,-100,4,3,0,25,0,0
13558,-100,4,3,0,20,0,0
14058,-74.0740740740741,4,3,0,55,0,0
14458,-100,4,2,1,45,0,0
20858,-100,4,2,1,60,0,0
27258,-100,4,3,0,65,0,0
30358,-100,4,3,0,5,0,0
30458,-100,4,3,0,65,0,0
36758,-100,4,3,0,5,0,0
36858,-100,4,3,0,65,0,0
40058,-142.857142857143,4,3,0,55,0,0
41658,-125,4,3,0,55,0,0
43258,-111.111111111111,4,3,0,55,0,0
44858,-100,4,3,0,55,0,0
48058,-90.9090909090909,4,3,0,60,0,0
49658,-83.3333333333333,4,3,0,65,0,0
52858,-74.0740740740741,4,3,0,65,0,1
55558,-74.0740740740741,4,3,0,5,0,1
55658,-74.0740740740741,4,3,0,65,0,1
55958,-74.0740740740741,4,3,0,5,0,1
56058,-74.0740740740741,4,3,0,65,0,1
59158,-74.0740740740741,4,3,0,5,0,1
59258,-74.0740740740741,4,3,0,65,0,1
60358,-74.0740740740741,4,3,0,5,0,1
60458,-74.0740740740741,4,3,0,55,0,1
61958,-74.0740740740741,4,3,0,5,0,1
62058,-74.0740740740741,4,3,0,65,0,1
62358,-74.0740740740741,4,3,0,5,0,1
62458,-74.0740740740741,4,3,0,65,0,1
64458,-74.0740740740741,4,3,0,65,0,0
64558,-74.0740740740741,4,3,0,20,0,0
64658,-74.0740740740741,4,3,0,50,0,0
65658,-74.0740740740741,4,3,0,65,0,1
68358,-74.0740740740741,4,3,0,5,0,1
68458,-74.0740740740741,4,3,0,65,0,1
68758,-74.0740740740741,4,3,0,5,0,1
68858,-74.0740740740741,4,3,0,65,0,1
77258,-74.0740740740741,4,3,0,55,0,0
88058,-100,4,3,0,55,0,0
89858,-100,4,3,0,40,0,0
89958,-100,4,3,0,30,0,0
90058,-100,4,3,0,15,0,0
90158,-100,4,3,0,10,0,0
90858,-100,4,3,0,15,0,0
90958,-100,4,3,0,30,0,0
91058,-100,4,3,0,40,0,0
91158,-100,4,3,0,55,0,0
104058,-100,4,3,0,65,0,0
107158,-100,4,3,0,5,0,0
107258,-100,4,3,0,65,0,0
113558,-100,4,3,0,5,0,0
113658,-100,4,3,0,65,0,0
116858,-142.857142857143,4,3,0,55,0,0
118458,-125,4,3,0,55,0,0
120058,-111.111111111111,4,3,0,55,0,0
121658,-100,4,3,0,55,0,0
129658,-100,4,2,0,45,0,0
132608,-100,4,2,0,5,0,0
132658,-100,4,2,0,45,0,0
132808,-100,4,2,0,5,0,0
132858,-74.0740740740741,4,3,0,65,0,1
135958,-74.0740740740741,4,3,0,5,0,1
136058,-74.0740740740741,4,3,0,65,0,1
137158,-74.0740740740741,4,3,0,5,0,1
137258,-74.0740740740741,4,3,0,65,0,1
138758,-74.0740740740741,4,3,0,5,0,1
138858,-74.0740740740741,4,3,0,65,0,1
139158,-74.0740740740741,4,3,0,5,0,1
139258,-74.0740740740741,4,3,0,65,0,1
141258,-74.0740740740741,4,3,0,65,0,0
141358,-74.0740740740741,4,3,0,5,0,0
141458,-74.0740740740741,4,3,0,20,0,0
141858,-74.0740740740741,4,3,0,50,0,0
142458,-74.0740740740741,4,3,0,65,0,1
145158,-74.0740740740741,4,3,0,5,0,1
145258,-74.0740740740741,4,3,0,65,0,1
145558,-74.0740740740741,4,3,0,5,0,1
145658,-74.0740740740741,4,3,0,65,0,1
154058,-74.0740740740741,4,3,0,65,0,0
154458,-74.0740740740741,4,3,0,50,0,0
155258,-74.0740740740741,4,3,0,65,0,1
157958,-74.0740740740741,4,3,0,5,0,1
158058,-74.0740740740741,4,3,0,65,0,1
158358,-74.0740740740741,4,3,0,5,0,1
158458,-74.0740740740741,4,3,0,65,0,1
161658,-100,4,3,0,55,0,0

[Colours]
Combo1 : 221,221,221
Combo2 : 242,236,0
Combo3 : 254,103,183
Combo4 : 0,86,191

[HitObjects]
273,226,1258,5,0,0:0:0:0:
155,65,1658,5,2,0:0:0:0:
118,155,1858,2,0,P|118:215|139:256,2,75,2|0|2,0:0|0:0|0:0,0:0:0:0:
235,97,2458,2,0,L|336:105,1,75,2|0,0:0|0:0,0:0:0:0:
375,214,2858,1,2,0:0:0:0:
298,286,3058,2,0,P|286:331|292:379,2,75,2|0|2,0:0|0:0|0:0,0:0:0:0:
434,301,3658,1,2,0:0:0:0:
375,214,3858,1,0,0:0:0:0:
298,286,4058,5,2,0:0:0:0:
246,194,4258,2,0,P|220:166|189:146,2,75,2|0|2,0:0|0:0|0:0,0:0:0:0:
235,317,4858,2,0,L|160:311,1,75,2|0,0:0|0:0,0:0:0:0:
110,217,5258,1,2,0:0:0:0:
117,112,5458,1,2,0:0:0:0:
203,52,5658,2,0,P|248:48|294:62,1,75,2|0,0:0|0:0,0:0:0:0:
346,160,6058,2,0,P|300:163|254:149,1,75,2|0,0:0|0:0,0:0:0:0:
185,264,6458,5,2,0:0:0:0:
289,251,6658,2,0,L|363:245,2,75,2|0|2,0:0|0:0|0:0,0:0:0:0:
340,342,7258,2,0,P|385:340|430:322,1,75,2|0,0:0|0:0,0:0:0:0:
497,234,7658,1,2,0:0:0:0:
363,245,7858,1,2,0:0:0:0:
416,112,8058,5,4,0:0:0:0:
385,110,8458,1,4,0:0:0:0:
356,109,8858,2,0,P|304:115|257:93,1,90,4|8,0:0|0:2,0:0:0:0:
252,98,9258,2,0,L|171:91,1,60,4|8,0:0|0:2,0:0:0:0:
69,220,9658,5,4,0:0:0:0:
98,216,10058,1,4,0:0:0:0:
128,212,10458,2,0,P|175:197|229:220,1,90,4|8,0:0|0:2,0:0:0:0:
230,206,10858,2,0,L|317:201,1,60,4|8,0:0|0:2,0:0:0:0:
408,326,11258,5,4,0:0:0:0:
397,325,11358,1,0,0:0:0:0:
386,324,11458,1,0,0:0:0:0:
374,323,11558,1,0,0:0:0:0:
363,322,11658,1,4,0:0:0:0:
352,321,11758,1,0,0:0:0:0:
341,320,11858,1,0,0:0:0:0:
329,318,11958,1,0,0:0:0:0:
318,317,12058,2,0,L|263:296,3,37.5,4|0|0|0,0:0|0:0|0:0|0:0,0:0:0:0:
261,311,12458,2,0,L|203:320,3,37.5,4|0|0|0,0:0|0:0|0:0|0:0,0:0:0:0:
204,304,12858,6,0,L|172:292,16,18.75,4|0|0|0|0|0|0|0|0|0|0|0|0|0|0|0|0,0:0|0:0|0:0|0:0|0:0|0:0|0:0|0:0|0:0|0:0|0:0|0:0|0:0|0:0|0:0|0:0|0:0,0:0:0:0:
375,180,14058,5,12,0:0:0:0:
165,30,14458,6,0,L|159:70,3,37.5,2|0|0|0,0:0|0:0|0:0|0:0,0:0:0:0:
150,103,14858,1,0,0:0:0:0:
131,135,14958,1,0,0:0:0:0:
99,154,15058,1,0,0:0:0:0:
62,161,15158,1,0,0:0:0:0:
24,158,15258,6,0,L|58:210,3,37.5,2|0|0|0,0:0|0:0|0:0|0:0,0:0:0:0:
64,221,15658,1,0,0:0:0:0:
85,251,15758,1,0,0:0:0:0:
105,282,15858,1,0,0:0:0:0:
126,312,15958,1,0,0:0:0:0:
149,341,16058,6,0,L|211:345,3,37.5,2|0|0|0,0:0|0:0|0:0|0:0,0:0:0:0:
212,316,16458,1,0,0:0:0:0:
246,302,16558,1,0,0:0:0:0:
282,309,16658,2,0,L|335:275,1,37.5,2|0,0:0|0:0,0:0:0:0:
365,346,16858,6,0,L|400:390,3,37.5,2|0|0|0,0:0|0:0|0:0|0:0,0:0:0:0:
418,346,17258,2,0,L|478:360,3,37.5,2|0|0|0,0:0|0:0|0:0|0:0,0:0:0:0:
453,310,17658,6,0,P|467:298|478:281,1,37.5,2|0,0:0|0:0,0:0:0:0:
425,224,17858,1,0,0:0:0:0:
406,187,17958,1,0,0:0:0:0:
400,146,18058,1,0,0:0:0:0:
415,107,18158,1,0,0:0:0:0:
445,78,18258,6,0,P|456:64|463:44,1,37.5,2|0,0:0|0:0,0:0:0:0:
391,14,18458,1,0,0:0:0:0:
350,7,18558,1,0,0:0:0:0:
309,15,18658,1,0,0:0:0:0:
280,44,18758,1,0,0:0:0:0:
266,83,18858,6,0,L|288:151,1,37.5,2|0,0:0|0:0,0:0:0:0:
305,191,19058,1,0,0:0:0:0:
317,230,19158,1,0,0:0:0:0:
331,268,19258,1,0,0:0:0:0:
343,307,19358,1,0,0:0:0:0:
356,346,19458,6,0,L|286:342,1,37.5,2|0,0:0|0:0,0:0:0:0:
243,339,19658,1,0,0:0:0:0:
202,334,19758,1,0,0:0:0:0:
160,330,19858,1,0,0:0:0:0:
119,325,19958,1,0,0:0:0:0:
77,320,20058,6,0,L|82:267,1,37.5,2|0,0:0|0:0,0:0:0:0:
153,258,20258,1,0,0:0:0:0:
189,238,20358,1,0,0:0:0:0:
212,203,20458,1,0,0:0:0:0:
215,161,20558,1,0,0:0:0:0:
193,125,20658,2,0,P|176:115|154:108,1,37.5,2|0,0:0|0:0,0:0:0:0:
128,184,20858,5,2,0:3:0:0:
139,310,21058,1,2,0:3:0:0:
278,303,21258,1,0,0:3:0:0:
269,262,21358,1,0,0:3:0:0:
284,223,21458,2,0,L|289:157,1,37.5,0|0,0:3|0:3,0:3:0:0:
369,185,21658,5,2,0:3:0:0:
358,311,21858,1,2,0:3:0:0:
484,313,22058,1,0,0:3:0:0:
499,273,22158,1,0,0:3:0:0:
490,233,22258,2,0,L|495:167,1,37.5,0|0,0:3|0:3,0:3:0:0:
411,185,22458,5,2,0:3:0:0:
400,311,22658,1,2,0:3:0:0:
351,130,22858,1,0,0:3:0:0:
311,115,22958,1,0,0:3:0:0:
271,124,23058,2,0,L|205:118,1,37.5,0|0,0:3|0:3,0:3:0:0:
151,112,23258,5,2,0:3:0:0:
162,238,23458,1,2,0:3:0:0:
141,363,23658,2,0,L|285:351,1,112.5,2|0,0:3|0:3,0:3:0:0:
265,361,24058,5,2,0:3:0:0:
338,275,24258,1,2,0:3:0:0:
338,275,24358,1,0,0:3:0:0:
338,275,24458,2,0,L|269:282,1,37.5,0|0,0:3|0:3,0:3:0:0:
219,290,24658,5,2,0:3:0:0:
292,204,24858,1,2,0:3:0:0:
292,204,24958,1,0,0:3:0:0:
292,204,25058,2,0,L|223:211,1,37.5,0|0,0:3|0:3,0:3:0:0:
172,215,25258,5,2,0:3:0:0:
245,129,25458,1,2,0:3:0:0:
245,129,25558,1,0,0:3:0:0:
245,129,25658,2,0,L|176:136,1,37.5,0|0,0:3|0:3,0:3:0:0:
125,140,25858,5,2,0:3:0:0:
198,54,26058,1,2,0:3:0:0:
198,54,26158,1,0,0:3:0:0:
198,54,26258,2,0,L|129:61,1,37.5,0|0,0:3|0:3,0:3:0:0:
78,69,26458,5,2,0:3:0:0:
64,195,26658,1,2,0:3:0:0:
145,293,26858,2,0,L|289:281,1,112.5,2|0,0:3|0:3,0:3:0:0:
269,291,27258,5,6,0:0:0:0:
320,174,27458,1,2,0:0:0:0:
251,67,27658,2,0,P|192:50|162:54,1,75,8|0,0:0|0:0,0:0:0:0:
116,82,27958,1,0,0:0:0:0:
116,82,28058,5,6,0:0:0:0:
212,197,28258,1,2,0:0:0:0:
251,67,28458,2,0,P|307:42|336:42,1,75,8|0,0:0|0:0,0:0:0:0:
397,56,28758,1,0,0:0:0:0:
397,56,28858,5,6,0:0:0:0:
319,184,29058,1,2,0:0:0:0:
450,194,29258,2,0,P|485:218|498:241,1,37.5,8|0,0:0|0:0,0:0:0:0:
462,279,29458,2,0,P|485:314|489:341,1,37.5
474,377,29658,5,6,0:0:0:0:
359,320,29858,1,2,0:0:0:0:
245,261,30058,2,0,P|207:203|207:153,1,112.5,10|0,0:0|0:0,0:0:0:0:
245,89,30458,5,6,0:0:0:0:
103,97,30658,2,0,L|12:102,1,75,2|0,0:0|0:0,0:0:0:0:
255,115,31058,5,6,0:0:0:0:
113,123,31258,2,0,L|22:128,1,75,2|0,0:0|0:0,0:0:0:0:
265,143,31658,5,6,0:0:0:0:
123,151,31858,2,0,L|32:156,1,75,2|0,0:0|0:0,0:0:0:0:
275,169,32258,5,6,0:0:0:0:
133,177,32458,2,0,L|42:182,1,75,2|0,0:0|0:0,0:0:0:0:
285,197,32858,5,6,0:0:0:0:
143,203,33058,1,2,0:0:0:0:
0,208,33258,1,10,0:0:0:0:
249,346,33658,5,6,0:0:0:0:
237,199,33858,1,2,0:0:0:0:
359,234,34058,2,0,L|467:226,1,75,8|0,0:0|0:0,0:0:0:0:
507,225,34358,1,0,0:0:0:0:
507,225,34458,5,6,0:0:0:0:
495,81,34658,1,2,0:0:0:0:
381,153,34858,2,0,L|306:158,1,75,8|0,0:0|0:0,0:0:0:0:
233,168,35158,1,0,0:0:0:0:
233,168,35258,5,6,0:0:0:0:
226,16,35458,1,2,0:0:0:0:
101,102,35658,2,0,L|57:105,1,37.5,8|0,0:0|0:0,0:0:0:0:
72,181,35858,2,0,L|28:184,1,37.5
41,264,36058,5,6,0:0:0:0:
175,273,36258,1,2,0:0:0:0:
308,280,36458,2,0,P|373:303|403:343,1,112.5,10|0,0:0|0:0,0:0:0:0:
456,384,36858,5,6,0:0:0:0:
464,243,37058,2,0,L|468:168,1,75,2|0,0:0|0:0,0:0:0:0:
425,371,37458,5,6,0:0:0:0:
433,230,37658,2,0,L|437:155,1,75,2|0,0:0|0:0,0:0:0:0:
393,358,38058,5,6,0:0:0:0:
401,217,38258,2,0,L|405:142,1,75,2|0,0:0|0:0,0:0:0:0:
361,345,38658,5,6,0:0:0:0:
369,204,38858,2,0,L|373:129,1,75,2|0,0:0|0:0,0:0:0:0:
330,332,39258,5,6,0:0:0:0:
336,191,39458,1,2,0:0:0:0:
341,51,39658,2,0,P|379:51|399:83,1,75,10|0,0:0|0:0,0:0:0:0:
258,168,40058,6,0,L|187:166,1,52.4999983978272,4|0,0:0|0:0,0:0:0:0:
108,166,40458,1,4,0:0:0:0:
108,166,40858,2,0,P|117:206|140:231,1,52.4999983978272,4|0,0:0|0:0,0:0:0:0:
189,261,41158,1,8,0:2:0:0:
189,261,41258,2,0,B|189:291|189:291|167:331,1,52.4999983978272,4|8,0:0|0:2,0:0:0:0:
41,365,41658,5,4,0:0:0:0:
36,269,41858,1,0,0:0:0:0:
32,173,42058,1,4,0:0:0:0:
32,173,42458,2,0,P|58:158|87:153,1,60,4|0,0:0|0:0,0:0:0:0:
160,193,42758,1,8,0:2:0:0:
160,193,42858,2,0,L|170:117,1,60,4|8,0:0|0:2,0:0:0:0:
129,22,43258,5,4,0:0:0:0:
224,28,43458,1,0,0:0:0:0:
319,34,43658,1,4,0:0:0:0:
319,34,44058,2,0,L|326:125,1,67.4999979400635,4|0,0:0|0:0,0:0:0:0:
283,166,44358,1,8,0:2:0:0:
283,166,44458,2,0,P|318:200|326:228,1,67.4999979400635,4|8,0:0|0:2,0:0:0:0:
281,333,44858,5,4,0:0:0:0:
374,309,45058,1,0,0:0:0:0:
467,286,45258,1,4,0:0:0:0:
467,286,45658,2,0,L|463:208,1,75,4|0,0:0|0:0,0:0:0:0:
387,187,45958,1,8,0:2:0:0:
387,187,46058,2,0,L|391:109,1,75,4|8,0:0|0:2,0:0:0:0:
253,68,46458,5,2,0:0:0:0:
247,163,46658,1,2,0:0:0:0:
153,188,46858,1,2,0:0:0:0:
100,106,47058,1,2,0:0:0:0:
161,32,47258,1,2,0:0:0:0:
253,68,47458,2,0,P|278:89|294:119,1,37.5,2|2,0:0|0:0,0:0:0:0:
247,163,47658,2,0,P|234:193|211:217,1,37.5,2|2,0:0|0:0,0:0:0:0:
153,188,47858,1,2,0:0:0:0:
286,267,48058,5,2,0:0:0:0:
343,354,48258,1,2,0:0:0:0:
445,327,48458,1,2,0:0:0:0:
451,219,48658,1,2,0:0:0:0:
352,182,48858,1,2,0:0:0:0:
286,267,49058,2,0,P|273:300|274:338,1,41.2500012588501,2|2,0:0|0:0,0:0:0:0:
343,354,49258,2,0,P|371:376|407:386,1,41.2500012588501,2|2,0:0|0:0,0:0:0:0:
445,327,49458,1,2,0:0:0:0:
480,162,49658,5,2,0:0:0:0:
362,166,49858,1,2,0:0:0:0:
245,173,50058,1,2,0:0:0:0:
128,180,50258,1,2,0:0:0:0:
11,189,50458,1,2,0:0:0:0:
99,112,50658,2,0,P|133:92|174:87,1,44.999998626709,2|2,0:0|0:0,0:0:0:0:
213,141,50858,2,0,P|241:167|259:205,1,44.999998626709,2|2,0:0|0:0,0:0:0:0:
223,259,51058,1,2,0:0:0:0:
256,192,51258,12,12,52458,0:0:0:0:
457,305,52858,5,6,0:0:0:0:
330,200,53058,2,0,P|256:198|211:223,1,101.250000386238,2|4,0:0|0:0,0:0:0:0:
108,352,53458,1,2,0:0:0:0:
120,191,53658,2,0,B|124:116|124:116|102:139,1,101.250000386238,6|0,0:0|0:0,0:0:0:0:
25,303,54058,5,6,0:0:0:0:
225,290,54258,1,2,0:0:0:0:
120,191,54458,1,4,0:0:0:0:
291,202,54658,1,2,0:0:0:0:
305,30,54858,1,6,0:0:0:0:
133,16,55058,1,0,0:0:0:0:
193,184,55258,6,0,P|225:243|313:276,1,151.875000579357,6|0,0:0|0:0,0:0:0:0:
416,259,55658,2,0,P|383:199|295:166,1,151.875000579357,6|0,0:0|0:0,0:0:0:0:
189,264,56058,5,6,0:0:0:0:
225,106,56258,2,0,B|238:84|227:58|227:58|248:38|245:13,1,101.250000386238,2|4,0:0|0:0,0:0:0:0:
291,205,56658,1,2,0:0:0:0:
125,163,56858,2,0,L|-1:132,1,101.250000386238,6|0,0:0|0:0,0:0:0:0:
225,106,57258,5,6,0:0:0:0:
189,264,57458,2,0,B|173:311|173:311|134:345,1,101.250000386238,2|4,0:0|0:0,0:0:0:0:
125,163,57858,1,2,0:0:0:0:
291,205,58058,2,0,B|356:224|356:224|343:187,1,101.250000386238,6|0,0:0|0:0,0:0:0:0:
225,106,58458,5,6,0:0:0:0:
270,281,58658,1,2,0:0:0:0:
323,116,58858,2,0,P|391:86|463:105,1,151.875000579357,6|0,0:0|0:0,0:0:0:0:
473,206,59258,5,6,0:0:0:0:
291,205,59458,2,0,P|249:176|231:119,1,101.250000386238,2|4,0:0|0:0,0:0:0:0:
333,19,59858,1,2,0:0:0:0:
178,61,60058,1,6,0:0:0:0:
291,205,60258,2,0,B|316:237|316:237|296:233,1,50.6250001931191
202,267,60458,5,6,0:0:0:0:
244,107,60658,1,2,0:0:0:0:
302,281,60858,2,0,P|374:297|423:281,1,101.250000386238,4|2,0:0|0:0,0:0:0:0:
449,106,61258,1,6,0:0:0:0:
495,262,61458,1,0,0:0:0:0:
336,147,61658,6,0,P|274:121|184:151,1,151.875000579357,6|0,0:0|0:0,0:0:0:0:
188,259,62058,2,0,P|249:284|339:254,1,151.875000579357,6|0,0:0|0:0,0:0:0:0:
417,289,62458,5,6,0:0:0:0:
261,200,62658,2,0,B|223:172|186:174|186:174|210:153,1,101.250000386238,2|4,0:0|0:0,0:0:0:0:
330,57,63058,1,2,0:0:0:0:
339,249,63258,2,0,B|318:294|318:294|275:323,1,101.250000386238,6|0,0:0|0:0,0:0:0:0:
95,270,63658,5,6,0:0:0:0:
188,111,63858,2,0,B|213:73|213:73|217:80|217:80|241:40,1,101.250000386238,2|4,0:0|0:0,0:0:0:0:
256,238,64258,1,2,0:0:0:0:
84,166,64458,2,0,B|49:151|49:151|69:143,2,50.6250001931191,6|0|0,0:0|2:0|0:0,0:0:0:0:
282,37,65058,5,2,0:0:0:0:
269,137,65258,1,2,0:0:0:0:
256,238,65458,1,2,0:0:0:0:
450,195,65658,5,6,0:0:0:0:
323,310,65858,1,2,0:0:0:0:
269,137,66058,2,0,P|201:106|150:111,1,101.250000386238,12|0,0:0|0:0,0:0:0:0:
61,253,66458,2,0,P|128:283|179:278,1,101.250000386238,4|2,0:0|0:0,0:0:0:0:
338,177,66858,1,14,0:0:0:0:
254,262,67058,1,2,0:0:0:0:
134,122,67258,6,0,B|84:109|84:109|35:118,1,101.250000386238,4|0,0:0|0:0,0:0:0:0:
0,310,67658,2,0,B|50:323|50:323|99:314,1,101.250000386238,12|0,0:0|0:0,0:0:0:0:
269,196,68058,2,0,L|257:39,1,151.875000579357,4|0,0:0|0:0,0:0:0:0:
366,44,68458,2,0,P|347:117|377:185,1,151.875000579357,14|0,0:0|0:0,0:0:0:0:
449,109,68858,6,0,L|336:118,1,101.250000386238,6|2,0:0|0:0,0:0:0:0:
168,187,69258,2,0,L|281:196,1,101.250000386238,14|2,0:0|0:0,0:0:0:0:
450,276,69658,1,6,0:0:0:0:
303,345,69858,1,2,0:0:0:0:
142,326,70058,1,14,0:0:0:0:
10,231,70258,1,2,0:0:0:0:
50,384,70458,5,4,0:0:0:0:
120,209,70658,1,0,0:0:0:0:
232,331,70858,2,0,P|305:343|353:325,1,101.250000386238,12|0,0:0|0:0,0:0:0:0:
399,168,71258,1,4,0:0:0:0:
438,333,71458,1,0,0:0:0:0:
273,248,71658,1,14,0:0:0:0:
462,36,72058,5,6,0:0:0:0:
290,22,72258,1,0,0:0:0:0:
390,143,72458,2,0,P|397:192|384:241,1,101.250000386238,12|0,0:0|0:0,0:0:0:0:
263,384,72858,2,0,P|255:334|268:285,1,101.250000386238,6|0,0:0|0:0,0:0:0:0:
363,374,73258,1,14,0:0:0:0:
184,369,73458,1,2,0:0:0:0:
297,224,73658,6,0,L|310:109,1,101.250000386238,4|0,0:0|0:0,0:0:0:0:
131,194,74058,2,0,L|118:79,1,101.250000386238,14|2,0:0|0:0,0:0:0:0:
50,68,74358,1,2,0:0:0:0:
50,68,74458,2,0,L|-7:73,3,50.6250001931191,6|2|2|2,0:0|0:0|0:0|0:0,0:0:0:0:
5,143,74858,2,0,L|55:138,3,50.6250001931191,6|2|2|2,0:0|0:0|0:0|0:0,0:0:0:0:
113,188,75258,6,0,P|83:228|40:254,1,101.250000386238,6|2,0:0|0:0,0:0:0:0:
16,327,75558,1,2,0:0:0:0:
16,327,75658,2,0,L|125:325,1,101.250000386238,14|2,0:0|0:0,0:0:0:0:
195,323,75958,1,2,0:0:0:0:
195,323,76058,1,6,0:0:0:0:
195,161,76258,5,2,0:0:0:0:
357,161,76458,1,14,0:0:0:0:
357,323,76658,1,2,0:0:0:0:
195,323,76858,1,4,0:0:0:0:
195,323,77058,1,0,0:0:0:0:
316,201,77258,1,12,0:0:0:0:
108,58,77858,6,0,B|58:50|58:50|10:66,2,101.250000386238,0|10|0,0:0|0:0|0:0,0:0:0:0:
163,205,78458,1,4,0:0:0:0:
104,326,88058,5,0,0:0:0:0:
115,325,88158,1,0,0:0:0:0:
126,324,88258,1,0,0:0:0:0:
138,323,88358,1,0,0:0:0:0:
149,322,88458,1,0,0:0:0:0:
160,321,88558,1,0,0:0:0:0:
171,320,88658,1,0,0:0:0:0:
183,318,88758,1,0,0:0:0:0:
194,317,88858,2,0,L|249:296,3,37.5
251,311,89258,2,0,L|309:320,3,37.5
308,304,89658,6,0,L|340:292,30,18.75
367,282,91258,6,0,P|374:221|365:192,1,75,2|0,0:0|0:0,0:0:0:0:
232,122,91658,2,0,P|224:182|233:211,1,75,2|0,0:0|0:0,0:0:0:0:
301,333,92058,1,2,0:0:0:0:
301,333,92258,2,0,L|198:324,1,75,2|0,0:0|0:0,0:0:0:0:
61,232,92658,1,2,0:0:0:0:
61,232,92858,6,0,L|135:238,1,75,2|0,0:0|0:0,0:0:0:0:
305,255,93258,2,0,L|230:248,1,75,2|0,0:0|0:0,0:0:0:0:
130,314,93658,1,0,0:0:0:0:
88,156,93858,1,2,0:0:0:0:
230,248,94058,2,0,P|267:248|303:237,1,75,2|0,0:0|0:0,0:0:0:0:
340,122,94458,1,0,0:0:0:0:
334,324,94658,6,0,P|353:357|386:380,2,75,2|0|0,0:0|0:0|0:0,0:0:0:0:
398,214,95258,2,0,P|417:179|420:139,2,75,2|0|0,0:0|0:0|0:0,0:0:0:0:
267,220,95858,2,0,P|226:219|190:236,2,75,2|0|0,0:0|0:0|0:0,0:0:0:0:
382,290,96458,2,0,L|452:338,2,75,2|0|0,0:0|0:0|0:0,0:0:0:0:
334,155,97058,1,2,0:0:0:0:
430,140,97258,1,2,0:0:0:0:
414,43,97458,1,2,0:0:0:0:
318,59,97658,1,2,0:0:0:0:
471,199,97858,6,0,L|510:196,1,37.5,2|0,0:0|0:0,0:0:0:0:
499,276,98058,2,0,P|462:285|425:283,1,75,2|0,0:0|0:0,0:0:0:0:
212,246,98458,2,0,L|174:248,1,37.5,2|0,0:0|0:0,0:0:0:0:
186,172,98658,2,0,P|222:162|259:164,1,75,2|0,0:0|0:0,0:0:0:0:
325,341,99058,6,0,L|323:383,1,37.5,2|0,0:0|0:0,0:0:0:0:
400,361,99258,2,0,L|408:271,1,75,2|0,0:0|0:0,0:0:0:0:
340,109,99658,2,0,L|342:67,1,37.5,2|0,0:0|0:0,0:0:0:0:
265,89,99858,2,0,L|257:179,1,75,2|0,0:0|0:0,0:0:0:0:
127,291,100258,6,0,P|94:296|63:283,1,37.5,2|0,0:0|0:0,0:0:0:0:
100,220,100458,2,0,P|136:210|173:212,2,75,2|0|0,0:0|0:0|0:0,0:0:0:0:
12,338,101058,6,0,L|17:382,1,37.5,2|0,0:0|0:0,0:0:0:0:
95,381,101258,2,0,L|187:385,1,75,2|0,0:0|0:0,0:0:0:0:
311,278,101658,2,0,P|316:245|303:214,1,37.5,2|0,0:0|0:0,0:0:0:0:
257,188,101858,2,0,P|254:150|264:114,1,75,2|0,0:0|0:0,0:0:0:0:
412,22,102258,6,0,L|482:27,1,37.5,2|0,0:0|0:0,0:0:0:0:
489,95,102458,2,0,L|397:104,1,75,2|0,0:0|0:0,0:0:0:0:
270,27,102858,2,0,L|200:32,1,37.5,2|0,0:0|0:0,0:0:0:0:
193,100,103058,2,0,L|285:109,1,75,2|0,0:0|0:0,0:0:0:0:
312,279,103458,6,0,P|312:297|307:315,1,37.5,2|0,0:0|0:0,0:0:0:0:
350,383,103658,1,10,0:0:0:0:
125,228,104058,5,6,0:0:0:0:
279,196,104258,1,2,0:0:0:0:
155,152,104458,2,0,P|130:96|130:67,1,75,8|0,0:0|0:0,0:0:0:0:
74,30,104758,1,0,0:0:0:0:
74,30,104858,5,6,0:0:0:0:
232,2,105058,1,2,0:0:0:0:
132,87,105258,2,0,P|138:123|157:155,1,75,8|0,0:0|0:0,0:0:0:0:
125,228,105558,1,0,0:0:0:0:
125,228,105658,5,6,0:0:0:0:
0,154,105858,1,2,0:0:0:0:
132,87,106058,2,0,L|184:57,1,37.5,8|0,0:0|0:0,0:0:0:0:
229,111,106258,2,0,L|288:102,1,37.5
334,147,106458,5,6,0:0:0:0:
176,167,106658,1,2,0:0:0:0:
232,39,106858,2,0,P|298:20|346:36,1,112.5,10|0,0:0|0:0,0:0:0:0:
396,101,107258,5,6,0:0:0:0:
255,126,107458,2,0,P|195:113|171:96,1,75,2|0,0:0|0:0,0:0:0:0:
390,156,107858,5,6,0:0:0:0:
247,143,108058,2,0,P|192:115|174:92,1,75,2|0,0:0|0:0,0:0:0:0:
370,207,108458,5,6,0:0:0:0:
235,158,108658,2,0,P|189:117|177:90,1,75,2|0,0:0|0:0,0:0:0:0:
337,252,109058,5,6,0:0:0:0:
219,169,109258,2,0,P|185:117|181:88,1,75,2|0,0:0|0:0,0:0:0:0:
294,287,109658,5,6,0:0:0:0:
201,176,109858,1,2,0:0:0:0:
186,34,110058,1,10,0:0:0:0:
111,302,110458,5,6,0:0:0:0:
121,186,110658,1,2,0:0:0:0:
54,354,110858,2,0,P|82:375|123:379,1,75,8|0,0:0|0:0,0:0:0:0:
195,369,111158,1,0,0:0:0:0:
195,369,111258,5,6,0:0:0:0:
91,256,111458,1,2,0:0:0:0:
255,315,111658,2,0,P|292:318|328:309,1,75,8|0,0:0|0:0,0:0:0:0:
395,275,111958,1,0,0:0:0:0:
395,275,112058,5,6,0:0:0:0:
234,238,112258,1,2,0:0:0:0:
345,123,112458,2,0,L|381:79,1,37.5,8|0,0:0|0:0,0:0:0:0:
273,89,112658,2,0,L|289:34,1,37.5
193,85,112858,5,6,0:0:0:0:
209,218,113058,1,2,0:0:0:0:
230,351,113258,2,0,P|176:366|122:353,1,112.5,8|0,0:0|0:0,0:0:0:0:
63,308,113658,5,6,0:0:0:0:
161,204,113858,2,0,P|217:178|246:177,1,75,2|0,0:0|0:0,0:0:0:0:
34,257,114258,5,6,0:0:0:0:
157,184,114458,2,0,P|217:174|246:181,1,75,2|0,0:0|0:0,0:0:0:0:
19,204,114858,5,6,0:0:0:0:
157,165,115058,2,0,P|218:169|243:185,1,75,2|0,0:0|0:0,0:0:0:0:
19,148,115458,5,6,0:0:0:0:
163,146,115658,2,0,P|220:167|240:188,1,75,2|0,0:0|0:0,0:0:0:0:
34,95,116058,5,6,0:0:0:0:
173,128,116258,1,0,0:0:0:0:
284,218,116458,2,0,P|260:246|222:242,1,75,10|0,0:0|0:0,0:0:0:0:
275,91,116858,6,0,L|347:99,1,52.4999983978272,4|0,0:0|0:0,0:0:0:0:
424,107,117258,1,4,0:0:0:0:
424,107,117658,2,0,P|415:147|392:172,1,52.4999983978272,4|0,0:0|0:0,0:0:0:0:
338,187,117958,1,8,0:2:0:0:
338,187,118058,2,0,B|326:206|326:206|324:236,1,52.4999983978272,4|8,0:0|0:2,0:0:0:0:
367,363,118458,5,4,0:0:0:0:
271,359,118658,1,0,0:0:0:0:
169,358,118858,1,4,0:0:0:0:
169,358,119258,2,0,L|165:283,1,60,4|0,0:0|0:0,0:0:0:0:
163,224,119558,1,8,0:2:0:0:
163,224,119658,2,0,P|180:200|187:171,1,60,4|8,0:0|0:2,0:0:0:0:
134,17,120058,5,4,0:0:0:0:
73,98,120258,1,0,0:0:0:0:
11,177,120458,1,4,0:0:0:0:
11,177,120858,2,0,P|38:187|76:185,1,67.4999979400635,4|0,0:0|0:0,0:0:0:0:
152,164,121158,1,8,0:2:0:0:
152,164,121258,2,0,L|234:168,1,67.4999979400635,4|8,0:0|0:2,0:0:0:0:
365,101,121658,5,4,0:0:0:0:
388,203,121858,1,0,0:0:0:0:
412,305,122058,1,4,0:0:0:0:
412,305,122458,2,0,P|378:307|337:293,1,75,4|0,0:0|0:0,0:0:0:0:
311,223,122758,1,8,0:2:0:0:
311,223,122858,2,0,P|344:220|386:235,1,75,4|8,0:0|0:2,0:0:0:0:
294,353,123258,5,2,0:0:0:0:
199,347,123458,1,2,0:0:0:0:
174,253,123658,1,2,0:0:0:0:
256,200,123858,1,2,0:0:0:0:
330,261,124058,1,2,0:0:0:0:
294,353,124258,2,0,P|273:378|243:394,1,37.5,2|2,0:0|0:0,0:0:0:0:
199,347,124458,2,0,P|169:334|145:311,1,37.5,2|2,0:0|0:0,0:0:0:0:
174,253,124658,1,2,0:0:0:0:
330,261,124858,5,2,0:0:0:0:
387,348,125058,1,2,0:0:0:0:
489,321,125258,1,2,0:0:0:0:
495,213,125458,1,2,0:0:0:0:
396,176,125658,1,2,0:0:0:0:
330,261,125858,2,0,P|317:294|320:328,1,37.5,2|2,0:0|0:0,0:0:0:0:
387,348,126058,2,0,P|415:370|448:384,1,37.5,2|2,0:0|0:0,0:0:0:0:
489,321,126258,1,2,0:0:0:0:
486,161,126458,5,2,0:0:0:0:
366,177,126658,1,2,0:0:0:0:
248,187,126858,1,2,0:0:0:0:
134,198,127058,1,2,0:0:0:0:
15,209,127258,1,2,0:0:0:0:
115,272,127458,2,0,P|151:286|184:280,1,37.5,2|2,0:0|0:0,0:0:0:0:
223,224,127658,2,0,P|246:193|256:160,1,37.5,2|2,0:0|0:0,0:0:0:0:
214,106,127858,1,2,0:0:0:0:
256,192,128058,12,12,129258,0:0:0:0:
78,288,129658,5,4,0:0:0:0:
75,276,129758,1,2,0:3:0:0:
72,264,129858,1,2,0:3:0:0:
269,317,130058,6,0,B|306:322|306:322|343:306,1,75
173,109,130458,5,4,0:0:0:0:
161,108,130558,1,2,0:3:0:0:
149,107,130658,1,2,0:3:0:0:
359,84,130858,6,0,B|366:99|366:99|350:128|349:179,1,75,0|0,0:3|0:3,0:3:0:0:
415,340,131258,5,4,0:0:0:0:
420,330,131358,1,2,0:3:0:0:
425,320,131458,1,2,0:3:0:0:
269,227,132058,5,4,0:0:0:0:
254,230,132158,1,2,0:3:0:0:
241,262,132258,1,2,0:3:0:0:
226,264,132358,1,2,0:3:0:0:
214,298,132458,2,0,L|143:301,1,56.25,4|0,0:0|0:0,0:0:0:0:
148,300,132658,2,0,P|129:267|105:254,1,56.25,2|0,0:3|0:0,0:0:0:0:
101,258,132858,5,6,0:0:0:0:
230,369,133058,2,0,L|366:362,1,101.250000386238,2|0,0:0|0:0,0:0:0:0:
488,232,133458,1,2,0:0:0:0:
332,165,133658,2,0,L|230:170,1,101.250000386238,6|0,0:0|0:0,0:0:0:0:
80,260,134058,5,6,0:0:0:0:
151,119,134258,2,0,B|171:78|171:78|176:85|176:85|196:42,1,101.250000386238,2|4,0:0|0:0,0:0:0:0:
378,79,134658,1,2,0:0:0:0:
260,182,134858,2,0,B|230:221|240:261|240:261|272:244,1,101.250000386238,6|0,0:0|0:0,0:0:0:0:
378,156,135258,5,6,0:0:0:0:
219,121,135458,1,2,0:0:0:0:
59,90,135658,2,0,P|26:151|50:237,1,151.875000579357,6|0,0:0|0:0,0:0:0:0:
84,299,136058,5,6,0:0:0:0:
125,166,136258,1,2,0:0:0:0:
158,275,136458,1,4,0:0:0:0:
54,132,136658,1,2,0:0:0:0:
205,184,136858,1,6,0:0:0:0:
84,299,137058,2,0,B|51:323|51:323|66:341,1,50.6250001931191
118,379,137258,5,6,0:0:0:0:
124,223,137458,1,2,0:0:0:0:
238,342,137658,2,0,P|311:354|359:336,1,101.250000386238,4|2,0:0|0:0,0:0:0:0:
454,230,138058,2,0,L|311:241,1,101.250000386238,6|0,0:0|0:0,0:0:0:0:
191,172,138458,6,0,P|206:243|149:304,1,151.875000579357,6|0,0:0|0:0,0:0:0:0:
124,223,138858,2,0,B|196:243|196:243|285:205,1,151.875000579357,6|0,0:0|0:0,0:0:0:0:
351,280,139258,5,6,0:0:0:0:
308,139,139458,2,0,B|294:93|263:73|263:73|295:70,1,101.250000386238,2|4,0:0|0:0,0:0:0:0:
434,155,139858,1,2,0:0:0:0:
266,212,140058,2,0,P|215:214|168:196,1,101.250000386238,6|0,0:0|0:0,0:0:0:0:
87,24,140458,5,6,0:0:0:0:
56,177,140658,2,0,B|55:224|55:224|42:222|42:222|41:268,1,101.250000386238,2|4,0:0|0:0,0:0:0:0:
216,357,141058,1,2,0:0:0:0:
56,345,141258,2,0,B|18:341|18:341|31:358,2,50.6250001931191,6|0|0,0:0|2:0|0:0,0:0:0:0:
339,45,141858,5,2,0:0:0:0:
329,145,142058,1,2,0:0:0:0:
321,245,142258,1,2,0:0:0:0:
185,327,142458,5,6,0:0:0:0:
334,348,142658,1,2,0:0:0:0:
214,229,142858,2,0,P|146:198|95:203,1,101.250000386238,12|0,0:0|0:0,0:0:0:0:
55,306,143258,1,4,0:0:0:0:
42,144,143458,1,2,0:0:0:0:
144,284,143658,2,0,P|212:315|263:310,1,101.250000386238,14|2,0:0|0:0,0:0:0:0:
402,196,144058,5,4,0:0:0:0:
254,234,144258,1,0,0:0:0:0:
330,91,144458,1,12,0:0:0:0:
230,212,144658,1,0,0:0:0:0:
213,62,144858,6,0,P|152:29|66:53,1,151.875000579357,6|0,0:0|0:0,0:0:0:0:
27,157,145258,2,0,L|198:135,1,151.875000579357,14|0,0:0|0:0,0:0:0:0:
290,101,145658,5,6,0:0:0:0:
267,243,145858,1,2,0:0:0:0:
409,265,146058,1,14,0:0:0:0:
432,122,146258,1,2,0:0:0:0:
267,243,146458,1,6,0:0:0:0:
409,265,146658,1,2,0:0:0:0:
290,101,146858,5,14,0:0:0:0:
432,122,147058,1,2,0:0:0:0:
267,243,147258,2,0,B|217:244|217:244|171:220,1,101.250000386238,4|0,0:0|0:0,0:0:0:0:
232,58,147658,2,0,B|244:79|233:106|233:106|253:126|249:151,1,101.250000386238,12|0,0:0|0:0,0:0:0:0:
159,306,148058,5,4,0:0:0:0:
321,322,148258,1,0,0:0:0:0:
249,152,148458,1,14,0:0:0:0:
70,347,148858,5,6,0:0:0:0:
52,194,149058,1,0,0:0:0:0:
159,306,149258,2,0,P|233:309|279:285,1,101.250000386238,12|0,0:0|0:0,0:0:0:0:
375,127,149658,2,0,B|324:115|324:115|277:130,1,101.250000386238,6|0,0:0|0:0,0:0:0:0:
203,230,150058,1,14,0:0:0:0:
146,87,150258,1,2,0:0:0:0:
85,222,150458,6,0,L|100:341,1,101.250000386238,4|0,0:0|0:0,0:0:0:0:
300,322,150858,2,0,L|312:221,1,101.250000386238,14|2,0:0|0:0,0:0:0:0:
327,149,151158,1,2,0:0:0:0:
327,149,151258,2,0,P|344:121|373:104,3,50.6250001931191,6|2|2|2,0:0|0:0|0:0|0:0,0:0:0:0:
402,172,151658,2,0,P|434:164|466:173,3,50.6250001931191,14|2|2|2,0:0|0:0|0:0|0:0,0:0:0:0:
435,242,152058,6,0,P|462:259|479:288,1,50.6250001931191,6|2,0:0|0:0,0:0:0:0:
409,314,152258,2,0,P|416:346|407:378,1,50.6250001931191,2|2,0:0|0:0,0:0:0:0:
338,346,152458,2,0,P|320:373|291:390,1,50.6250001931191,14|2,0:0|0:0,0:0:0:0:
262,321,152658,2,0,P|229:328|197:319,1,50.6250001931191,2|2,0:0|0:0,0:0:0:0:
229,250,152858,1,6,0:0:0:0:
435,242,153058,5,2,0:0:0:0:
262,321,153258,1,14,0:0:0:0:
262,177,153458,1,2,0:0:0:0:
379,327,153658,2,0,B|427:346|427:346|476:339,1,101.250000386238,4|0,0:0|0:0,0:0:0:0:
359,208,154058,1,12,0:0:0:0:
329,69,154658,5,2,0:0:0:0:
323,75,154858,1,2,0:0:0:0:
333,79,155058,1,2,0:0:0:0:
359,208,155258,5,6,0:0:0:0:
238,122,155458,1,2,0:0:0:0:
260,282,155658,2,0,P|244:329|211:367,1,101.250000386238,12|0,0:0|0:0,0:0:0:0:
48,276,156058,2,0,P|63:228|96:190,1,101.250000386238,4|2,0:0|0:0,0:0:0:0:
242,200,156458,1,14,0:0:0:0:
110,105,156658,1,2,0:0:0:0:
172,249,156858,6,0,B|177:297|177:297|156:345,1,101.250000386238,4|0,0:0|0:0,0:0:0:0:
339,337,157258,2,0,L|462:328,1,101.250000386238,12|0,0:0|0:0,0:0:0:0:
452,188,157658,2,0,B|383:217|383:217|300:194,1,151.875000579357,6|0,0:0|0:0,0:0:0:0:
320,91,158058,2,0,P|247:72|179:102,1,151.875000579357,14|0,0:0|0:0,0:0:0:0:
102,201,158458,6,0,L|235:197,1,101.250000386238,6|2,0:0|0:0,0:0:0:0:
361,307,158858,2,0,L|228:311,1,101.250000386238,14|2,0:0|0:0,0:0:0:0:
102,201,159258,1,6,0:0:0:0:
184,316,159458,1,2,0:0:0:0:
298,232,159658,1,14,0:0:0:0:
216,116,159858,1,2,0:0:0:0:
368,69,160058,6,0,B|416:63|416:63|464:84,1,101.250000386238,4|0,0:0|0:0,0:0:0:0:
499,249,160458,2,0,L|378:267,1,101.250000386238,12|0,0:0|0:0,0:0:0:0:
241,184,160858,1,4,0:0:0:0:
341,172,161058,1,0,0:0:0:0:
232,281,161258,1,14,0:0:0:0:
92,84,161658,5,2,0:0:0:0:
92,84,161858,2,0,L|92:189,1,75
171,238,162258,1,0,0:0:0:0:
171,238,162458,2,0,L|171:133,1,75,2|0,0:0|0:0,0:0:0:0:
250,83,162858,1,2,0:0:0:0:
250,83,163058,2,0,L|250:188,1,75,2|0,0:0|0:0,0:0:0:0:
327,239,163458,1,0,0:0:0:0:
327,239,163658,6,0,L|327:134,1,75,2|2,0:0|0:0,0:0:0:0:
327,126,163958,1,2,0:0:0:0:
327,88,164058,2,0,L|263:88,3,37.5,2|2|2|2,0:0|0:0|0:0|0:0,0:0:0:0:
252,88,164458,2,0,L|188:88,3,37.5,2|2|2|2,0:0|0:0|0:0|0:0,0:0:0:0:
177,88,164858,6,0,L|177:51,1,37.5,2|2,0:0|0:0,0:0:0:0:
139,88,165058,2,0,L|139:51,1,37.5,2|2,0:0|0:0,0:0:0:0:
101,88,165258,2,0,L|101:51,1,37.5,2|2,0:0|0:0,0:0:0:0:
63,88,165458,2,0,L|63:51,1,37.5,2|2,0:0|0:0,0:0:0:0:
25,88,165658,1,2,0:0:0:0:
25,163,165858,5,2,0:0:0:0:
100,163,166058,1,2,0:0:0:0:
100,238,166258,1,2,0:0:0:0:
175,238,166458,2,0,L|250:238,2,75
100,313,167058,2,0,L|25:313,2,75
