osu file format v14

[General]
AudioFilename: cYsmix - Manic 224.mp3
AudioLeadIn: 0
PreviewTime: 52858
Countdown: 0
SampleSet: None
StackLeniency: 0.6
Mode: 0
LetterboxInBreaks: 0
WidescreenStoryboard: 0

[Editor]
Bookmarks: 14458,27258,40058,91258,104058,116858,129658,150858,168058
DistanceSpacing: 1.6
BeatDivisor: 2
GridSize: 8
TimelineZoom: 1.800001

[Metadata]
Title:Manic
TitleUnicode:Manic
Artist:cYsmix
ArtistUnicode:cYsmix
Creator:Bonsai
Version:Hard
Source:osu!
Tags:Mapping With Rewards
BeatmapID:798368
BeatmapSetID:361214

[Difficulty]
HPDrainRate:5
CircleSize:4.1
OverallDifficulty:6.5
ApproachRate:8
SliderMultiplier:1.4
SliderTickRate:1

[Events]
//Background and Video events
0,0,"osu!cysmix-bgtiny.jpg",0,0
//Break Periods
2,14458,20108
2,78658,87308
//Storyboard Layer 0 (Background)
//Storyboard Layer 1 (Fail)
//Storyboard Layer 2 (Pass)
//Storyboard Layer 3 (Foreground)
//Storyboard Sound Samples

[TimingPoints]
1658,400,4,3,0,55,1,0
13058,-100,4,3,0,45,0,0
13258,-100,4,3,0,35,0,0
13458,-100,4,3,0,25,0,0
13558,-100,4,3,0,20,0,0
14058,-100,4,3,0,55,0,0
14458,-100,4,2,1,45,0,0
20858,-100,4,2,1,60,0,0
23958,-100,4,2,1,5,0,0
24058,-100,4,2,1,60,0,0
27158,-100,4,2,0,5,0,0
27258,-100,4,3,0,65,0,0
40058,-100,4,3,0,55,0,0
48058,-90.9090909090909,4,3,0,60,0,0
49658,-83.3333333333333,4,3,0,65,0,0
52858,-76.9230769230769,4,3,0,65,0,1
58158,-76.9230769230769,4,3,0,5,0,1
58258,-76.9230769230769,4,3,0,65,0,1
59158,-76.9230769230769,4,3,0,5,0,1
59258,-76.9230769230769,4,3,0,65,0,1
64458,-76.9230769230769,4,3,0,65,0,0
64558,-76.9230769230769,4,3,0,5,0,0
64658,-76.9230769230769,4,3,0,50,0,0
65658,-76.9230769230769,4,3,0,65,0,1
77258,-76.9230769230769,4,3,0,55,0,0
88058,-100,4,3,0,55,0,0
89858,-100,4,3,0,40,0,0
89958,-100,4,3,0,30,0,0
90058,-100,4,3,0,15,0,0
90158,-100,4,3,0,10,0,0
90858,-100,4,3,0,15,0,0
90958,-100,4,3,0,30,0,0
91058,-100,4,3,0,40,0,0
91158,-100,4,3,0,55,0,0
91258,-100,4,3,0,55,0,0
104058,-100,4,3,0,65,0,0
116458,-125,4,3,0,65,0,0
116658,-125,4,3,0,20,0,0
116858,-100,4,3,0,55,0,0
124858,-90.9090909090909,4,3,0,60,0,0
126458,-83.3333333333333,4,3,0,65,0,0
129658,-100,4,2,0,45,0,0
132858,-76.9230769230769,4,3,0,65,0,1
134958,-76.9230769230769,4,3,0,5,0,1
135058,-76.9230769230769,4,3,0,65,0,1
135958,-76.9230769230769,4,3,0,5,0,1
136058,-76.9230769230769,4,3,0,65,0,1
141258,-76.9230769230769,4,3,0,65,0,0
141358,-76.9230769230769,4,3,0,5,0,0
141458,-76.9230769230769,4,3,0,20,0,0
141858,-76.9230769230769,4,3,0,50,0,0
142458,-76.9230769230769,4,3,0,65,0,1
154058,-76.9230769230769,4,3,0,65,0,0
154658,-76.9230769230769,4,3,0,50,0,0
155258,-76.9230769230769,4,3,0,65,0,1
161658,-100,4,3,0,55,0,0

[Colours]
Combo1 : 221,221,221
Combo2 : 242,236,0
Combo3 : 254,103,183
Combo4 : 0,86,191

[HitObjects]
152,193,1258,5,0,0:0:0:0:
375,200,1658,6,0,P|415:168|463:168,2,70,2|2|0,0:0|0:0|0:0,0:0:0:0:
289,249,2258,2,0,P|249:281|201:281,2,70,2|2|0,0:0|0:0|0:0,0:0:0:0:
291,150,2858,2,0,L|281:71,1,70,2|2,0:0|0:0,0:0:0:0:
352,11,3258,1,0,0:0:0:0:
432,125,3458,2,0,B|438:159|438:159|465:187,2,70,2|2|0,0:0|0:0|0:0,0:0:0:0:
341,84,4058,6,0,P|306:81|274:94,2,70,2|2|0,0:0|0:0|0:0,0:0:0:0:
421,27,4658,1,2,0:0:0:0:
432,125,4858,2,0,L|440:194,1,70,2|0,0:0|0:0,0:0:0:0:
325,274,5258,2,0,L|333:204,2,70,2|2|0,0:0|0:0|0:0,0:0:0:0:
249,336,5858,2,0,P|216:349|182:346,2,70,2|2|0,0:0|0:0|0:0,0:0:0:0:
340,371,6458,6,0,B|373:381|373:381|410:369,2,70,2|2|0,0:0|0:0|0:0,0:0:0:0:
325,274,7058,1,2,0:0:0:0:
207,350,7258,2,0,L|115:345,1,70,2|0,0:0|0:0,0:0:0:0:
107,252,7658,2,0,L|176:255,1,70,2|0,0:0|0:0,0:0:0:0:
288,170,8058,6,0,P|331:117|399:107,2,140,4|4|4,0:0|0:0|0:0,0:0:0:0:
414,256,9158,1,8,0:2:0:0:
414,256,9258,2,0,L|386:328,1,70,4|8,0:0|0:2,0:0:0:0:
253,328,9658,6,0,P|189:301|125:324,2,140,4|4|4,0:0|0:0|0:0,0:0:0:0:
186,203,10758,1,8,0:2:0:0:
186,203,10858,2,0,L|178:118,1,70,4|8,0:0|0:2,0:0:0:0:
305,76,11258,6,0,L|314:14,3,35
358,62,11658,2,0,L|399:14,3,35
412,78,12058,2,0,L|472:61,3,35
444,120,12458,2,0,L|503:138,3,35
456,179,12858,6,0,L|476:205,16,17.5
191,235,14058,5,8,0:0:0:0:
102,152,20858,5,2,0:3:0:0:
111,270,21058,1,2,0:3:0:0:
358,90,21658,5,2,0:3:0:0:
347,208,21858,1,2,0:3:0:0:
384,90,22458,5,2,0:3:0:0:
375,208,22658,1,2,0:3:0:0:
99,17,23258,5,2,0:3:0:0:
107,135,23458,1,2,0:3:0:0:
90,252,23658,2,0,L|227:240,1,105,2|0,0:3|0:3,0:3:0:0:
184,257,24058,5,2,0:3:0:0:
302,246,24258,1,2,0:3:0:0:
176,226,24658,1,2,0:3:0:0:
294,215,24858,1,2,0:3:0:0:
168,195,25258,5,2,0:3:0:0:
286,184,25458,1,2,0:3:0:0:
160,165,25858,1,2,0:3:0:0:
278,154,26058,1,2,0:3:0:0:
152,132,26458,5,2,0:3:0:0:
270,121,26658,1,2,0:3:0:0:
388,131,26858,2,0,L|377:-4,1,105,2|0,0:3|0:3,0:3:0:0:
391,40,27258,6,0,P|342:52|295:43,1,70,6|2,0:0|0:0,0:0:0:0:
212,30,27658,2,0,P|224:79|218:128,1,70,8|0,0:0|0:0,0:0:0:0:
215,132,27958,1,0,0:0:0:0:
194,160,28058,1,6,0:0:0:0:
294,106,28258,1,2,0:0:0:0:
151,95,28458,2,0,L|58:89,1,70,8|0,0:0|0:0,0:0:0:0:
51,109,28758,1,0,0:0:0:0:
30,136,28858,6,0,P|43:167|69:192,1,70,6|2,0:0|0:0,0:0:0:0:
160,289,29258,2,0,B|148:322|148:322|120:343,1,70,8|0,0:0|0:0,0:0:0:0:
85,338,29558,1,0,0:0:0:0:
50,333,29658,2,0,L|23:235,1,70,6|2,0:0|0:0,0:0:0:0:
62,129,30058,1,10,0:0:0:0:
313,89,30458,5,6,0:0:0:0:
313,89,30658,2,0,L|304:166,1,70,2|0,0:0|0:0,0:0:0:0:
205,121,31058,1,6,0:0:0:0:
205,121,31258,2,0,L|196:198,1,70,2|0,0:0|0:0,0:0:0:0:
148,339,31658,5,6,0:0:0:0:
148,339,31858,2,0,L|157:262,1,70,2|0,0:0|0:0,0:0:0:0:
258,315,32258,1,6,0:0:0:0:
258,315,32458,2,0,L|267:238,1,70,2|0,0:0|0:0,0:0:0:0:
313,89,32858,1,6,0:0:0:0:
313,89,33058,1,2,0:0:0:0:
205,119,33258,1,10,0:0:0:0:
426,300,33658,5,6,0:0:0:0:
426,300,33858,1,2,0:0:0:0:
370,202,34058,2,0,P|359:168|363:134,1,70,8|0,0:0|0:0,0:0:0:0:
379,103,34358,1,0,0:0:0:0:
410,87,34458,1,6,0:0:0:0:
291,78,34658,1,2,0:0:0:0:
251,244,34858,6,0,L|241:328,1,70,8|0,0:0|0:0,0:0:0:0:
211,328,35158,1,0,0:0:0:0:
179,343,35258,2,0,P|163:312|136:289,1,70,6|2,0:0|0:0,0:0:0:0:
1,253,35658,1,8,0:0:0:0:
5,218,35758,1,0,0:0:0:0:
9,183,35858,1,0,0:0:0:0:
13,148,35958,1,0,0:0:0:0:
17,113,36058,6,0,L|109:105,1,70,6|2,0:0|0:0,0:0:0:0:
203,183,36458,1,10,0:0:0:0:
356,65,36858,5,6,0:0:0:0:
356,65,37058,2,0,P|343:97|343:132,1,70,2|0,0:0|0:0,0:0:0:0:
348,258,37458,1,6,0:0:0:0:
349,258,37658,2,0,P|319:239|299:211,1,70,2|0,0:0|0:0,0:0:0:0:
238,101,38058,5,6,0:0:0:0:
238,101,38258,2,0,P|225:133|225:168,1,70,2|0,0:0|0:0,0:0:0:0:
247,306,38658,1,6,0:0:0:0:
248,306,38858,2,0,P|228:280|198:259,1,70,2|0,0:0|0:0,0:0:0:0:
57,241,39258,5,6,0:0:0:0:
57,241,39458,1,2,0:0:0:0:
133,149,39658,1,10,0:0:0:0:
329,271,40058,6,0,P|396:260|453:298,2,140,4|4|4,0:0|0:0|0:0,0:0:0:0:
202,346,41158,1,8,0:2:0:0:
202,346,41258,2,0,L|193:257,1,70,4|8,0:0|0:2,0:0:0:0:
156,140,41658,6,0,P|222:157|282:125,2,140,4|4|4,0:0|0:0|0:0,0:0:0:0:
49,38,42758,1,8,0:2:0:0:
49,38,42858,2,0,L|151:35,1,70,4|8,0:0|0:2,0:0:0:0:
258,35,43258,6,0,B|249:104|249:104|209:161,2,140,4|4|4,0:0|0:0|0:0,0:0:0:0:
324,165,44358,1,8,0:2:0:0:
324,165,44458,2,0,L|410:171,1,70,4|8,0:0|0:2,0:0:0:0:
364,306,44858,6,0,B|303:341|303:341|233:345,2,140,4|4|4,0:0|0:0|0:0,0:0:0:0:
324,165,45958,1,8,0:2:0:0:
324,165,46058,2,0,L|320:76,1,70,4|8,0:0|0:2,0:0:0:0:
193,36,46458,5,2,0:0:0:0:
116,45,46658,1,2,0:0:0:0:
64,101,46858,1,2,0:0:0:0:
64,178,47058,1,2,0:0:0:0:
109,239,47258,2,0,P|152:259|204:254,1,70,2|2,0:0|0:0,0:0:0:0:
212,258,47558,2,0,P|229:227|256:205,1,70,2|2,0:0|0:0,0:0:0:0:
293,193,47858,1,2,0:0:0:0:
324,317,48058,5,2,0:0:0:0:
408,307,48258,1,2,0:0:0:0:
463,242,48458,1,2,0:0:0:0:
457,157,48658,1,2,0:0:0:0:
394,100,48858,2,0,P|351:80|298:84,1,77.0000023498536,2|2,0:0|0:0,0:0:0:0:
280,88,49158,2,0,P|263:119|230:147,1,77.0000023498536,2|2,0:0|0:0,0:0:0:0:
194,166,49458,1,2,0:0:0:0:
105,298,49658,5,2,0:0:0:0:
197,294,49858,1,2,0:0:0:0:
289,289,50058,1,2,0:0:0:0:
381,284,50258,1,2,0:0:0:0:
473,277,50458,2,0,P|493:234|487:172,1,83.9999974365235,2|2,0:0|0:0,0:0:0:0:
480,154,50758,2,0,P|439:144|407:118,1,83.9999974365235,2|2,0:0|0:0,0:0:0:0:
383,78,51058,1,2,0:0:0:0:
256,192,51258,12,12,52458,0:0:0:0:
84,202,52858,5,6,0:0:0:0:
198,281,53058,2,0,P|240:288|301:260,1,90.9999958343508,2|4,0:0|0:0,0:0:0:0:
398,153,53458,1,2,0:0:0:0:
250,161,53658,2,0,B|182:139|182:139|206:122,1,90.9999958343508,6|0,0:0|0:0,0:0:0:0:
362,38,54058,5,6,0:0:0:0:
335,179,54258,2,0,L|315:285,1,90.9999958343508,2|4,0:0|0:0,0:0:0:0:
187,349,54658,1,2,0:0:0:0:
336,363,54858,1,6,0:0:0:0:
101,189,55258,5,6,0:0:0:0:
388,237,55658,1,6,0:0:0:0:
191,21,56058,5,6,0:0:0:0:
209,165,56258,2,0,P|256:193|281:152,1,90.9999958343508,2|4,0:0|0:0,0:0:0:0:
311,23,56658,1,2,0:0:0:0:
174,95,56858,1,6,0:0:0:0:
456,162,57258,5,6,0:0:0:0:
327,230,57458,2,0,B|298:247|298:247|290:270|290:270|254:290,1,90.9999958343508,2|4,0:0|0:0,0:0:0:0:
169,163,57858,1,2,0:0:0:0:
178,315,58058,2,0,B|178:349|178:349|161:360,2,45.4999979171754,6|0|0,0:0|0:0|0:0,0:0:0:0:
0,264,58458,5,6,0:0:0:0:
114,188,58658,1,2,0:0:0:0:
219,105,58858,2,0,P|182:52|87:29,1,136.499993751526,6|0,0:0|0:0,0:0:0:0:
69,24,59258,5,6,0:0:0:0:
43,167,59458,2,0,B|44:213|44:213|71:249,1,90.9999958343508,2|4,0:0|0:0,0:0:0:0:
179,145,59858,1,2,0:0:0:0:
238,254,60058,2,0,B|233:324|233:324|211:306,1,90.9999958343508,6|0,0:0|0:0,0:0:0:0:
178,161,60458,5,6,0:0:0:0:
326,170,60658,1,2,0:0:0:0:
238,254,60858,2,0,P|196:271|151:267,1,90.9999958343508,4|2,0:0|0:0,0:0:0:0:
128,105,61258,2,0,P|169:87|214:91,1,90.9999958343508,6|0,0:0|0:0,0:0:0:0:
111,187,61658,5,6,0:0:0:0:
401,164,62058,1,6,0:0:0:0:
228,359,62458,5,6,0:0:0:0:
240,213,62658,2,0,P|279:197|307:229,1,90.9999958343508,2|4,0:0|0:0,0:0:0:0:
168,290,63058,1,2,0:0:0:0:
318,322,63258,1,6,0:0:0:0:
178,105,63658,5,6,0:0:0:0:
323,139,63858,2,0,P|364:121|409:125,1,90.9999958343508,2|4,0:0|0:0,0:0:0:0:
442,275,64258,1,2,0:0:0:0:
302,231,64458,2,0,B|268:219|268:219|262:199,2,45.4999979171754,6|0|0,0:0|0:0|0:0,0:0:0:0:
136,72,65058,6,0,B|89:69|89:69|50:93,2,90.9999958343508
152,216,65658,5,6,0:0:0:0:
20,262,65858,1,2,0:0:0:0:
148,337,66058,2,0,P|233:316|277:215,1,181.999991668702,14|4,0:0|0:0,0:0:0:0:
194,129,66658,1,2,0:0:0:0:
320,139,66858,1,14,0:0:0:0:
204,230,67058,6,4,P|173:260|122:249,2,90.9999958343508,2|4|0,0:0|0:0|0:0,0:0:0:0:
141,96,67658,2,0,L|55:69,1,90.9999958343508,12|0,0:0|0:0,0:0:0:0:
0,201,68058,5,4,0:0:0:0:
261,162,68458,1,14,0:0:0:0:
115,378,68858,6,0,P|157:363|187:330,1,90.9999958343508,6|2,0:0|0:0,0:0:0:0:
188,175,69258,2,0,P|179:219|192:262,1,90.9999958343508,14|2,0:0|0:0,0:0:0:0:
327,340,69658,2,0,P|293:310|249:300,2,90.9999958343508,6|2|14,0:0|0:0|0:0,0:0:0:0:
464,354,70258,1,2,0:0:0:0:
383,251,70458,6,0,L|321:179,1,90.9999958343508,4|0,0:0|0:0,0:0:0:0:
336,46,70858,1,12,0:0:0:0:
151,318,71258,5,4,0:0:0:0:
288,294,71458,1,0,0:0:0:0:
195,169,71658,1,14,0:0:0:0:
383,118,72058,6,0,P|407:80|447:59,1,90.9999958343508,6|0,0:0|0:0,0:0:0:0:
512,195,72458,1,12,0:0:0:0:
256,39,72858,2,0,P|171:60|127:161,1,181.999991668702,6|14,0:0|0:0,0:0:0:0:
219,250,73458,1,2,0:0:0:0:
84,199,73658,2,0,P|38:200|0:224,1,90.9999958343508,4|0,0:0|0:0,0:0:0:0:
80,355,74058,6,0,L|206:351,1,90.9999958343508,14|2,0:0|0:0,0:0:0:0:
231,312,74358,1,2,0:0:0:0:
231,312,74458,2,0,L|357:308,1,90.9999958343508,6|2,0:0|0:0,0:0:0:0:
382,269,74758,1,2,0:0:0:0:
382,269,74858,2,0,L|508:265,1,90.9999958343508,14|2,0:0|0:0,0:0:0:0:
505,336,75158,1,2,0:0:0:0:
505,336,75258,6,0,P|466:359|421:361,1,90.9999958343508,6|2,0:0|0:0,0:0:0:0:
306,247,75658,2,0,P|260:249|222:272,1,90.9999958343508,14|2,0:0|0:0,0:0:0:0:
143,380,76058,1,6,0:0:0:0:
85,239,76258,5,2,0:0:0:0:
222,272,76458,1,14,0:0:0:0:
86,325,76658,2,0,P|42:312|12:279,2,90.9999958343508,2|4|0,0:0|0:0|0:0,0:0:0:0:
237,356,77258,1,12,0:0:0:0:
237,356,78058,5,8,0:0:0:0:
185,177,78458,1,4,0:0:0:0:
391,310,88058,6,0,L|360:252,3,35
322,300,88458,2,0,L|270:280,3,35
307,233,88858,2,0,L|276:175,3,35
241,229,89258,2,0,L|189:209,3,35
214,160,89658,6,0,L|197:143,28,17.5
250,144,91258,6,0,P|313:153|334:170,1,70,2|0,0:0|0:0,0:0:0:0:
363,241,91658,2,0,L|345:321,1,70,2|0,0:0|0:0,0:0:0:0:
262,358,92058,1,2,0:0:0:0:
262,358,92258,1,2,0:0:0:0:
86,197,92658,5,2,0:0:0:0:
86,197,92858,2,0,L|167:194,1,70,2|0,0:0|0:0,0:0:0:0:
216,117,93258,2,0,L|285:114,2,70,2|0|0,0:0|0:0|0:0,0:0:0:0:
117,120,93858,1,2,0:0:0:0:
117,120,94058,2,0,P|148:50|226:22,1,140,2|0,0:0|0:0,0:0:0:0:
279,82,94658,5,2,0:0:0:0:
353,18,94858,2,0,L|469:15,1,70,2|0,0:0|0:0,0:0:0:0:
497,80,95258,1,2,0:0:0:0:
497,80,95458,1,2,0:0:0:0:
395,250,95858,5,2,0:0:0:0:
395,250,96058,2,0,L|291:247,1,70,2|0,0:0|0:0,0:0:0:0:
238,188,96458,1,2,0:0:0:0:
238,188,96658,2,0,L|168:185,1,70,2|0,0:0|0:0,0:0:0:0:
80,126,97058,1,2,0:0:0:0:
75,230,97258,1,2,0:0:0:0:
144,309,97458,1,2,0:0:0:0:
247,320,97658,1,2,0:0:0:0:
299,206,97858,6,0,P|332:196|367:198,2,70,2|2|0,0:0|0:0|0:0,0:0:0:0:
247,320,98458,2,0,L|213:400,2,70,2|2|0,0:0|0:0|0:0,0:0:0:0:
370,332,99058,2,0,P|404:334|438:324,2,70,2|2|0,0:0|0:0|0:0,0:0:0:0:
285,238,99658,2,0,L|184:234,2,70,2|2|0,0:0|0:0|0:0,0:0:0:0:
411,241,100258,5,2,0:0:0:0:
324,323,100458,2,0,B|266:363|266:363|196:361,1,140,2|0,0:0|0:0,0:0:0:0:
139,257,101058,6,0,P|94:222|40:216,2,70,2|2|0,0:0|0:0|0:0,0:0:0:0:
196,361,101658,1,2,0:0:0:0:
261,261,101858,2,0,L|303:187,1,70,2|0,0:0|0:0,0:0:0:0:
409,165,102258,6,0,P|443:168|477:160,2,70,2|2|0,0:0|0:0|0:0,0:0:0:0:
321,83,102858,2,0,P|286:79|252:87,2,70,2|2|0,0:0|0:0|0:0,0:0:0:0:
409,165,103458,1,2,0:0:0:0:
445,16,103658,1,8,0:0:0:0:
272,191,104058,5,6,0:0:0:0:
272,191,104258,1,2,0:0:0:0:
181,118,104458,2,0,P|146:118|112:125,1,70,8|0,0:0|0:0,0:0:0:0:
90,153,104758,1,0,0:0:0:0:
79,187,104858,1,6,0:0:0:0:
24,88,105058,1,2,0:0:0:0:
8,214,105258,2,0,L|14:288,1,70,8|0,0:0|0:0,0:0:0:0:
38,308,105558,1,0,0:0:0:0:
65,329,105658,6,0,P|98:338|133:340,1,70,6|2,0:0|0:0,0:0:0:0:
229,255,106058,2,0,B|241:222|241:222|269:201,1,70,8|0,0:0|0:0,0:0:0:0:
303,194,106358,1,0,0:0:0:0:
337,190,106458,2,0,L|327:93,1,70,6|2,0:0|0:0,0:0:0:0:
237,14,106858,1,10,0:0:0:0:
91,208,107258,5,6,0:0:0:0:
91,208,107458,2,0,P|125:208|159:201,1,70,2|0,0:0|0:0,0:0:0:0:
213,307,107858,1,6,0:0:0:0:
213,307,108058,2,0,P|242:288|267:263,1,70,2|0,0:0|0:0,0:0:0:0:
363,332,108458,5,6,0:0:0:0:
363,332,108658,2,0,P|378:300|384:266,1,70,2|0,0:0|0:0,0:0:0:0:
496,266,109058,1,6,0:0:0:0:
496,266,109258,2,0,P|491:231|478:199,1,70,2|0,0:0|0:0,0:0:0:0:
363,111,109658,5,6,0:0:0:0:
363,111,109858,1,2,0:0:0:0:
375,222,110058,1,10,0:0:0:0:
173,107,110458,5,6,0:0:0:0:
173,107,110658,1,2,0:0:0:0:
154,217,110858,2,0,P|141:250|116:274,1,70,8|0,0:0|0:0,0:0:0:0:
84,287,111158,1,0,0:0:0:0:
49,288,111258,1,6,0:0:0:0:
141,362,111458,1,2,0:0:0:0:
261,290,111658,2,0,L|360:279,1,70,8|0,0:0|0:0,0:0:0:0:
365,279,111958,1,0,0:0:0:0:
399,274,112058,6,0,P|400:239|414:207,1,70,6|2,0:0|0:0,0:0:0:0:
491,90,112458,1,8,0:0:0:0:
456,94,112558,1,0,0:0:0:0:
421,98,112658,1,0,0:0:0:0:
386,102,112758,1,0,0:0:0:0:
351,106,112858,2,0,L|343:198,1,70,6|2,0:0|0:0,0:0:0:0:
261,290,113258,1,10,0:0:0:0:
44,287,113658,5,6,0:0:0:0:
44,287,113858,2,0,L|140:283,1,70,2|0,0:0|0:0,0:0:0:0:
233,211,114258,1,6,0:0:0:0:
233,211,114458,2,0,L|137:215,1,70,2|0,0:0|0:0,0:0:0:0:
38,150,114858,5,6,0:0:0:0:
38,150,115058,2,0,L|134:146,1,70,2|0,0:0|0:0,0:0:0:0:
227,73,115458,1,6,0:0:0:0:
227,73,115658,2,0,L|131:77,1,70,2|0,0:0|0:0,0:0:0:0:
32,12,116058,5,6,0:0:0:0:
32,12,116258,1,2,0:0:0:0:
37,136,116458,2,0,B|39:170|51:165|51:197,1,56,10|0,0:0|0:0,0:0:0:0:
40,318,116858,6,0,P|105:300|166:331,2,140,4|4|4,0:0|0:0|0:0,0:0:0:0:
119,194,117958,1,8,0:2:0:0:
119,194,118058,2,0,L|200:192,1,70,4|8,0:0|0:2,0:0:0:0:
318,138,118458,6,0,P|285:198|303:264,2,140,4|4|4,0:0|0:0|0:0,0:0:0:0:
408,254,119558,1,8,0:2:0:0:
408,254,119658,2,0,L|413:325,1,70,4|8,0:0|0:2,0:0:0:0:
275,354,120058,6,0,B|206:345|206:345|149:305,2,140,4|4|4,0:0|0:0|0:0,0:0:0:0:
336,220,121158,1,8,0:2:0:0:
336,220,121258,2,0,L|265:211,1,70,4|8,0:0|0:2,0:0:0:0:
155,126,121658,6,0,B|164:57|164:57|204:0,2,140,4|4|4,0:0|0:0|0:0,0:0:0:0:
55,234,122758,1,8,0:2:0:0:
55,234,122858,2,0,L|63:163,1,70,4|8,0:0|0:2,0:0:0:0:
168,72,123258,5,2,0:0:0:0:
244,79,123458,1,2,0:0:0:0:
297,134,123658,1,2,0:0:0:0:
298,211,123858,1,2,0:0:0:0:
254,273,124058,2,0,P|211:293|159:289,1,70,2|2,0:0|0:0,0:0:0:0:
152,294,124358,2,0,P|134:263|107:241,1,70,2|2,0:0|0:0,0:0:0:0:
70,230,124658,1,2,0:0:0:0:
214,199,124858,5,2,0:0:0:0:
254,273,125058,1,2,0:0:0:0:
335,299,125258,1,2,0:0:0:0:
412,262,125458,1,2,0:0:0:0:
441,182,125658,2,0,P|443:134|419:86,1,77.0000023498536,2|2,0:0|0:0,0:0:0:0:
409,72,125958,2,0,P|373:67|335:47,1,77.0000023498536,2|2,0:0|0:0,0:0:0:0:
309,17,126258,1,2,0:0:0:0:
145,17,126458,5,2,0:0:0:0:
149,109,126658,1,2,0:0:0:0:
154,201,126858,1,2,0:0:0:0:
159,293,127058,1,2,0:0:0:0:
241,250,127258,2,0,P|276:218|294:158,1,83.9999974365235,2|2,0:0|0:0,0:0:0:0:
296,140,127558,2,0,P|262:114|242:78,1,83.9999974365235,2|2,0:0|0:0,0:0:0:0:
236,32,127858,1,2,0:0:0:0:
256,192,128058,12,12,129258,0:0:0:0:
307,350,129658,5,4,0:0:0:0:
305,339,129758,1,0,0:0:0:0:
303,328,129858,1,0,0:0:0:0:
445,332,130058,6,0,B|480:324|480:324|509:298,1,70
473,168,130458,5,4,0:0:0:0:
472,178,130558,1,0,0:0:0:0:
471,188,130658,1,0,0:0:0:0:
336,166,130858,6,0,B|321:172|321:172|294:157|246:156,1,70,0|0,0:3|0:3,0:3:0:0:
380,280,131258,5,4,0:0:0:0:
390,278,131358,1,0,0:0:0:0:
400,276,131458,1,0,0:0:0:0:
174,210,132058,5,4,0:0:0:0:
163,208,132158,1,2,0:3:0:0:
152,207,132258,1,2,0:3:0:0:
141,205,132358,1,2,0:3:0:0:
130,204,132458,2,0,P|130:244|138:285,1,70,4|2,0:0|0:3,0:3:0:0:
45,380,132858,5,6,0:0:0:0:
191,364,133058,2,0,B|260:355|260:355|241:334,1,90.9999958343508,2|4,0:0|0:0,0:0:0:0:
134,273,133458,1,2,0:0:0:0:
280,252,133658,1,6,0:0:0:0:
88,70,134058,5,6,0:0:0:0:
231,89,134258,2,0,B|264:94|264:94|279:113|279:113|320:118,1,90.9999958343508,2|4,0:0|0:0,0:0:0:0:
458,50,134658,1,2,0:0:0:0:
439,200,134858,2,0,B|436:234|436:234|420:240,2,45.4999979171754,6|0|0,0:0|0:0|0:0,0:0:0:0:
340,84,135258,5,6,0:0:0:0:
284,208,135458,1,2,0:0:0:0:
229,323,135658,2,0,P|162:313|112:268,1,136.499993751526,6|0,0:0|0:0,0:0:0:0:
92,227,136058,5,6,0:0:0:0:
221,185,136258,2,0,L|349:176,1,90.9999958343508,2|4,0:0|0:0,0:0:0:0:
439,278,136658,1,2,0:0:0:0:
424,137,136858,2,0,B|415:67|415:67|440:80,1,90.9999958343508,6|0,0:0|0:0,0:0:0:0:
512,199,137258,5,6,0:0:0:0:
366,188,137458,2,0,L|238:179,1,90.9999958343508,2|4,0:0|0:0,0:0:0:0:
147,97,137858,1,2,0:0:0:0:
296,108,138058,1,6,0:0:0:0:
156,174,138258,1,0,0:0:0:0:
283,259,138458,5,6,0:0:0:0:
29,238,138858,1,6,0:0:0:0:
149,35,139258,5,6,0:0:0:0:
173,177,139458,2,0,B|184:245|184:245|162:231,1,90.9999958343508,2|4,0:0|0:0,0:0:0:0:
84,121,139858,1,2,0:0:0:0:
235,102,140058,1,6,0:0:0:0:
319,343,140458,5,6,0:0:0:0:
343,206,140658,2,0,B|349:173|349:173|368:157|368:157|375:117,1,90.9999958343508,2|4,0:0|0:0,0:0:0:0:
502,45,141058,1,2,0:0:0:0:
357,27,141258,2,0,B|323:22|323:22|302:39,2,45.4999979171754,6|0|0,0:0|0:0|0:0,0:0:0:0:
127,120,141858,5,2,0:0:0:0:
135,210,142058,1,2,0:0:0:0:
141,300,142258,1,2,0:0:0:0:
232,383,142458,5,6,0:0:0:0:
75,344,142658,1,2,0:0:0:0:
210,269,142858,2,0,P|265:201|239:93,1,181.999991668702,12|4,0:0|0:0,0:0:0:0:
113,33,143458,1,2,0:0:0:0:
83,174,143658,2,0,P|98:216|131:246,1,90.9999958343508,14|2,0:0|0:0,0:0:0:0:
300,274,144058,6,0,L|187:291,1,90.9999958343508,4|0,0:0|0:0,0:0:0:0:
64,352,144458,2,0,L|180:361,1,90.9999958343508,12|0,0:0|0:0,0:0:0:0:
300,383,144858,5,4,0:0:0:0:
119,214,145258,1,14,0:0:0:0:
342,82,145658,5,6,0:0:0:0:
374,224,145858,2,0,P|394:252|458:272,2,90.9999958343508,2|14|2,0:0|0:0|0:0,0:0:0:0:
421,78,146458,1,6,0:0:0:0:
449,194,146658,1,2,0:0:0:0:
313,165,146858,2,0,L|183:136,1,90.9999958343508,2|2,0:0|0:0,0:0:0:0:
86,209,147258,6,0,P|110:246|151:265,1,90.9999958343508,4|0,0:0|0:0,0:0:0:0:
296,242,147658,1,12,0:0:0:0:
203,23,148058,5,4,0:0:0:0:
326,23,148258,1,0,0:0:0:0:
266,150,148458,1,14,0:0:0:0:
452,302,148858,6,0,B|425:337|425:337|381:352,1,90.9999958343508,6|0,0:0|0:0,0:0:0:0:
244,302,149258,1,12,0:0:0:0:
426,122,149658,2,0,P|377:49|266:42,1,181.999991668702,6|14,0:0|0:0,0:0:0:0:
166,126,150258,1,2,0:0:0:0:
267,185,150458,2,0,B|306:207|306:207|356:204,1,90.9999958343508,4|0,0:0|0:0,0:0:0:0:
491,166,150858,6,0,L|451:293,1,90.9999958343508,14|2,0:0|0:0,0:0:0:0:
437,320,151158,1,2,0:0:0:0:
437,320,151258,2,0,P|392:310|349:322,1,90.9999958343508,6|2,0:0|0:0,0:0:0:0:
277,323,151558,1,2,0:0:0:0:
277,323,151658,2,0,P|232:313|189:325,1,90.9999958343508,14|2,0:0|0:0,0:0:0:0:
118,326,151958,1,2,0:0:0:0:
118,326,152058,6,0,L|90:239,1,90.9999958343508,6|2,0:0|0:0,0:0:0:0:
216,148,152458,2,0,L|244:235,1,90.9999958343508,14|2,0:0|0:0,0:0:0:0:
374,334,152858,1,6,0:0:0:0:
231,323,153058,5,2,0:0:0:0:
303,198,153258,1,14,0:0:0:0:
425,285,153458,2,0,P|466:301|511:293,2,90.9999958343508,2|4|0,0:0|0:0|0:0,0:0:0:0:
279,316,154058,1,12,0:0:0:0:
48,65,155258,5,6,0:0:0:0:
97,195,155458,1,2,0:0:0:0:
170,87,155658,2,0,L|364:91,1,181.999991668702,12|4,0:0|0:0,0:0:0:0:
429,220,156258,1,2,0:0:0:0:
478,109,156458,1,14,0:0:0:0:
332,168,156658,6,0,L|219:163,2,90.9999958343508,2|4|0,0:0|0:0|0:0,0:0:0:0:
471,251,157258,2,0,P|478:295|462:337,1,90.9999958343508,12|0,0:0|0:0,0:0:0:0:
308,352,157658,5,4,0:0:0:0:
438,142,158058,1,14,0:0:0:0:
204,221,158458,6,0,P|159:228|117:212,1,90.9999958343508,6|2,0:0|0:0,0:0:0:0:
206,83,158858,2,0,P|250:75|292:91,1,90.9999958343508,14|2,0:0|0:0,0:0:0:0:
349,238,159258,2,0,L|337:339,2,90.9999958343508,6|2|14,0:0|0:0|0:0,0:0:0:0:
440,110,159858,1,2,0:0:0:0:
293,169,160058,6,0,B|207:197|207:197|118:169,2,181.999991668702,4|12|4,0:0|0:0|0:0,0:0:0:0:
293,169,161058,1,0,0:0:0:0:
213,286,161258,1,14,0:0:0:0:
465,286,161658,5,2,0:0:0:0:
465,216,161858,2,0,L|465:146,2,70
395,216,162458,2,0,L|395:286,2,70,2|0|2,0:0|0:0|0:0,0:0:0:0:
395,146,163058,1,2,0:0:0:0:
325,146,163258,2,0,L|255:146,1,70
185,216,163658,6,0,L|255:216,1,70,2|2,0:0|0:0,0:0:0:0:
290,216,163958,1,2,0:0:0:0:
325,216,164058,2,0,L|325:286,1,70,2|2,0:0|0:0,0:0:0:0:
290,286,164358,1,2,0:0:0:0:
255,286,164458,2,0,L|255:356,1,70,2|2,0:0|0:0,0:0:0:0:
185,286,164858,6,0,L|185:216,1,70,2|2,0:0|0:0,0:0:0:0:
220,216,165158,1,2,0:0:0:0:
255,216,165258,2,0,L|255:146,1,70,2|2,0:0|0:0,0:0:0:0:
290,146,165558,1,2,0:0:0:0:
325,146,165658,2,0,L|325:76,1,70,2|2,0:0|0:0,0:0:0:0:
325,5,166058,1,2,0:0:0:0:
255,5,166258,1,2,0:0:0:0:
255,76,166458,6,0,L|255:146,2,70
185,76,167058,2,0,L|185:6,2,70
