osu file format v14

[General]
AudioFilename: cYsmix - Manic 224.mp3
AudioLeadIn: 0
PreviewTime: 52858
Countdown: 0
SampleSet: None
StackLeniency: 0.4
Mode: 0
LetterboxInBreaks: 0
WidescreenStoryboard: 0

[Editor]
Bookmarks: 14458,27258,40058,91258,104058,116858,129658,168058
DistanceSpacing: 1
BeatDivisor: 2
GridSize: 8
TimelineZoom: 2.9

[Metadata]
Title:Manic
TitleUnicode:Manic
Artist:cYsmix
ArtistUnicode:cYsmix
Creator:Bonsai
Version:Extra
Source:osu!
Tags:Mapping With Rewards
BeatmapID:804683
BeatmapSetID:361214

[Difficulty]
HPDrainRate:7
CircleSize:4.5
OverallDifficulty:8.5
ApproachRate:9
SliderMultiplier:1.6
SliderTickRate:1

[Events]
//Background and Video events
0,0,"osu!cysmix-bgtiny.jpg",0,0
//Break Periods
2,78658,87458
//Storyboard Layer 0 (Background)
//Storyboard Layer 1 (Fail)
//Storyboard Layer 2 (Pass)
//Storyboard Layer 3 (Foreground)
//Storyboard Sound Samples

[TimingPoints]
1658,400,4,3,0,55,1,0
13058,-100,4,3,0,45,0,0
13258,-100,4,3,0,35,0,0
13458,-100,4,3,0,25,0,0
13558,-100,4,3,0,20,0,0
14058,-100,4,3,0,55,0,0
14458,-100,4,2,1,45,0,0
20858,-100,4,2,0,60,0,0
27258,-100,4,3,0,65,0,0
40058,-125,4,3,0,55,0,0
41658,-117.647058823529,4,3,0,55,0,0
43258,-111.111111111111,4,3,0,55,0,0
44858,-105.263157894737,4,3,0,55,0,0
46458,-100,4,2,0,55,0,0
48058,-90.9090909090909,4,2,0,55,0,0
49658,-83.3333333333333,4,2,0,60,0,0
50058,-76.9230769230769,4,2,0,60,0,0
51258,-71.4285714285714,4,2,0,65,0,0
51658,-66.6666666666667,4,2,0,65,0,0
52058,-62.5,4,2,0,65,0,0
52858,-74.0740740740741,4,3,0,65,0,1
53908,-74.0740740740741,4,3,0,5,0,1
54058,-74.0740740740741,4,3,0,65,0,1
55558,-74.0740740740741,4,3,0,5,0,1
55658,-74.0740740740741,4,3,0,65,0,1
55958,-74.0740740740741,4,3,0,5,0,1
56058,-74.0740740740741,4,3,0,65,0,1
58858,-66.6666666666667,4,3,0,65,0,1
59158,-74.0740740740741,4,3,0,5,0,1
59258,-74.0740740740741,4,3,0,65,0,1
60308,-74.0740740740741,4,3,0,5,0,1
60458,-74.0740740740741,4,3,0,65,0,1
61958,-74.0740740740741,4,3,0,5,0,1
62058,-74.0740740740741,4,3,0,65,0,1
62358,-74.0740740740741,4,3,0,5,0,1
62458,-74.0740740740741,4,3,0,65,0,1
64458,-74.0740740740741,4,3,0,65,0,0
64558,-74.0740740740741,4,3,0,5,0,0
64658,-74.0740740740741,4,3,0,20,0,0
65058,-74.0740740740741,4,3,0,50,0,0
65658,-74.0740740740741,4,3,0,65,0,1
68358,-74.0740740740741,4,3,0,5,0,1
68458,-74.0740740740741,4,3,0,65,0,1
68758,-74.0740740740741,4,3,0,5,0,1
68858,-74.0740740740741,4,3,0,65,0,1
71758,-74.0740740740741,4,3,0,5,0,1
72058,-74.0740740740741,4,3,0,65,0,1
77258,-74.0740740740741,4,3,0,55,0,0
88058,-100,4,3,0,55,0,0
89858,-100,4,3,0,40,0,0
89958,-100,4,3,0,30,0,0
90058,-100,4,3,0,15,0,0
90158,-100,4,3,0,10,0,0
90858,-100,4,3,0,15,0,0
90958,-100,4,3,0,30,0,0
91058,-100,4,3,0,40,0,0
91158,-100,4,3,0,55,0,0
103758,-100,4,3,0,5,0,0
103858,-100,4,3,0,55,0,0
103958,-100,4,3,0,5,0,0
104058,-100,4,3,0,65,0,0
107158,-100,4,3,0,5,0,0
107258,-100,4,3,0,65,0,0
116858,-125,4,3,0,55,0,0
118458,-117.647058823529,4,3,0,55,0,0
120058,-111.111111111111,4,3,0,55,0,0
121658,-105.263157894737,4,3,0,55,0,0
123258,-100,4,2,0,55,0,0
124858,-90.9090909090909,4,2,0,55,0,0
126458,-83.3333333333333,4,2,0,60,0,0
126858,-76.9230769230769,4,2,0,60,0,0
128058,-71.4285714285714,4,2,0,65,0,0
128458,-66.6666666666667,4,2,0,65,0,0
128858,-62.5,4,2,0,65,0,0
129658,-100,4,2,0,45,0,0
132608,-100,4,2,0,5,0,0
132658,-83.3333333333333,4,2,0,45,0,0
132808,-83.3333333333333,4,2,0,5,0,0
132858,-74.0740740740741,4,3,0,65,0,1
134158,-74.0740740740741,4,3,0,5,0,1
134258,-74.0740740740741,4,3,0,65,0,1
134358,-74.0740740740741,4,3,0,5,0,1
134458,-74.0740740740741,4,3,0,65,0,1
135658,-66.6666666666667,4,3,0,65,0,1
135958,-74.0740740740741,4,3,0,5,0,1
136058,-74.0740740740741,4,3,0,65,0,1
137108,-74.0740740740741,4,3,0,5,0,1
137258,-74.0740740740741,4,3,0,65,0,1
138758,-74.0740740740741,4,3,0,5,0,1
138858,-74.0740740740741,4,3,0,65,0,1
139158,-74.0740740740741,4,3,0,5,0,1
139258,-74.0740740740741,4,3,0,65,0,1
141258,-74.0740740740741,4,3,0,65,0,0
141358,-74.0740740740741,4,3,0,5,0,0
141458,-74.0740740740741,4,3,0,20,0,0
141858,-74.0740740740741,4,3,0,50,0,0
142458,-74.0740740740741,4,3,0,65,0,1
145158,-74.0740740740741,4,3,0,5,0,1
145258,-74.0740740740741,4,3,0,65,0,1
145558,-74.0740740740741,4,3,0,5,0,1
145658,-74.0740740740741,4,3,0,65,0,1
148558,-74.0740740740741,4,3,0,5,0,1
148858,-74.0740740740741,4,3,0,65,0,1
149908,-74.0740740740741,4,3,0,5,0,1
150058,-74.0740740740741,4,3,0,65,0,1
154058,-74.0740740740741,4,3,0,65,0,0
154658,-74.0740740740741,4,3,0,50,0,0
155258,-74.0740740740741,4,3,0,65,0,1
157958,-74.0740740740741,4,3,0,5,0,1
158058,-74.0740740740741,4,3,0,65,0,1
158358,-74.0740740740741,4,3,0,5,0,1
158458,-74.0740740740741,4,3,0,65,0,1
161658,-100,4,3,0,55,0,0

[Colours]
Combo1 : 221,221,221
Combo2 : 242,236,0
Combo3 : 254,103,183
Combo4 : 0,86,191

[HitObjects]
396,264,1258,5,0,0:0:0:0:
189,160,1658,5,2,0:0:0:0:
238,286,1858,2,0,P|245:332|239:401,1,80,2|0,0:0|0:0,0:0:0:0:
199,155,2258,1,2,0:0:0:0:
225,288,2458,2,0,P|223:335|206:402,1,80,2|0,0:0|0:0,0:0:0:0:
209,154,2858,1,2,0:0:0:0:
215,291,3058,2,0,P|205:336|176:398,1,80,2|0,0:0|0:0,0:0:0:0:
222,154,3458,1,2,0:0:0:0:
202,289,3658,2,0,P|184:332|144:390,1,80,2|0,0:0|0:0,0:0:0:0:
233,156,4058,5,2,0:0:0:0:
190,288,4258,2,0,P|166:327|116:378,1,80,2|0,0:0|0:0,0:0:0:0:
245,162,4658,1,2,0:0:0:0:
178,283,4858,2,0,P|146:320|90:358,1,80,2|0,0:0|0:0,0:0:0:0:
255,169,5258,1,2,0:0:0:0:
169,276,5458,2,0,P|131:305|69:335,1,80,2|0,0:0|0:0,0:0:0:0:
263,178,5858,1,2,0:0:0:0:
160,267,6058,2,0,P|118:289|51:309,1,80,2|0,0:0|0:0,0:0:0:0:
269,186,6458,5,2,0:0:0:0:
153,259,6658,2,0,P|106:274|37:281,1,80,2|0,0:0|0:0,0:0:0:0:
275,196,7058,1,2,0:0:0:0:
149,248,7258,2,0,P|99:254|32:249,1,80,2|0,0:0|0:0,0:0:0:0:
279,209,7658,1,2,0:0:0:0:
139,197,7858,1,2,0:0:0:0:
0,180,8058,5,4,0:0:0:0:
18,154,8458,1,4,0:0:0:0:
37,128,8858,2,0,P|73:116|126:42,1,120,4|8,0:0|0:2,0:0:0:0:
133,15,9258,1,4,0:0:0:0:
22,33,9458,1,8,0:2:0:0:
178,145,9658,5,4,0:0:0:0:
184,176,10058,1,4,0:0:0:0:
190,207,10458,2,0,P|162:259|167:318,1,120,4|8,0:0|0:2,0:0:0:0:
190,351,10858,1,4,0:0:0:0:
71,290,11058,1,8,0:2:0:0:
261,279,11258,5,4,0:0:0:0:
276,275,11358,1,0,0:0:0:0:
291,270,11458,1,0,0:0:0:0:
306,264,11558,1,0,0:0:0:0:
320,256,11658,1,4,0:0:0:0:
333,247,11758,1,0,0:0:0:0:
346,237,11858,1,0,0:0:0:0:
357,226,11958,1,0,0:0:0:0:
367,213,12058,1,4,0:0:0:0:
376,200,12158,1,0,0:0:0:0:
384,186,12258,1,0,0:0:0:0:
390,171,12358,1,0,0:0:0:0:
395,156,12458,1,4,0:0:0:0:
398,141,12558,1,0,0:0:0:0:
400,125,12658,1,0,0:0:0:0:
401,109,12758,1,0,0:0:0:0:
401,93,12858,6,0,L|397:55,16,20,4|0|0|0|0|0|0|0|0|0|0|0|0|0|0|0|0,0:0|0:0|0:0|0:0|0:0|0:0|0:0|0:0|0:0|0:0|0:0|0:0|0:0|0:0|0:0|0:0|0:0,0:0:0:0:
128,184,14058,5,12,0:0:0:0:
291,24,14458,5,2,0:0:0:0:
277,56,14558,1,0,0:0:0:0:
280,92,14658,1,0,0:0:0:0:
301,122,14758,1,0,0:0:0:0:
333,139,14858,1,0,0:0:0:0:
369,139,14958,1,0,0:0:0:0:
402,124,15058,1,0,0:0:0:0:
422,94,15158,1,0,0:0:0:0:
351,70,15258,5,2,0:0:0:0:
335,102,15358,1,0,0:0:0:0:
317,133,15458,1,0,0:0:0:0:
298,164,15558,1,0,0:0:0:0:
262,169,15658,1,0,0:0:0:0:
226,174,15758,1,0,0:0:0:0:
190,177,15858,1,0,0:0:0:0:
154,179,15958,1,0,0:0:0:0:
112,110,16058,5,2,0:0:0:0:
146,98,16158,1,0,0:0:0:0:
181,105,16258,1,0,0:0:0:0:
211,127,16358,1,0,0:0:0:0:
225,160,16458,1,0,0:0:0:0:
221,195,16558,1,0,0:0:0:0:
206,227,16658,2,0,P|192:242|169:255,1,40,2|0,2:0|0:0,0:0:0:0:
249,301,16858,5,2,0:0:0:0:
284,302,16958,1,0,0:0:0:0:
319,303,17058,1,0,0:0:0:0:
354,301,17158,1,0,0:0:0:0:
384,230,17258,1,2,0:0:0:0:
380,186,17358,1,0,0:0:0:0:
372,142,17458,2,0,L|365:79,1,40
291,34,17658,5,2,0:0:0:0:
287,61,17758,1,0,0:0:0:0:
285,88,17858,1,0,0:0:0:0:
281,115,17958,1,0,0:0:0:0:
278,142,18058,2,0,L|271:199,1,40
185,119,18258,1,2,0:0:0:0:
181,146,18358,1,0,0:0:0:0:
177,173,18458,1,0,0:0:0:0:
174,200,18558,1,0,0:0:0:0:
171,227,18658,2,0,L|164:284,1,40
79,204,18858,5,2,0:0:0:0:
75,231,18958,1,0,0:0:0:0:
71,258,19058,1,0,0:0:0:0:
68,285,19158,1,0,0:0:0:0:
65,312,19258,2,0,L|78:361,1,40
181,360,19458,1,2,0:0:0:0:
185,333,19558,1,0,0:0:0:0:
189,306,19658,1,0,0:0:0:0:
194,278,19758,1,0,0:0:0:0:
200,250,19858,2,0,L|238:199,1,40
324,222,20058,5,2,0:0:0:0:
320,249,20158,1,0,0:0:0:0:
316,276,20258,1,0,0:0:0:0:
312,303,20358,1,0,0:0:0:0:
310,331,20458,2,0,L|323:380,1,40
410,382,20658,1,2,0:0:0:0:
438,382,20758,1,0,0:0:0:0:
471,318,20858,6,0,B|473:297|473:297|469:273,1,40,2|0,0:3|0:3,0:3:0:0:
364,205,21058,2,0,B|361:185|361:185|363:165,1,40,2|0,0:3|0:3,0:3:0:0:
459,94,21258,1,0,0:3:0:0:
442,71,21358,1,0,0:3:0:0:
418,55,21458,1,0,0:3:0:0:
390,51,21558,1,0,0:3:0:0:
326,84,21658,6,0,B|308:89|308:89|287:91,1,40,2|0,0:3|0:3,0:3:0:0:
178,30,21858,2,0,B|156:31|156:31|139:37,1,40,2|0,0:3|0:3,0:3:0:0:
72,131,22058,1,0,0:3:0:0:
76,158,22158,1,0,0:3:0:0:
80,185,22258,1,0,0:3:0:0:
84,212,22358,1,0,0:3:0:0:
119,274,22458,6,0,B|136:279|136:279|157:281,1,40,2|0,0:3|0:3,0:3:0:0:
269,221,22658,2,0,B|290:222|290:222|307:228,1,40,2|0,0:3|0:3,0:3:0:0:
345,346,22858,1,0,0:3:0:0:
326,367,22958,1,0,0:3:0:0:
298,371,23058,1,0,0:3:0:0:
272,360,23158,1,0,0:3:0:0:
229,301,23258,6,0,B|223:283|223:283|221:262,1,40,2|0,0:3|0:3,0:3:0:0:
286,149,23458,2,0,B|284:127|284:127|278:110,1,40,2|0,0:3|0:3,0:3:0:0:
158,74,23658,2,0,B|136:75|119:81,3,40,2|0|0|0,0:3|0:3|0:3|0:3,0:3:0:0:
70,171,24058,6,0,L|78:224,1,40,2|0,0:3|0:3,0:3:0:0:
184,285,24258,2,0,L|179:246,1,40,2|0,0:3|0:3,0:3:0:0:
278,158,24458,1,0,0:3:0:0:
282,185,24558,1,0,0:3:0:0:
289,224,24658,6,0,L|297:277,1,40,2|0,0:3|0:3,0:3:0:0:
412,325,24858,2,0,L|406:285,1,40,2|0,0:3|0:3,0:3:0:0:
496,199,25058,1,0,0:3:0:0:
492,171,25158,1,0,0:3:0:0:
485,132,25258,6,0,L|479:92,1,40,2|0,0:3|0:3,0:3:0:0:
355,34,25458,2,0,L|363:87,1,40,2|0,0:3|0:3,0:3:0:0:
278,158,25658,1,0,0:3:0:0:
282,185,25758,1,0,0:3:0:0:
289,224,25858,6,0,L|295:264,1,40,2|0,0:3|0:3,0:3:0:0:
194,352,26058,2,0,L|186:299,1,40,2|0,0:3|0:3,0:3:0:0:
73,251,26258,1,0,0:3:0:0:
67,224,26358,1,0,0:3:0:0:
59,185,26458,6,0,L|51:132,1,40,2|0,0:3|0:3,0:3:0:0:
148,45,26658,2,0,L|154:85,1,40,2|0,0:3|0:3,0:3:0:0:
237,161,26858,2,0,L|277:155,3,40,2|0|0|0,0:3|0:3|0:3|0:3,0:3:0:0:
319,219,27258,5,6,0:0:0:0:
96,187,27458,1,2,0:0:0:0:
253,76,27658,2,0,P|292:73|354:94,1,80,8|0,0:0|0:0,0:0:0:0:
387,138,27958,1,0,0:0:0:0:
384,177,28058,5,6,0:0:0:0:
486,13,28258,1,2,0:0:0:0:
470,213,28458,2,0,L|464:308,1,80,8|0,0:0|0:0,0:0:0:0:
403,340,28758,1,0,0:0:0:0:
399,379,28858,5,6,0:0:0:0:
306,158,29058,1,2,0:0:0:0:
177,325,29258,2,0,L|174:372,1,40,8|0,0:0|0:0,0:0:0:0:
120,203,29458,2,0,L|123:155,1,40
27,270,29658,5,6,0:0:0:0:
282,263,29858,1,2,0:0:0:0:
237,53,30058,2,0,P|299:33|367:50,1,120,8|0,0:0|0:0,0:0:0:0:
423,75,30458,5,6,0:0:0:0:
315,217,30658,1,2,0:0:0:0:
476,138,30858,1,0,0:0:0:0:
273,42,31058,5,6,0:0:0:0:
315,217,31258,1,2,0:0:0:0:
351,42,31458,1,0,0:0:0:0:
152,133,31658,5,6,0:0:0:0:
315,217,31858,1,0,0:0:0:0:
204,76,32058,1,2,0:0:0:0:
146,280,32258,5,6,0:0:0:0:
315,217,32458,1,0,0:0:0:0:
137,204,32658,1,2,0:0:0:0:
251,384,32858,5,6,0:0:0:0:
315,217,33058,1,2,0:0:0:0:
146,280,33258,2,0,P|84:288|19:243,1,120,10|0,0:0|0:0,0:0:0:0:
19,167,33658,5,6,0:0:0:0:
22,351,33858,1,2,0:0:0:0:
146,280,34058,2,0,B|157:271|157:271|150:198,1,80,8|0,0:0|0:0,0:0:0:0:
88,160,34358,1,0,0:0:0:0:
48,166,34458,5,6,0:0:0:0:
290,133,34658,1,2,0:0:0:0:
146,280,34858,2,0,P|150:335|178:376,1,80,8|0,0:0|0:0,0:0:0:0:
234,384,35158,1,0,0:0:0:0:
273,378,35258,5,6,0:0:0:0:
75,280,35458,1,2,0:0:0:0:
317,240,35658,1,8,0:0:0:0:
308,200,35758,1,0,0:0:0:0:
302,160,35858,2,0,L|289:88,1,40
385,48,36058,5,6,0:0:0:0:
160,83,36258,1,2,0:0:0:0:
373,150,36458,2,0,P|418:183|436:248,1,120,8|0,0:0|0:0,0:0:0:0:
413,316,36858,5,6,0:0:0:0:
296,153,37058,1,2,0:0:0:0:
493,187,37258,1,0,0:0:0:0:
338,349,37458,5,6,0:0:0:0:
296,153,37658,1,2,0:0:0:0:
465,258,37858,1,0,0:0:0:0:
260,350,38058,5,6,0:0:0:0:
296,153,38258,1,2,0:0:0:0:
413,316,38458,1,0,0:0:0:0:
189,322,38658,5,6,0:0:0:0:
296,153,38858,1,2,0:0:0:0:
338,349,39058,1,0,0:0:0:0:
130,265,39258,5,6,0:0:0:0:
296,153,39458,1,2,0:0:0:0:
115,61,39658,2,0,P|83:81|82:120,1,80,10|0,0:0|0:0,0:0:0:0:
357,29,40058,5,4,0:0:0:0:
371,97,40258,1,0,0:0:0:0:
384,166,40458,1,4,0:0:0:0:
384,166,40858,2,0,P|411:181|430:207,1,64,4|0,0:0|0:0,0:0:0:0:
448,274,41158,1,8,0:2:0:0:
448,274,41258,2,0,P|432:300|433:350,1,64,4|8,0:0|0:2,0:0:0:0:
326,375,41658,5,4,0:0:0:0:
251,372,41858,1,0,0:0:0:0:
188,330,42058,1,4,0:0:0:0:
188,330,42458,2,0,P|172:302|169:266,1,68.0000012969971,4|0,0:0|0:0,0:0:0:0:
182,192,42758,1,8,0:2:0:0:
182,192,42858,2,0,P|203:166|212:133,1,68.0000012969971,4|8,0:0|0:2,0:0:0:0:
199,23,43258,5,4,0:0:0:0:
124,49,43458,1,0,0:0:0:0:
89,120,43658,1,4,0:0:0:0:
89,120,44058,2,0,P|80:150|91:193,1,71.9999978027344,4|0,0:0|0:0,0:0:0:0:
117,262,44358,1,8,0:2:0:0:
117,262,44458,2,0,P|146:273|173:309,1,71.9999978027344,4|8,0:0|0:2,0:0:0:0:
297,354,44858,5,4,0:0:0:0:
310,271,45058,1,0,0:0:0:0:
321,188,45258,1,4,0:0:0:0:
321,188,45658,2,0,P|340:163|386:147,1,75.9999979705811,4|0,0:0|0:0,0:0:0:0:
450,180,45958,1,8,0:2:0:0:
450,180,46058,2,0,P|427:207|389:221,1,75.9999979705811,4|8,0:0|0:2,0:0:0:0:
231,162,46458,5,2,0:3:0:0:
119,189,46658,1,2,0:3:0:0:
57,92,46858,1,2,0:3:0:0:
129,4,47058,1,2,0:3:0:0:
236,45,47258,2,0,P|270:51|320:37,1,80,2|2,0:3|0:3,0:3:0:0:
387,8,47558,1,0,0:3:0:0:
387,8,47658,2,0,L|391:68,1,40,2|0,0:3|0:3,0:3:0:0:
443,107,47858,2,0,L|433:163,1,40,2|0,0:3|0:3,0:3:0:0:
474,223,48058,5,2,0:3:0:0:
341,238,48258,1,2,0:3:0:0:
308,376,48458,1,2,0:3:0:0:
441,364,48658,1,2,0:3:0:0:
341,238,48858,2,0,P|311:217|247:215,1,88.000002685547,2|2,0:3|0:3,0:3:0:0:
210,284,49158,1,0,0:3:0:0:
210,284,49258,2,0,L|188:331,1,44.0000013427735,2|0,0:3|0:3,0:3:0:0:
104,312,49458,2,0,L|39:336,1,44.0000013427735,2|0,0:3|0:0,0:3:0:0:
5,249,49658,6,0,P|34:217|72:205,1,71.9999978027344,2|0,0:3|0:3,0:3:0:0:
108,218,49858,2,0,P|143:221|177:210,1,71.9999978027344,2|0,0:3|0:3,0:3:0:0:
209,150,50058,2,0,L|229:68,1,77.9999964294435,2|0,0:3|0:3,0:3:0:0:
296,41,50258,2,0,P|328:40|376:52,1,77.9999964294435,2|0,0:3|0:3,0:3:0:0:
393,127,50458,2,0,P|395:165|407:202,1,77.9999964294435,2|0,0:3|0:3,0:3:0:0:
408,283,50658,6,0,P|380:304|343:317,1,51.999997619629,2|0,0:3|0:3,0:3:0:0:
261,287,50858,2,0,P|224:289|186:281,1,51.999997619629,2|0,0:3|0:3,0:3:0:0:
130,221,51058,2,0,P|98:203|70:175,1,51.999997619629,2|0,0:3|0:3,0:3:0:0:
76,64,51258,6,0,L|182:51,1,83.9999974365235,2|0,0:3|0:3,0:3:0:0:
233,21,51458,2,0,P|272:48|324:37,1,83.9999974365235,2|0,0:3|0:3,0:3:0:0:
353,119,51658,2,0,P|353:160|324:196,1,90.0000034332277,2|0,0:3|0:3,0:3:0:0:
243,235,51858,2,0,P|251:281|296:326,1,90.0000034332277,2|0,0:3|0:3,0:3:0:0:
379,377,52058,2,0,L|281:385,1,96,2|0,0:3|0:3,0:3:0:0:
184,311,52258,2,0,L|109:302,1,64,2|0,0:3|0:3,0:3:0:0:
0,210,52458,1,14,0:3:0:0:
496,144,52858,5,6,0:0:0:0:
256,56,53058,1,2,0:0:0:0:
256,232,53258,1,4,0:0:0:0:
16,232,53458,1,2,0:0:0:0:
256,144,53658,1,6,0:0:0:0:
256,320,53858,2,0,B|256:354,1,27.0000001029968
454,202,54058,5,6,0:0:0:0:
412,364,54258,1,2,0:0:0:0:
256,320,54458,1,4,0:0:0:0:
256,56,54658,1,2,0:0:0:0:
98,17,54858,1,6,0:0:0:0:
58,175,55058,1,0,0:0:0:0:
256,192,55258,6,0,P|327:174|384:110,1,162.000000617981,6|0,0:0|2:0,0:0:0:0:
256,192,55658,2,0,P|185:210|133:279,1,162.000000617981,6|0,0:0|2:0,0:0:0:0:
256,320,56058,5,6,0:0:0:0:
391,187,56258,2,0,B|418:156|458:145|458:145|436:132,1,108.000000411987,2|4,0:0|0:0,0:0:0:0:
114,179,56658,1,2,0:0:0:0:
254,53,56858,2,0,P|311:21|377:23,1,108.000000411987,6|0,0:0|0:0,0:0:0:0:
256,320,57258,5,6,0:0:0:0:
114,179,57458,2,0,L|34:106,1,108.000000411987,2|4,0:0|0:0,0:0:0:0:
391,187,57858,1,2,0:0:0:0:
254,53,58058,2,0,B|201:2|201:2|207:42,1,108.000000411987,6|0,0:0|0:0,0:0:0:0:
476,194,58458,5,6,0:0:0:0:
256,320,58658,1,2,0:0:0:0:
40,227,58858,2,0,B|44:189|44:189|69:194|69:194|83:177|83:177|106:189|106:189|123:171|123:171|162:206,1,180.000006866455,6|0,0:0|0:0,0:0:0:0:
123,296,59258,5,6,0:0:0:0:
170,71,59458,1,2,0:0:0:0:
256,320,59658,1,4,0:0:0:0:
431,117,59858,1,2,0:0:0:0:
384,342,60058,1,6,0:0:0:0:
298,93,60258,2,0,B|290:68,1,27.0000001029968
279,202,60458,5,6,0:0:0:0:
381,26,60658,1,2,0:0:0:0:
407,234,60858,1,4,0:0:0:0:
151,234,61058,1,2,0:0:0:0:
177,26,61258,1,6,0:0:0:0:
279,202,61458,1,0,0:0:0:0:
175,140,61658,6,0,P|96:152|47:220,1,162.000000617981,6|0,0:0|0:0,0:0:0:0:
119,327,62058,2,0,P|198:315|245:251,1,162.000000617981,6|0,0:0|0:0,0:0:0:0:
290,98,62458,5,6,0:0:0:0:
367,308,62658,2,0,B|396:375|396:375|407:332,1,108.000000411987,2|4,0:0|0:0,0:0:0:0:
414,134,63058,1,2,0:0:0:0:
238,269,63258,2,0,B|200:301|200:301|177:355,1,108.000000411987,6|0,0:0|0:0,0:0:0:0:
367,308,63658,5,6,0:0:0:0:
177,354,63858,2,0,B|131:347|131:347|134:355|134:355|82:345,1,108.000000411987,2|4,0:0|0:0,0:0:0:0:
90,132,64258,1,2,0:0:0:0:
238,269,64458,2,0,B|268:292|268:292|266:270,2,54.0000002059937,6|0|0,0:0|2:0|0:0,0:0:0:0:
359,24,65058,5,2,0:0:0:0:
373,152,65258,1,2,0:0:0:0:
386,280,65458,1,2,0:0:0:0:
171,243,65658,5,6,0:0:0:0:
239,44,65858,1,2,0:0:0:0:
316,212,66058,2,0,P|363:235|417:233,1,108.000000411987,12|0,0:0|0:0,0:0:0:0:
472,23,66458,1,4,0:0:0:0:
239,44,66658,1,2,0:0:0:0:
316,212,66858,1,14,0:0:0:0:
402,374,67058,1,2,0:0:0:0:
171,243,67258,6,0,B|134:202|144:138,1,108.000000411987,4|0,0:0|0:0,0:0:0:0:
457,186,67658,2,0,B|493:226|478:291,1,108.000000411987,12|0,0:0|0:0,0:0:0:0:
184,316,68058,2,0,B|112:327|112:327|116:307|116:307|26:320,1,162.000000617981,4|0,0:0|0:0,0:0:0:0:
171,243,68458,2,0,P|251:281|239:362,1,162.000000617981,14|0,0:0|0:0,0:0:0:0:
346,376,68858,5,6,0:0:0:0:
459,160,69058,1,2,0:0:0:0:
265,273,69258,1,14,0:0:0:0:
265,48,69458,1,2,0:0:0:0:
395,273,69658,1,6,0:0:0:0:
200,160,69858,1,2,0:0:0:0:
395,48,70058,1,14,0:0:0:0:
265,273,70258,1,2,0:0:0:0:
398,148,70458,6,0,P|451:145|499:169,1,108.000000411987,4|0,0:0|0:0,0:0:0:0:
374,356,70858,2,0,B|354:359|354:359|338:346|338:346|318:350|318:350|300:335|300:335|277:341|277:341|260:324,1,108.000000411987,12|0,0:0|0:0,0:0:0:0:
83,361,71258,1,4,0:0:0:0:
83,361,71458,1,0,0:0:0:0:
119,174,71658,5,14,0:0:0:0:
374,356,72058,5,6,0:0:0:0:
471,211,72258,1,0,0:0:0:0:
289,327,72458,2,0,P|235:333|186:312,1,108.000000411987,12|0,0:0|0:0,0:0:0:0:
11,167,72858,2,0,L|148:175,1,108.000000411987,6|0,0:0|0:0,0:0:0:0:
322,119,73258,1,10,0:0:0:0:
301,278,73458,1,2,0:0:0:0:
442,90,73658,5,4,0:0:0:0:
462,294,73858,1,0,0:0:0:0:
323,120,74058,2,0,P|264:99|209:111,1,108.000000411987,14|2,0:0|0:0,0:0:0:0:
161,153,74358,1,2,0:0:0:0:
161,153,74458,2,0,L|166:212,1,54.0000002059937,6|2,0:0|0:0,0:0:0:0:
99,296,74658,1,2,0:0:0:0:
99,296,74758,1,2,0:0:0:0:
99,296,74858,2,0,P|108:332|128:357,1,54.0000002059937,14|2,0:0|0:0,0:0:0:0:
227,355,75058,2,0,P|263:361|295:352,1,54.0000002059937,2|2,0:0|0:0,0:0:0:0:
352,265,75258,5,6,0:0:0:0:
343,239,75358,1,2,0:0:0:0:
334,213,75458,1,2,0:0:0:0:
326,187,75558,1,2,0:0:0:0:
254,169,75658,1,14,0:0:0:0:
245,143,75758,1,2,0:0:0:0:
236,117,75858,1,2,0:0:0:0:
228,91,75958,1,2,0:0:0:0:
166,55,76058,1,6,0:0:0:0:
393,127,76258,5,2,0:0:0:0:
452,351,76458,1,14,0:0:0:0:
225,282,76658,1,2,0:0:0:0:
459,200,76858,2,0,P|491:146|491:90,1,108.000000411987,4|0,0:0|0:0,0:0:0:0:
247,20,77258,2,0,P|294:62|317:40,1,108.000000411987,12|0,0:0|0:0,0:0:0:0:
54,319,77858,5,0,0:0:0:0:
195,252,78058,2,0,B|249:259|249:259|300:240,1,108.000000411987,10|2,0:0|0:0,0:0:0:0:
457,265,78458,1,4,0:0:0:0:
121,274,88058,5,0,0:0:0:0:
138,282,88158,1,0,0:0:0:0:
157,289,88258,1,0,0:0:0:0:
177,293,88358,1,0,0:0:0:0:
197,296,88458,1,0,0:0:0:0:
217,295,88558,1,0,0:0:0:0:
236,293,88658,1,0,0:0:0:0:
256,288,88758,1,0,0:0:0:0:
274,281,88858,1,0,0:0:0:0:
292,271,88958,1,0,0:0:0:0:
308,260,89058,1,0,0:0:0:0:
323,246,89158,1,0,0:0:0:0:
337,232,89258,1,0,0:0:0:0:
348,215,89358,1,0,0:0:0:0:
358,198,89458,1,0,0:0:0:0:
365,179,89558,1,0,0:0:0:0:
370,160,89658,6,0,L|373:122,30,20
417,143,91258,6,0,P|450:98|501:81,1,80,2|0,0:0|0:0,0:0:0:0:
473,271,91658,2,0,L|386:341,1,80,2|0,0:0|0:0,0:0:0:0:
238,293,92058,1,2,0:0:0:0:
354,193,92258,2,0,L|416:142,1,80,2|0,0:0|0:0,0:0:0:0:
252,120,92658,5,2,0:0:0:0:
321,263,92858,2,0,P|323:302|308:339,1,80,2|0,0:0|0:0,0:0:0:0:
110,294,93258,2,0,P|107:254|122:217,1,80,2|0,0:0|0:0,0:0:0:0:
187,149,93658,1,0,0:0:0:0:
220,305,93858,1,2,0:0:0:0:
377,274,94058,1,2,0:0:0:0:
344,117,94258,1,2,0:0:0:0:
187,149,94458,1,0,0:0:0:0:
340,199,94658,6,0,P|378:191|410:167,2,80,2|2|0,0:0|0:0|0:0,0:0:0:0:
236,76,95258,2,0,P|209:47|172:32,2,80,2|2|0,0:0|0:0|0:0,0:0:0:0:
182,227,95858,2,0,P|169:265|174:305,2,80,2|2|0,0:0|0:0|0:0,0:0:0:0:
340,199,96458,6,0,L|422:189,2,80,2|0|0,0:0|0:0|0:0,0:0:0:0:
163,112,97058,1,2,0:0:0:0:
151,228,97258,1,2,0:0:0:0:
267,238,97458,1,2,0:0:0:0:
279,123,97658,1,0,0:0:0:0:
177,301,97858,6,0,L|175:358,1,40,2|0,0:0|0:0,0:0:0:0:
257,286,98058,1,2,0:0:0:0:
113,384,98258,1,0,0:0:0:0:
383,303,98458,2,0,L|422:301,1,40,2|0,0:0|0:0,0:0:0:0:
327,359,98658,1,2,0:0:0:0:
486,262,98858,1,0,0:0:0:0:
302,124,99058,6,0,L|245:122,1,40,2|0,0:0|0:0,0:0:0:0:
338,196,99258,1,2,0:0:0:0:
392,34,99458,1,0,0:0:0:0:
384,263,99658,2,0,L|382:320,1,40,2|0,0:0|0:0,0:0:0:0:
452,218,99858,1,2,0:0:0:0:
226,313,100058,1,0,0:0:0:0:
218,144,100258,6,0,L|216:104,1,40,2|0,0:0|0:0,0:0:0:0:
146,189,100458,1,2,0:0:0:0:
292,356,100658,1,0,0:0:0:0:
452,218,100858,1,0,0:0:0:0:
285,109,101058,6,0,L|283:69,1,40,2|0,0:0|0:0,0:0:0:0:
287,185,101258,1,2,0:0:0:0:
420,96,101458,1,0,0:0:0:0:
223,225,101658,2,0,L|189:246,1,40,2|0,0:0|0:0,0:0:0:0:
287,185,101858,1,2,0:0:0:0:
140,120,102058,1,0,0:0:0:0:
354,222,102258,6,0,L|389:240,1,40,2|0,0:0|0:0,0:0:0:0:
287,185,102458,1,2,0:0:0:0:
292,344,102658,1,0,0:0:0:0:
285,109,102858,2,0,L|283:69,1,40,2|0,0:0|0:0,0:0:0:0:
287,185,103058,1,2,0:0:0:0:
391,24,103258,1,2,0:0:0:0:
456,209,103458,6,0,L|458:249,1,40,2|0,0:0|0:0,0:0:0:0:
512,124,103658,1,14,0:0:0:0:
285,109,104058,5,6,0:0:0:0:
288,272,104258,1,2,0:0:0:0:
196,107,104458,2,0,P|156:101|118:114,1,80,8|0,0:0|0:0,0:0:0:0:
77,179,104758,1,0,0:0:0:0:
79,218,104858,5,6,0:0:0:0:
67,28,105058,1,2,0:0:0:0:
165,191,105258,2,0,L|171:280,1,80,8|0,0:0|0:0,0:0:0:0:
119,323,105558,1,0,0:0:0:0:
121,362,105658,5,6,0:0:0:0:
242,215,105858,1,2,0:0:0:0:
258,359,106058,1,8,0:0:0:0:
292,379,106158,1,0,0:0:0:0:
331,383,106258,1,0,0:0:0:0:
369,372,106358,1,0,0:0:0:0:
400,347,106458,5,6,0:0:0:0:
186,365,106658,1,2,0:0:0:0:
307,262,106858,2,0,P|322:225|285:146,1,120,10|0,0:0|0:0,0:0:0:0:
223,133,107258,5,6,0:0:0:0:
422,174,107458,1,2,0:0:0:0:
418,76,107658,1,0,0:0:0:0:
223,133,107858,5,6,0:0:0:0:
378,261,108058,1,2,0:0:0:0:
422,174,108258,1,0,0:0:0:0:
223,133,108458,5,6,0:0:0:0:
300,320,108658,1,2,0:0:0:0:
378,261,108858,1,0,0:0:0:0:
223,133,109058,5,6,0:0:0:0:
203,334,109258,1,2,0:0:0:0:
300,320,109458,1,0,0:0:0:0:
223,133,109658,5,6,0:0:0:0:
111,301,109858,1,2,0:0:0:0:
132,102,110058,2,0,P|116:45|70:7,1,120,10|0,0:0|0:0,0:0:0:0:
0,36,110458,5,6,0:0:0:0:
197,42,110658,1,2,0:0:0:0:
56,106,110858,2,0,P|62:145|80:180,1,80,8|0,0:0|0:0,0:0:0:0:
159,177,111158,1,0,0:0:0:0:
198,172,111258,5,6,0:0:0:0:
28,253,111458,1,2,0:0:0:0:
186,273,111658,2,0,P|204:308|210:347,1,80,8|0,0:0|0:0,0:0:0:0:
139,368,111958,1,0,0:0:0:0:
100,373,112058,5,6,0:0:0:0:
310,348,112258,1,2,0:0:0:0:
257,201,112458,1,8,0:0:0:0:
245,162,112558,1,0,0:0:0:0:
264,116,112658,1,0,0:0:0:0:
252,78,112758,1,0,0:0:0:0:
270,32,112858,5,6,0:0:0:0:
88,46,113058,1,2,0:0:0:0:
172,190,113258,2,0,P|178:247|144:295,1,120,8|0,0:0|0:0,0:0:0:0:
67,326,113658,5,6,0:0:0:0:
104,120,113858,1,2,0:0:0:0:
80,248,114058,1,0,0:0:0:0:
294,249,114258,5,6,0:0:0:0:
257,43,114458,1,2,0:0:0:0:
281,171,114658,1,0,0:0:0:0:
449,42,114858,5,6,0:0:0:0:
411,248,115058,1,2,0:0:0:0:
435,120,115258,1,0,0:0:0:0:
221,119,115458,5,6,0:0:0:0:
258,325,115658,1,2,0:0:0:0:
234,197,115858,1,0,0:0:0:0:
66,325,116058,5,6,0:0:0:0:
103,119,116258,1,2,0:0:0:0:
258,325,116458,2,0,P|294:336|324:312,1,80,10|0,0:0|0:0,0:0:0:0:
339,69,116858,5,4,0:0:0:0:
274,97,117058,1,0,0:0:0:0:
210,126,117258,1,4,0:0:0:0:
210,126,117658,2,0,P|184:144|168:172,1,64,4|0,0:0|0:0,0:0:0:0:
153,240,117958,1,8,0:2:0:0:
153,240,118058,2,0,P|163:270|159:301,1,64,4|8,0:0|0:2,0:0:0:0:
8,384,118458,5,4,0:0:0:0:
82,377,118658,1,0,0:0:0:0:
156,372,118858,1,4,0:0:0:0:
156,372,119258,2,0,P|171:344|201:325,1,68.0000012969971,4|0,0:0|0:0,0:0:0:0:
271,306,119558,1,8,0:2:0:0:
271,306,119658,2,0,P|304:309|335:298,1,68.0000012969971,4|8,0:0|0:2,0:0:0:0:
286,163,120058,5,4,0:0:0:0:
295,84,120258,1,0,0:0:0:0:
360,39,120458,1,4,0:0:0:0:
360,39,120858,2,0,P|373:70|370:110,1,71.9999978027344,4|0,0:0|0:2,0:0:0:0:
361,183,121158,1,8,0:2:0:0:
361,183,121258,2,0,P|374:214|370:254,1,71.9999978027344,4|8,0:0|0:2,0:0:0:0:
296,376,121658,5,4,0:0:0:0:
234,319,121858,1,0,0:0:0:0:
225,235,122058,1,4,0:0:0:0:
225,235,122458,2,0,P|248:211|259:168,1,75.9999979705811,4|0,0:0|0:2,0:0:0:0:
217,107,122758,1,8,0:2:0:0:
217,107,122858,2,0,P|193:130|183:174,1,75.9999979705811,4|8,0:0|0:2,0:0:0:0:
329,207,123258,5,2,0:3:0:0:
435,162,123458,1,2,0:3:0:0:
511,248,123658,1,2,0:3:0:0:
454,347,123858,1,2,0:3:0:0:
341,323,124058,2,0,P|306:322|260:345,1,80,2|2,0:3|0:3,0:3:0:0:
189,361,124358,1,0,0:3:0:0:
189,361,124458,2,0,L|200:293,1,40,2|0,0:3|0:3,0:3:0:0:
152,254,124658,2,0,L|148:183,1,40,2|0,0:3|0:3,0:3:0:0:
84,155,124858,5,2,0:3:0:0:
57,294,125058,1,2,0:3:0:0:
195,321,125258,1,2,0:3:0:0:
222,183,125458,1,2,0:3:0:0:
333,83,125658,2,0,P|372:80|419:100,1,88.000002685547,2|2,0:3|0:3,0:3:0:0:
451,180,125958,1,0,0:3:0:0:
451,180,126058,2,0,L|432:239,1,44.0000013427735,2|0,0:3|0:3,0:3:0:0:
354,252,126258,2,0,L|367:307,1,44.0000013427735,2|0,0:3|0:3,0:3:0:0:
300,360,126458,6,0,P|330:378|384:383,1,71.9999978027344,2|0,0:3|0:3,0:3:0:0:
413,377,126658,2,0,P|432:328|458:307,1,71.9999978027344,2|0,0:3|0:3,0:3:0:0:
503,279,126858,2,0,L|484:203,1,77.9999964294435,2|0,0:3|0:3,0:3:0:0:
450,132,127058,2,0,P|386:121|358:133,1,77.9999964294435,2|0,0:3|0:3,0:3:0:0:
338,194,127258,2,0,P|322:236|283:273,1,77.9999964294435,2|0,0:3|0:3,0:3:0:0:
235,317,127458,6,0,P|201:306|169:283,1,51.999997619629,2|0,0:3|0:3,0:3:0:0:
147,197,127658,2,0,P|124:168|110:131,1,51.999997619629,2|0,0:3|0:3,0:3:0:0:
128,51,127858,2,0,P|124:14|132:-23,1,51.999997619629,2|0,0:3|0:3,0:3:0:0:
273,54,128058,6,0,L|312:153,1,83.9999974365235,2|0,0:3|0:3,0:3:0:0:
275,209,128258,2,0,P|250:242|268:301,1,83.9999974365235,2|0,0:3|0:3,0:3:0:0:
291,383,128458,2,0,P|236:390|185:358,1,90.0000034332277,2|0,0:3|0:3,0:3:0:0:
117,319,128658,2,0,L|124:225,1,90.0000034332277,2|0,0:3|0:3,0:3:0:0:
172,136,128858,2,0,P|120:110|67:107,1,96,2|0,0:3|0:3,0:3:0:0:
183,0,129058,2,0,P|235:26|252:25,1,64,2|0,0:3|0:3,0:3:0:0:
388,1,129258,1,14,0:3:0:0:
366,258,129658,5,6,0:0:0:0:
367,269,129758,1,2,0:3:0:0:
367,280,129858,1,2,0:3:0:0:
418,100,130058,6,0,B|423:84|423:84|403:57|396:11,1,80
193,96,130458,5,6,0:0:0:0:
204,97,130558,1,2,0:3:0:0:
215,98,130658,1,2,0:3:0:0:
156,201,130791,5,0,0:0:0:0:
156,201,130858,2,0,B|151:217|151:217|171:244|178:290,1,80
293,172,131258,5,6,0:0:0:0:
283,165,131358,1,2,0:3:0:0:
273,158,131458,1,2,0:3:0:0:
296,263,132058,5,4,0:0:0:0:
293,274,132158,1,2,0:3:0:0:
231,312,132258,1,2,0:3:0:0:
228,323,132358,1,2,0:3:0:0:
268,384,132458,2,0,L|343:372,1,60,4|0,0:0|0:3,0:3:0:0:
393,360,132658,2,0,P|397:332|433:305,1,71.9999978027344,2|0,0:3|0:3,0:3:0:0:
498,304,132858,5,6,0:0:0:0:
271,313,133058,2,0,B|217:318|217:318|165:299,1,108.000000411987,2|4,0:0|0:0,0:0:0:0:
362,161,133458,1,2,0:0:0:0:
393,360,133658,1,6,0:0:0:0:
166,299,133858,1,0,0:0:0:0:
260,107,134058,6,0,B|262:71|262:71|232:99,1,54.0000002059937,6|0,0:0|2:0,0:0:0:0:
189,121,134258,2,0,P|160:95|153:74,1,54.0000002059937,2|0,0:0|2:0,0:0:0:0:
195,22,134458,1,4,0:0:0:0:
111,212,134658,1,2,0:0:0:0:
298,198,134858,2,0,B|371:194|371:194|338:171,1,108.000000411987,6|0,0:0|0:0,0:0:0:0:
189,121,135258,5,6,0:0:0:0:
351,273,135458,1,2,0:0:0:0:
387,55,135658,2,0,B|366:28|366:28|343:46|343:46|318:30|318:30|299:46|299:46|273:36|273:36|265:69,1,180.000006866455,6|0,0:0|0:0,0:0:0:0:
228,148,136058,5,6,0:0:0:0:
450,123,136258,1,2,0:0:0:0:
359,328,136458,1,4,0:0:0:0:
332,70,136658,1,2,0:0:0:0:
231,277,136858,1,6,0:0:0:0:
464,252,137058,2,0,B|449:253|483:249,1,27.0000001029968
291,344,137258,5,6,0:0:0:0:
61,332,137458,1,2,0:0:0:0:
231,277,137658,1,4,0:0:0:0:
138,66,137858,1,2,0:0:0:0:
354,53,138058,1,6,0:0:0:0:
163,187,138258,1,0,0:0:0:0:
372,181,138458,6,0,P|444:211|476:284,1,162.000000617981,6|0,0:0|0:0,0:0:0:0:
389,374,138858,2,0,P|316:343|284:270,1,162.000000617981,6|0,0:0|0:0,0:0:0:0:
314,126,139258,5,6,0:0:0:0:
200,303,139458,2,0,B|160:364|160:364|202:349,1,108.000000411987,2|4,0:0|0:0,0:0:0:0:
382,279,139858,1,2,0:0:0:0:
184,168,140058,2,0,L|85:114,1,108.000000411987,6|0,0:0|0:0,0:0:0:0:
312,25,140458,5,6,0:0:0:0:
289,236,140658,2,0,B|285:269|285:269|263:285|263:285|258:351,1,108.000000411987,2|4,0:0|0:0,0:0:0:0:
479,178,141058,1,2,0:0:0:0:
270,152,141258,2,0,B|231:147|231:147|245:165,2,54.0000002059937,6|0|0,0:0|0:0|0:0,0:0:0:0:
399,64,141858,5,2,0:0:0:0:
385,192,142058,1,2,0:0:0:0:
372,320,142258,1,2,0:0:0:0:
163,210,142458,5,6,0:0:0:0:
385,192,142658,1,2,0:0:0:0:
175,120,142858,2,0,P|110:132|73:176,1,108.000000411987,12|0,0:0|0:0,0:0:0:0:
136,342,143258,1,4,0:0:0:0:
0,164,143458,1,2,0:0:0:0:
181,188,143658,1,14,0:0:0:0:
363,205,143858,1,2,0:0:0:0:
239,19,144058,5,4,0:0:0:0:
249,221,144258,1,0,0:0:0:0:
317,9,144458,1,12,0:0:0:0:
181,188,144658,1,0,0:0:0:0:
388,32,144858,2,0,P|446:88|462:167,1,162.000000617981,4|0,0:0|0:0,0:0:0:0:
407,285,145258,2,0,P|349:229|333:150,1,162.000000617981,14|0,0:0|0:0,0:0:0:0:
317,9,145658,5,6,0:0:0:0:
147,140,145858,1,2,0:0:0:0:
362,124,146058,1,10,0:0:0:0:
376,340,146258,1,2,0:0:0:0:
161,355,146458,1,6,0:0:0:0:
376,340,146658,1,2,0:0:0:0:
362,124,146858,1,14,0:0:0:0:
147,140,147058,1,2,0:0:0:0:
348,220,147258,6,0,P|413:208|450:164,1,108.000000411987,4|0,0:0|0:0,0:0:0:0:
239,108,147658,2,0,B|222:120|222:120|202:116|202:116|186:128|186:128|163:124|163:124|146:140|146:140|123:133,1,108.000000411987,12|0,0:0|0:0,0:0:0:0:
80,299,148058,1,4,0:0:0:0:
80,299,148258,1,0,0:0:0:0:
272,248,148458,5,14,0:0:0:0:
96,64,148858,5,6,0:0:0:0:
138,252,149058,1,0,0:0:0:0:
261,68,149258,2,0,B|314:44|314:44|364:46,1,108.000000411987,12|0,0:0|0:0,0:0:0:0:
472,210,149658,1,6,0:0:0:0:
215,146,149858,2,0,B|167:135|167:135,1,27.0000001029968
291,276,150058,1,14,0:0:0:0:
354,93,150258,1,2,0:0:0:0:
366,320,150458,2,0,P|325:354|272:359,1,108.000000411987,4|0,0:0|0:0,0:0:0:0:
60,215,150858,6,0,L|185:209,1,108.000000411987,14|2,0:0|0:0,0:0:0:0:
249,202,151158,1,2,0:0:0:0:
249,202,151258,2,0,P|265:163|280:151,1,54.0000002059937,6|2,0:0|0:0,0:0:0:0:
363,116,151458,1,2,0:0:0:0:
363,116,151558,1,2,0:0:0:0:
363,116,151658,2,0,L|358:178,1,54.0000002059937,14|2,0:0|0:0,0:0:0:0:
299,261,151858,2,0,P|327:292|345:298,1,54.0000002059937,2|2,0:0|0:0,0:0:0:0:
447,344,152058,5,6,0:0:0:0:
459,319,152158,1,2,0:0:0:0:
464,292,152258,1,2,0:0:0:0:
462,265,152358,1,2,0:0:0:0:
432,195,152458,1,14,0:0:0:0:
407,183,152558,1,2,0:0:0:0:
386,166,152658,1,2,0:0:0:0:
370,143,152758,1,2,0:0:0:0:
356,68,152858,1,6,0:0:0:0:
203,105,153058,5,2,0:0:0:0:
159,303,153258,1,14,0:0:0:0:
377,276,153458,1,2,0:0:0:0:
156,197,153658,2,0,B|107:207|107:207|61:244,1,108.000000411987,4|0,0:0|0:0,0:0:0:0:
315,216,154058,2,0,P|336:171|294:146,1,108.000000411987,12|0,0:0|0:0,0:0:0:0:
187,352,154658,5,2,0:0:0:0:
183,362,154858,1,2,0:0:0:0:
193,358,155058,1,2,0:0:0:0:
393,308,155258,5,6,0:0:0:0:
170,284,155458,1,2,0:0:0:0:
341,130,155658,1,12,0:0:0:0:
126,194,155858,1,0,0:0:0:0:
250,0,156058,1,4,0:0:0:0:
249,208,156258,1,2,0:0:0:0:
465,169,156458,1,14,0:0:0:0:
285,293,156658,1,2,0:0:0:0:
138,106,156858,6,0,P|88:87|36:99,1,108.000000411987,4|0,0:0|0:0,0:0:0:0:
181,311,157258,2,0,B|235:313|235:313|284:293,1,108.000000411987,12|0,0:0|0:0,0:0:0:0:
409,86,157658,6,0,B|337:97|337:97|341:77|341:77|251:90,1,162.000000617981,6|0,0:0|0:0,0:0:0:0:
244,230,158058,2,0,P|313:262|372:212,1,162.000000617981,14|0,0:0|0:0,0:0:0:0:
493,160,158458,5,6,0:0:0:0:
380,327,158658,1,2,0:0:0:0:
293,154,158858,1,14,0:0:0:0:
98,152,159058,1,2,0:0:0:0:
284,54,159258,1,6,0:0:0:0:
264,246,159458,1,2,0:0:0:0:
86,315,159658,1,14,0:0:0:0:
211,152,159858,1,2,0:0:0:0:
321,344,160058,6,0,B|372:360|372:360|424:355,1,108.000000411987,4|0,0:0|0:0,0:0:0:0:
469,137,160458,2,0,B|417:120|417:120|365:125,1,108.000000411987,12|0,0:0|0:0,0:0:0:0:
267,250,160858,1,4,0:0:0:0:
267,250,161058,1,0,0:0:0:0:
277,76,161258,1,14,0:0:0:0:
421,274,161658,5,2,0:0:0:0:
325,273,161858,1,0,0:0:0:0:
325,369,162058,1,0,0:0:0:0:
229,369,162258,1,0,0:0:0:0:
229,273,162458,1,2,0:0:0:0:
133,273,162658,1,0,0:0:0:0:
133,178,162858,1,2,0:0:0:0:
229,178,163058,1,2,0:0:0:0:
229,82,163258,1,0,0:0:0:0:
325,82,163458,1,0,0:0:0:0:
325,178,163658,6,0,L|324:275,1,80,2|2,0:0|0:0,0:0:0:0:
328,330,163958,1,2,0:0:0:0:
328,330,164058,1,2,0:0:0:0:
281,329,164158,1,2,0:0:0:0:
233,330,164258,1,2,0:0:0:0:
184,329,164358,1,2,0:0:0:0:
183,257,164458,1,2,0:0:0:0:
232,258,164558,1,2,0:0:0:0:
280,257,164658,1,2,0:0:0:0:
328,258,164758,1,2,0:0:0:0:
328,186,164858,6,0,L|328:136,2,40,2|2|2,0:0|0:0|0:0,0:0:0:0:
279,185,165158,2,0,L|279:135,2,40,2|2|2,0:0|0:0|0:0,0:0:0:0:
231,186,165458,1,2,0:0:0:0:
232,138,165558,1,2,0:0:0:0:
231,90,165658,1,2,0:0:0:0:
135,90,165858,1,2,0:0:0:0:
135,186,166058,1,2,0:0:0:0:
39,186,166258,1,2,0:0:0:0:
39,90,166458,6,0,L|39:10,2,80
135,186,167058,2,0,L|134:266,2,80
