osu file format v14

[General]
AudioFilename: cYsmix - Manic 224.mp3
AudioLeadIn: 0
PreviewTime: 52858
Countdown: 0
SampleSet: None
StackLeniency: 0.9
Mode: 0
LetterboxInBreaks: 0
WidescreenStoryboard: 0

[Editor]
Bookmarks: 14458,27258,40058,74058,91258,104058,116858,129658,150858,168058
DistanceSpacing: 1.6
BeatDivisor: 2
GridSize: 8
TimelineZoom: 2.100001

[Metadata]
Title:Manic
TitleUnicode:Manic
Artist:cYsmix
ArtistUnicode:cYsmix
Creator:Bonsai
Version:Advanced
Source:osu!
Tags:Mapping With Rewards
BeatmapID:797754
BeatmapSetID:361214

[Difficulty]
HPDrainRate:4
CircleSize:3.6
OverallDifficulty:5.5
ApproachRate:6.5
SliderMultiplier:1.3
SliderTickRate:1

[Events]
//Background and Video events
0,0,"osu!cysmix-bgtiny.jpg",0,0
//Break Periods
2,14458,19883
2,78658,87083
//Storyboard Layer 0 (Background)
//Storyboard Layer 1 (Fail)
//Storyboard Layer 2 (Pass)
//Storyboard Layer 3 (Foreground)
//Storyboard Sound Samples

[TimingPoints]
1658,400,4,3,0,55,1,0
12858,-125,4,3,0,55,0,0
14058,-100,4,3,0,55,0,0
14458,-100,4,2,0,45,0,0
20858,-100,4,2,0,60,0,0
27258,-100,4,3,0,65,0,0
40058,-100,4,3,0,55,0,0
52858,-83.3333333333333,4,3,0,65,0,1
64458,-83.3333333333333,4,3,0,65,0,0
65058,-83.3333333333333,4,3,0,50,0,0
65658,-83.3333333333333,4,3,0,65,0,1
77258,-83.3333333333333,4,3,0,55,0,0
88058,-100,4,3,0,55,0,0
91258,-100,4,3,0,55,0,0
104058,-100,4,3,0,65,0,0
116858,-100,4,3,0,55,0,0
129658,-100,4,2,0,45,0,0
132458,-83.3333333333333,4,2,0,45,0,0
132858,-83.3333333333333,4,3,0,65,0,1
139258,-83.3333333333333,4,3,0,65,0,1
141258,-83.3333333333333,4,3,0,65,0,0
141858,-83.3333333333333,4,3,0,50,0,0
142458,-83.3333333333333,4,3,0,65,0,1
154058,-83.3333333333333,4,3,0,65,0,0
155258,-83.3333333333333,4,3,0,65,0,1
161658,-100,4,3,0,55,0,0

[Colours]
Combo1 : 221,221,221
Combo2 : 242,236,0
Combo3 : 254,103,183
Combo4 : 0,86,191

[HitObjects]
310,330,1258,5,0,0:0:0:0:
157,301,1658,5,2,0:0:0:0:
157,301,1858,2,0,P|158:247|202:180,1,130,2|2,0:0|0:0,0:0:0:0:
253,129,2458,2,0,L|264:266,1,130,2|2,0:0|0:0,0:0:0:0:
321,206,3058,2,0,P|357:152|361:88,1,130,2|2,0:0|0:0,0:0:0:0:
341,12,3658,1,2,0:0:0:0:
174,30,4058,5,2,0:0:0:0:
174,30,4258,2,0,L|163:167,1,130,2|2,0:0|0:0,0:0:0:0:
188,233,4858,2,0,P|249:213|311:228,1,130,2|2,0:0|0:0,0:0:0:0:
316,306,5458,2,0,P|254:325|192:310,1,130,2|2,0:0|0:0,0:0:0:0:
123,273,6058,1,2,0:0:0:0:
138,104,6458,5,2,0:0:0:0:
138,104,6658,2,0,B|203:96|203:96|258:63,1,130,2|2,0:0|0:0,0:0:0:0:
316,11,7258,2,0,L|391:132,1,130,2|2,0:0|0:0,0:0:0:0:
372,199,7858,1,2,0:0:0:0:
445,225,8058,5,4,0:0:0:0:
377,336,8458,1,4,0:0:0:0:
249,363,8858,1,4,0:0:0:0:
131,307,9258,1,4,0:0:0:0:
88,164,9658,5,4,0:0:0:0:
156,53,10058,1,4,0:0:0:0:
284,27,10458,1,4,0:0:0:0:
402,82,10858,1,4,0:0:0:0:
445,225,11258,6,0,L|437:340,1,65,4|0,0:0|0:0,0:0:0:0:
362,297,11658,2,0,L|311:400,1,65,4|0,0:0|0:0,0:0:0:0:
257,338,12058,2,0,L|171:415,1,65,4|0,0:0|0:0,0:0:0:0:
141,341,12458,2,0,L|32:380,1,65,4|0,0:0|0:0,0:0:0:0:
27,305,12858,6,0,P|81:234|238:273,1,260,4|0,0:0|0:0,0:0:0:0:
308,280,14058,5,8,0:0:0:0:
379,106,20858,6,0,L|371:197,1,65,2|2,0:3|0:3,0:3:0:0:
233,34,21658,2,0,L|241:125,1,65,2|2,0:3|0:3,0:3:0:0:
264,301,22458,6,0,L|258:236,1,65,2|2,0:3|0:3,0:3:0:0:
102,117,23258,2,0,L|125:205,1,65,2|2,0:3|0:3,0:3:0:0:
143,253,23658,1,2,0:3:0:0:
239,114,24058,6,0,L|256:32,1,65,2|2,0:3|0:3,0:3:0:0:
323,159,24658,2,0,L|382:112,1,65,2|2,0:3|0:3,0:3:0:0:
360,247,25258,6,0,L|434:234,1,65,2|2,0:3|0:3,0:3:0:0:
341,336,25858,2,0,L|412:361,1,65,2|2,0:3|0:3,0:3:0:0:
255,305,26458,6,0,L|193:283,1,65,2|2,0:3|0:3,0:3:0:0:
121,254,26858,1,2,0:3:0:0:
218,116,27258,6,0,P|245:98|277:94,1,65,6|2,0:0|0:0,0:0:0:0:
353,111,27658,2,0,L|345:238,1,97.5,8|0,0:0|0:0,0:0:0:0:
344,247,28058,2,0,P|371:265|403:269,1,65,6|2,0:0|0:0,0:0:0:0:
480,266,28458,1,8,0:0:0:0:
493,97,28858,6,0,L|405:104,1,65,6|2,0:0|0:0,0:0:0:0:
375,161,29258,2,0,P|317:175|266:153,1,97.5,8|0,0:0|0:0,0:0:0:0:
247,145,29658,1,6,0:0:0:0:
297,85,29858,1,2,0:0:0:0:
350,28,30058,1,10,0:0:0:0:
406,187,30458,5,6,0:0:0:0:
406,187,30658,1,2,0:0:0:0:
296,315,31058,1,6,0:0:0:0:
296,315,31258,1,2,0:0:0:0:
127,298,31658,1,6,0:0:0:0:
127,298,31858,1,2,0:0:0:0:
35,156,32258,1,6,0:0:0:0:
35,156,32458,1,2,0:0:0:0:
121,10,32858,5,6,0:0:0:0:
160,77,33058,1,2,0:0:0:0:
199,144,33258,1,10,0:0:0:0:
240,307,33658,6,0,L|260:213,1,65,6|2,0:0|0:0,0:0:0:0:
273,168,34058,2,0,P|321:164|360:136,1,97.5,8|0,0:0|0:0,0:0:0:0:
383,105,34458,2,0,L|364:32,1,65,6|2,0:0|0:0,0:0:0:0:
300,0,34858,1,8,0:0:0:0:
273,168,35258,6,0,P|288:196|314:214,1,65,6|2,0:0|0:0,0:0:0:0:
388,241,35658,2,0,L|368:350,1,97.5,8|0,0:0|0:0,0:0:0:0:
361,374,36058,1,6,0:0:0:0:
283,367,36258,1,2,0:0:0:0:
205,359,36458,1,10,0:0:0:0:
136,226,36858,5,6,0:0:0:0:
136,226,37058,1,2,0:0:0:0:
300,185,37458,1,6,0:0:0:0:
300,185,37658,1,2,0:0:0:0:
136,141,38058,1,6,0:0:0:0:
136,141,38258,1,2,0:0:0:0:
300,103,38658,1,6,0:0:0:0:
300,103,38858,1,2,0:0:0:0:
177,6,39258,5,6,0:0:0:0:
198,80,39458,1,2,0:0:0:0:
218,155,39658,1,10,0:0:0:0:
370,248,40058,5,4,0:0:0:0:
243,279,40458,1,4,0:0:0:0:
115,305,40858,2,0,P|82:236|85:189,1,97.5,4|8,0:0|0:2,0:0:0:0:
84,177,41258,2,0,L|159:95,1,65,4|8,0:0|0:2,0:0:0:0:
200,54,41658,5,4,0:0:0:0:
330,68,42058,1,4,0:0:0:0:
459,88,42458,2,0,P|466:163|446:206,1,97.5,4|8,0:0|0:2,0:0:0:0:
445,219,42858,2,0,L|373:261,1,65,4|8,0:0|0:2,0:0:0:0:
292,300,43258,5,4,0:0:0:0:
249,174,43658,1,4,0:0:0:0:
200,54,44058,2,0,P|124:63|87:92,1,97.5,4|8,0:0|0:2,0:0:0:0:
76,98,44458,2,0,L|104:181,1,65,4|8,0:0|0:2,0:0:0:0:
133,257,44858,5,4,0:0:0:0:
261,281,45258,1,4,0:0:0:0:
390,300,45658,2,0,P|419:229|412:182,1,97.5,4|8,0:0|0:2,0:0:0:0:
412,171,46058,2,0,L|295:153,1,65,4|8,0:0|0:2,0:0:0:0:
256,192,46458,12,12,52458,0:0:0:0:
179,338,52858,5,6,0:0:0:0:
153,247,53058,2,0,B|132:170|132:170|178:77,1,155.999995239258,2|2,0:0|0:0,0:0:0:0:
214,22,53658,1,6,0:0:0:0:
377,141,54058,2,0,L|402:232,1,77.999997619629,10|2,0:0|0:0,0:0:0:0:
421,314,54458,6,0,P|368:351|322:350,1,77.999997619629,4|2,0:0|0:0,0:0:0:0:
262,346,54858,1,2,0:0:0:0:
287,144,55258,1,6,0:0:0:0:
100,222,55658,1,10,0:0:0:0:
300,249,56058,5,6,0:0:0:0:
373,307,56258,2,0,L|360:413,2,77.999997619629,2|0|2,0:0|0:0|0:0,0:0:0:0:
459,270,56858,1,6,0:0:0:0:
307,134,57258,5,6,0:0:0:0:
234,76,57458,2,0,L|247:-30,2,77.999997619629,2|0|2,0:0|0:0|0:0,0:0:0:0:
148,113,58058,1,6,0:0:0:0:
165,315,58458,5,6,0:0:0:0:
257,325,58658,1,2,0:0:0:0:
349,340,58858,1,10,0:0:0:0:
291,162,59258,5,6,0:0:0:0:
218,102,59458,2,0,P|171:88|69:118,1,155.999995239258,2|2,0:0|0:0,0:0:0:0:
22,197,60058,1,6,0:0:0:0:
134,365,60458,1,10,0:0:0:0:
227,361,60658,2,0,L|332:356,1,77.999997619629,2|4,0:0|0:0,0:0:0:0:
398,351,61058,5,2,0:0:0:0:
407,257,61258,1,2,0:0:0:0:
204,267,61658,1,6,0:0:0:0:
294,90,62058,1,10,0:0:0:0:
407,257,62458,5,6,0:0:0:0:
451,178,62658,2,0,P|477:150|512:132,2,77.999997619629,2|0|2,0:0|0:0|0:0,0:0:0:0:
407,257,63258,1,6,0:0:0:0:
204,267,63658,5,6,0:0:0:0:
160,183,63858,2,0,P|133:155|98:137,2,77.999997619629,2|0|2,0:0|0:0|0:0,0:0:0:0:
204,267,64458,1,4,0:0:0:0:
317,69,65058,6,0,B|354:77|354:77|389:58,2,77.999997619629,2|2|2,0:0|0:0|0:0,0:0:0:0:
264,145,65658,6,0,L|171:127,1,77.999997619629,6|0,0:0|0:0,0:0:0:0:
126,201,66058,2,0,P|93:130|142:48,1,155.999995239258,12|4,0:0|0:0,0:0:0:0:
213,42,66658,1,0,0:0:0:0:
304,62,66858,2,0,P|342:61|379:48,1,77.999997619629,14|2,0:0|0:0,0:0:0:0:
465,7,67258,6,0,L|461:91,2,77.999997619629,4|0|12,0:0|0:0|0:0,0:0:0:0:
453,225,68058,1,4,0:0:0:0:
261,316,68458,1,14,0:0:0:0:
91,198,68858,6,0,P|83:159|89:121,2,77.999997619629,6|2|14,0:0|0:0|0:0,0:0:0:0:
152,268,69458,2,0,P|159:306|153:344,2,77.999997619629,2|6|2,0:0|0:0|0:0,0:0:0:0:
182,179,70058,2,0,L|264:126,1,77.999997619629,14|2,0:0|0:0,0:0:0:0:
327,87,70458,6,0,B|404:107|404:107|442:192,2,155.999995239258,4|12|4,0:0|0:0|0:0,0:0:0:0:
108,85,71658,1,14,0:0:0:0:
188,288,72058,6,0,P|243:312|290:313,2,77.999997619629,6|0|12,0:0|0:0|0:0,0:0:0:0:
216,71,72858,2,0,B|258:53|288:82|288:82|326:58|362:79,1,155.999995239258,6|12,0:0|0:0,0:0:0:0:
459,112,73458,1,2,0:0:0:0:
459,112,73658,6,0,P|404:170|326:174,1,155.999995239258,4|12,0:0|0:0,0:0:0:0:
238,171,74258,1,2,0:0:0:0:
162,227,74458,2,0,P|145:262|143:301,1,77.999997619629,6|2,0:0|0:0,0:0:0:0:
244,311,74858,2,0,P|249:349|268:383,1,77.999997619629,14|2,0:0|0:0,0:0:0:0:
347,320,75258,6,0,P|380:301|419:295,2,77.999997619629,6|2|14,0:0|0:0|0:0,0:0:0:0:
244,311,75858,1,2,0:0:0:0:
143,301,76058,2,0,P|109:319|70:325,2,77.999997619629,6|2|14,0:0|0:0|0:0,0:0:0:0:
205,221,76658,1,2,0:0:0:0:
205,221,76858,5,4,0:0:0:0:
406,247,77258,1,12,0:0:0:0:
406,247,78058,5,8,0:0:0:0:
205,221,78458,1,4,0:0:0:0:
256,192,88058,12,0,89658,0:0:0:0:
138,350,91258,6,0,L|226:346,1,65,0|2,0:0|0:0,0:0:0:0:
280,340,91658,2,0,P|318:273|373:245,1,130,2|2,0:0|0:0,0:0:0:0:
439,234,92258,2,0,L|433:98,1,130,2|2,0:0|0:0,0:0:0:0:
428,26,92858,1,2,0:0:0:0:
272,35,93258,2,0,L|207:37,1,65,2|2,0:0|0:0,0:0:0:0:
174,108,93658,2,0,P|160:154|133:180,2,65,0|2|2,0:0|0:0|0:0,0:0:0:0:
36,32,94458,6,0,L|38:96,1,65,0|2,0:0|0:0,0:0:0:0:
42,174,94858,1,2,0:0:0:0:
178,112,95258,1,2,0:0:0:0:
178,112,95458,1,2,0:0:0:0:
333,112,95858,1,2,0:0:0:0:
333,112,96058,1,2,0:0:0:0:
477,170,96458,1,2,0:0:0:0:
477,170,96658,1,2,0:0:0:0:
453,324,97058,1,2,0:0:0:0:
453,324,97258,2,0,P|406:337|370:327,1,65,2|2,0:0|0:0,0:0:0:0:
342,273,97658,6,0,L|332:208,1,65,0|2,0:0|0:0,0:0:0:0:
319,131,98058,1,2,0:0:0:0:
192,222,98458,1,2,0:0:0:0:
192,222,98658,2,0,P|213:296|257:329,1,130,2|2,0:0|0:0,0:0:0:0:
329,341,99258,5,2,0:0:0:0:
445,237,99658,1,2,0:0:0:0:
445,237,99858,2,0,P|424:163|380:130,1,130,2|2,0:0|0:0,0:0:0:0:
321,179,100458,2,0,L|185:184,1,130,2|0,0:0|0:0,0:0:0:0:
125,141,101058,5,2,0:0:0:0:
125,141,101258,2,0,P|77:201|76:256,1,130,2|2,0:0|0:0,0:0:0:0:
115,319,101858,2,0,P|173:292|235:306,1,130,2|2,0:0|0:0,0:0:0:0:
301,347,102458,5,2,0:0:0:0:
449,299,102858,1,2,0:0:0:0:
449,299,103058,2,0,L|443:155,1,130,2|2,0:0|0:0,0:0:0:0:
441,91,103658,1,10,0:0:0:0:
288,112,104058,6,0,P|258:125|226:124,1,65,6|2,0:0|0:0,0:0:0:0:
149,114,104458,2,0,L|141:241,1,97.5,8|0,0:0|0:0,0:0:0:0:
140,250,104858,2,0,P|107:249|78:262,1,65,6|2,0:0|0:0,0:0:0:0:
16,309,105258,1,8,0:0:0:0:
176,360,105658,6,0,L|240:354,1,65,6|2,0:0|0:0,0:0:0:0:
294,298,106058,2,0,P|352:284|403:306,1,97.5,8|0,0:0|0:0,0:0:0:0:
415,321,106458,1,6,0:0:0:0:
447,249,106658,1,2,0:0:0:0:
483,179,106858,1,10,0:0:0:0:
349,74,107258,5,6,0:0:0:0:
349,74,107458,1,2,0:0:0:0:
268,222,107858,1,6,0:0:0:0:
268,222,108058,1,2,0:0:0:0:
170,83,108458,1,6,0:0:0:0:
170,83,108658,1,2,0:0:0:0:
86,229,109058,1,6,0:0:0:0:
86,229,109258,1,2,0:0:0:0:
180,368,109658,5,6,0:0:0:0:
257,367,109858,1,2,0:0:0:0:
334,366,110058,1,10,0:0:0:0:
260,228,110458,6,0,L|239:146,1,65,6|2,0:0|0:0,0:0:0:0:
228,88,110858,2,0,P|180:94|136:76,1,97.5,8|0,0:0|0:0,0:0:0:0:
106,50,111258,2,0,L|164:11,1,65,6|2,0:0|0:0,0:0:0:0:
241,0,111658,1,8,0:0:0:0:
210,166,112058,6,0,P|195:194|169:212,1,65,6|2,0:0|0:0,0:0:0:0:
91,227,112458,2,0,L|118:340,1,97.5,8|0,0:0|0:0,0:0:0:0:
129,357,112858,1,6,0:0:0:0:
193,312,113058,1,2,0:0:0:0:
255,265,113258,1,10,0:0:0:0:
208,102,113658,5,6,0:0:0:0:
208,102,113858,1,2,0:0:0:0:
354,18,114258,1,6,0:0:0:0:
354,18,114458,1,2,0:0:0:0:
457,151,114858,1,6,0:0:0:0:
457,151,115058,1,2,0:0:0:0:
324,255,115458,1,6,0:0:0:0:
324,255,115658,1,2,0:0:0:0:
301,87,116058,5,6,0:0:0:0:
349,148,116258,1,2,0:0:0:0:
396,209,116458,1,10,0:0:0:0:
259,308,116858,5,4,0:0:0:0:
135,266,117258,1,4,0:0:0:0:
11,226,117658,2,0,L|28:114,1,97.5,4|8,0:0|0:2,0:0:0:0:
34,91,118058,2,0,P|65:84|96:58,1,65,4|8,0:0|0:2,0:0:0:0:
155,146,118458,5,4,0:0:0:0:
280,112,118858,1,4,0:0:0:0:
407,85,119258,2,0,L|427:205,1,97.5,4|8,0:0|0:2,0:0:0:0:
427,220,119658,2,0,P|400:237|379:273,1,65,4|8,0:0|0:2,0:0:0:0:
305,335,120058,5,4,0:0:0:0:
285,206,120458,1,4,0:0:0:0:
263,77,120858,2,0,L|145:71,1,97.5,4|8,0:0|0:2,0:0:0:0:
126,68,121258,2,0,P|111:96|110:137,1,65,4|8,0:0|0:2,0:0:0:0:
135,229,121658,5,4,0:0:0:0:
262,199,122058,1,4,0:0:0:0:
389,175,122458,2,0,L|398:51,1,97.5,4|8,0:0|0:2,0:0:0:0:
399,38,122858,2,0,P|370:23|329:22,1,65,4|8,0:0|0:2,0:0:0:0:
256,192,123258,12,12,129258,0:0:0:0:
102,95,129658,6,0,L|94:173,1,65,4|0,0:0|0:0,0:0:0:0:
242,341,130458,6,0,L|248:276,1,65,4|0,0:0|0:0,0:0:0:0:
398,96,131258,6,0,L|406:174,1,65,4|0,0:0|0:0,0:0:0:0:
211,34,132058,6,0,P|172:36|139:50,1,65,4|0,0:0|0:0,0:0:0:0:
94,122,132458,2,0,L|116:234,1,77.999997619629,4|0,0:0|0:0,0:0:0:0:
85,289,132858,5,6,0:0:0:0:
175,312,133058,2,0,P|237:299|274:269,2,77.999997619629,2|0|0,0:0|0:0|0:0,0:0:0:0:
110,380,133658,1,6,0:0:0:0:
165,184,134058,5,6,0:0:0:0:
229,117,134258,2,0,P|248:56|241:9,2,77.999997619629,2|0|0,0:0|0:0|0:0,0:0:0:0:
256,207,134858,1,6,0:0:0:0:
377,349,135258,5,6,0:0:0:0:
441,281,135458,1,2,0:0:0:0:
350,258,135658,1,10,0:0:0:0:
169,303,136058,5,6,0:0:0:0:
153,210,136258,2,0,P|172:135|242:92,1,155.999995239258,2|2,0:0|0:0,0:0:0:0:
321,129,136858,2,0,L|430:115,1,77.999997619629,6|0,0:0|0:0,0:0:0:0:
466,190,137258,5,10,0:0:0:0:
466,190,137458,2,0,L|455:284,1,77.999997619629,2|4,0:0|0:0,0:0:0:0:
389,332,137858,1,2,0:0:0:0:
389,332,138058,1,2,0:0:0:0:
297,150,138458,5,6,0:0:0:0:
94,136,138858,1,10,0:0:0:0:
184,317,139258,5,6,0:0:0:0:
270,356,139458,2,0,P|308:360|346:350,2,77.999997619629,2|0|2,0:0|0:0|0:0,0:0:0:0:
184,317,140058,1,6,0:0:0:0:
189,114,140458,5,6,0:0:0:0:
275,75,140658,2,0,P|313:71|351:81,2,77.999997619629,2|0|2,0:0|0:0|0:0,0:0:0:0:
189,114,141258,1,6,0:0:0:0:
353,309,141858,6,0,B|391:297|391:297|425:313,2,77.999997619629,2|2|2,0:0|0:0|0:0,0:0:0:0:
262,333,142458,6,0,L|167:292,1,77.999997619629,6|2,0:0|0:0,0:0:0:0:
145,220,142858,2,0,P|164:145|234:102,1,155.999995239258,12|4,0:0|0:0,0:0:0:0:
320,97,143458,2,0,L|391:127,2,77.999997619629,2|14|2,0:0|0:0|0:0,0:0:0:0:
262,22,144058,6,0,P|223:26|185:16,1,77.999997619629,4|0,0:0|0:0,0:0:0:0:
127,89,144458,1,12,0:0:0:0:
307,180,144858,1,4,0:0:0:0:
104,176,145258,1,14,0:0:0:0:
279,277,145658,6,0,P|317:281|355:271,1,77.999997619629,6|2,0:0|0:0,0:0:0:0:
444,299,146058,2,0,P|463:265|469:227,1,77.999997619629,14|2,0:0|0:0,0:0:0:0:
412,152,146458,2,0,P|373:145|340:126,2,77.999997619629,6|2|14,0:0|0:0|0:0,0:0:0:0:
477,84,147058,1,2,0:0:0:0:
409,19,147258,6,0,B|334:3|334:3|272:53,1,155.999995239258,4|12,0:0|0:0,0:0:0:0:
361,235,148058,2,0,L|365:330,1,77.999997619629,4|0,0:0|0:0,0:0:0:0:
441,365,148458,1,14,0:0:0:0:
240,331,148858,6,0,P|166:354|92:318,1,155.999995239258,6|12,0:0|0:0,0:0:0:0:
106,136,149658,2,0,P|179:112|253:148,1,155.999995239258,6|14,0:0|0:0,0:0:0:0:
258,236,150258,1,2,0:0:0:0:
335,184,150458,6,0,B|396:138|396:138|400:59,1,155.999995239258,4|14,0:0|0:0,0:0:0:0:
308,38,151058,1,2,0:0:0:0:
216,18,151258,2,0,P|196:51|190:89,1,77.999997619629,6|2,0:0|0:0,0:0:0:0:
101,118,151658,2,0,P|118:152|147:178,1,77.999997619629,14|2,0:0|0:0,0:0:0:0:
241,171,152058,6,0,L|350:167,2,77.999997619629,6|2|14,0:0|0:0|0:0,0:0:0:0:
197,253,152658,1,2,0:0:0:0:
145,331,152858,2,0,L|61:335,2,77.999997619629,6|2|14,0:0|0:0|0:0,0:0:0:0:
238,333,153458,1,2,0:0:0:0:
238,333,153658,5,4,0:0:0:0:
67,223,154058,1,12,0:0:0:0:
334,58,155258,6,0,L|342:146,1,77.999997619629,6|2,0:0|0:0,0:0:0:0:
344,229,155658,2,0,P|268:220|206:265,1,155.999995239258,12|4,0:0|0:0,0:0:0:0:
152,340,156258,2,0,P|113:341|76:330,2,77.999997619629,0|14|2,0:0|0:0|0:0,0:0:0:0:
245,346,156858,6,0,B|282:278|282:278|264:197,1,155.999995239258,4|12,0:0|0:0,0:0:0:0:
63,208,157658,1,4,0:0:0:0:
141,21,158058,1,14,0:0:0:0:
320,116,158458,6,0,L|427:109,1,77.999997619629,6|2,0:0|0:0,0:0:0:0:
454,194,158858,2,0,L|347:201,1,77.999997619629,14|2,0:0|0:0,0:0:0:0:
325,277,159258,2,0,L|218:284,2,77.999997619629,6|2|14,0:0|0:0|0:0,0:0:0:0:
418,274,159858,1,2,0:0:0:0:
367,361,160058,6,0,L|196:372,1,155.999995239258,4|12,0:0|0:0,0:0:0:0:
67,228,160858,2,0,P|57:190|60:151,1,77.999997619629,4|0,0:0|0:0,0:0:0:0:
97,65,161258,1,14,0:0:0:0:
182,210,161658,6,0,P|260:228|326:198,1,130,2|0,0:0|0:0,0:0:0:0:
418,86,162458,2,0,P|379:82|345:90,2,65,2|0|2,0:0|0:0|0:0,0:0:0:0:
427,163,163058,6,0,B|439:293|439:293|402:349,1,195,2|2,0:0|0:0,0:0:0:0:
325,355,163858,1,2,0:0:0:0:
247,361,164058,2,0,P|228:334|219:303,1,65,2|2,0:0|0:0,0:0:0:0:
143,324,164458,2,0,P|142:291|151:260,1,65,2|2,0:0|0:0,0:0:0:0:
193,194,164858,6,0,P|224:202|265:198,1,65,2|2,0:0|0:0,0:0:0:0:
234,125,165258,2,0,P|262:109|284:81,1,65,2|2,0:0|0:0,0:0:0:0:
213,46,165658,2,0,L|132:46,2,65,2|2|2,0:0|0:0|0:0,0:0:0:0:
278,3,166258,6,0,B|340:0|383:53|369:107|345:144|345:144|322:179|319:226|368:272,1,325,2|0,0:0|0:0,0:0:0:0:
