osu file format v14

[General]
AudioFilename: audio.mp3
AudioLeadIn: 0
PreviewTime: -1
Countdown: 0
SampleSet: Soft
StackLeniency: 1
Mode: 0
LetterboxInBreaks: 0
WidescreenStoryboard: 0

[Editor]
DistanceSpacing: 1
BeatDivisor: 4
GridSize: 4
TimelineZoom: 1

[Metadata]
Title:Little Knight
TitleUnicode:Little Knight
Artist:cYsmix
ArtistUnicode:cYsmix
Creator:TheAwesomator
Version:Knighthood
Source:
Tags:
BeatmapID:1498823
BeatmapSetID:708974

[Difficulty]
HPDrainRate:7
CircleSize:4
OverallDifficulty:7
ApproachRate:9
SliderMultiplier:1.4
SliderTickRate:1

[Events]
//Background and Video events
0,0,"little_knight_by_firrka-d6nizto.png",0,0
//Break Periods
2,34738,38739
//Storyboard Layer 0 (Background)
//Storyboard Layer 1 (Fail)
//Storyboard Layer 2 (Pass)
//Storyboard Layer 3 (Foreground)
//Storyboard Sound Samples

[TimingPoints]
1539.20457231356,375,4,2,0,100,1,0
3789,-66.6666666666667,4,2,0,100,0,0
4539,-100,4,2,0,100,0,0
7445,-66.6666666666667,4,2,0,100,0,0
13539,-50,4,2,0,100,0,0
14945,-66.6666666666667,4,2,0,100,0,0
18695,-50,4,2,0,100,0,0
26945,-100,4,2,0,100,0,0
40914,-200,4,2,0,100,0,0
50289,-100,4,2,0,100,0,0
75976,-66.6666666666667,4,2,0,100,0,0
82632,-100,4,2,0,100,0,0
82831,279.06976744186,4,2,0,100,1,0
86684,375,4,2,0,100,1,0
88445,-50,4,2,0,100,0,1
97445,-66.6666666666667,4,2,0,100,0,0
100070,-50,4,2,0,100,0,0
106351,-100,4,2,0,100,0,0
108226,-100,4,2,0,100,0,0
123601,-133.333333333333,4,2,0,100,0,0

[HitObjects]
119,252,1539,5,0,0:0:0:0:
256,112,1726,2,0,P|256:200|256:200,1,70
119,252,2101,5,0,0:0:0:0:
256,248,2289,2,0,L|256:324,1,70
96,328,2664,5,0,0:0:0:0:
256,332,2851,1,0,0:0:0:0:
408,332,3039,1,0,0:0:0:0:
256,108,3226,6,0,L|256:192,1,70
256,332,3601,1,0,0:0:0:0:
252,24,3976,5,0,0:0:0:0:
252,92,4164,2,0,L|252:344,1,210.000008010865
117,78,4726,6,0,L|187:78,1,70
240,216,5101,1,0,0:0:0:0:
208,80,5289,2,0,L|280:80,1,70
124,208,5664,1,0,0:0:0:0:
312,80,5851,2,0,L|224:80,1,70
352,216,6226,1,0,0:0:0:0:
208,80,6414,2,0,L|280:80,1,70
284,216,6789,1,0,0:0:0:0:
117,78,6976,2,0,L|187:78,1,70
84,216,7351,5,0,0:0:0:0:
188,148,7539,2,0,L|188:292,1,105.000004005432
84,216,7914,1,0,0:0:0:0:
188,253,8101,2,0,L|188:137,1,105.000004005432
312,200,8476,1,0,0:0:0:0:
396,136,8664,2,0,L|396:272,1,105.000004005432
312,200,9039,1,0,0:0:0:0:
396,241,9227,2,0,L|396:104,1,105.000004005432
396,136,9601,1,0,0:0:0:0:
240,104,9789,5,0,0:0:0:0:
292,152,9976,1,0,0:0:0:0:
228,168,10164,1,0,0:0:0:0:
68,160,10539,5,0,0:0:0:0:
148,160,10726,2,0,P|75:80|66:79,1,105.000004005432
224,160,11102,1,0,0:0:0:0:
304,160,11289,2,0,P|231:80|222:79,1,105.000004005432
224,160,11664,1,0,0:0:0:0:
225,239,11851,2,0,P|302:165|304:156,1,105.000004005432
72,164,12226,1,0,0:0:0:0:
73,243,12413,2,0,P|150:169|152:160,1,105.000004005432
244,144,12789,5,0,0:0:0:0:
196,188,12976,2,0,L|300:172,1,105.000004005432
252,208,13351,1,0,0:0:0:0:
208,72,13539,6,0,L|200:228,1,140
316,72,13914,6,0,L|324:227,1,140
260,156,14289,5,0,0:0:0:0:
260,208,14476,1,0,0:0:0:0:
204,264,14664,1,0,0:0:0:0:
312,268,14851,1,0,0:0:0:0:
140,156,15039,6,0,L|108:256,1,105.000004005432
224,160,15414,2,0,L|192:264,1,105.000004005432
372,228,15789,2,0,L|408:128,1,105.000004005432
288,224,16164,2,0,L|336:92,1,105.000004005432
120,68,16539,5,0,0:0:0:0:
68,312,16726,2,0,L|176:312,1,105.000004005432
240,316,17101,1,0,0:0:0:0:
312,316,17289,2,0,L|311:180,1,105.000004005432
240,208,17664,1,0,0:0:0:0:
171,206,17851,2,0,L|99:111,1,105.000004005432
204,140,18226,1,0,0:0:0:0:
280,144,18414,2,0,L|368:52,1,105.000004005432
244,88,18789,1,0,0:0:0:0:
184,52,18976,6,0,P|340:108|344:112,1,140
229,142,19351,1,0,0:0:0:0:
149,197,19539,6,0,P|214:221|283:221,1,140
229,142,19914,1,0,0:0:0:0:
316,87,20101,6,0,P|265:245|261:249,1,140
229,142,20476,1,0,0:0:0:0:
316,88,20664,6,0,P|253:58|184:52,1,140
229,142,21039,1,0,0:0:0:0:
232,60,21226,1,0,0:0:0:0:
164,100,21414,1,0,0:0:0:0:
152,176,21601,1,0,0:0:0:0:
36,164,21789,5,0,0:0:0:0:
80,148,21976,1,0,0:0:0:0:
68,184,22164,1,0,0:0:0:0:
212,132,22539,5,0,0:0:0:0:
280,132,22726,1,0,0:0:0:0:
280,200,22914,1,0,0:0:0:0:
212,200,23101,1,0,0:0:0:0:
296,88,23289,5,0,0:0:0:0:
436,208,23476,1,0,0:0:0:0:
248,296,23664,1,0,0:0:0:0:
160,144,23851,1,0,0:0:0:0:
324,224,24039,5,0,0:0:0:0:
172,216,24226,1,0,0:0:0:0:
312,100,24414,1,0,0:0:0:0:
296,296,24601,1,0,0:0:0:0:
132,108,24789,5,0,0:0:0:0:
320,188,24976,1,0,0:0:0:0:
204,84,25164,1,0,0:0:0:0:
248,240,25351,1,0,0:0:0:0:
364,56,25539,5,0,0:0:0:0:
456,120,25726,1,0,0:0:0:0:
368,160,25914,1,0,0:0:0:0:
216,208,26101,5,0,0:0:0:0:
200,208,26195,1,0,0:0:0:0:
184,208,26289,2,0,L|32:208,1,140
40,136,26664,2,0,L|204:136,1,140
48,164,27039,6,0,L|88:188,1,35
184,92,27226,2,0,L|148:134,1,35
96,280,27414,6,0,L|136:252,1,35
212,200,27601,2,0,L|248:160,1,35
336,64,27789,1,0,0:0:0:0:
372,236,28164,1,0,0:0:0:0:
256,192,28539,5,0,0:0:0:0:
256,192,28726,12,0,34538,0:0:0:0:
168,128,40539,5,0,0:0:0:0:
128,184,41476,5,0,0:0:0:0:
176,124,41664,2,0,B|208:116|208:116|220:112,2,35
272,64,42789,1,0,0:0:0:0:
216,280,43539,1,0,0:0:0:0:
371,136,44476,5,0,0:0:0:0:
358,212,44664,2,0,B|328:252|328:252|328:252,2,35
276,64,45789,1,0,0:0:0:0:
240,316,46539,1,0,0:0:0:0:
168,216,47477,5,0,0:0:0:0:
128,152,47664,2,0,B|168:120|168:120|168:120,2,35
348,88,48789,1,0,0:0:0:0:
224,272,49539,1,0,0:0:0:0:
128,184,50476,5,0,0:0:0:0:
176,124,50664,2,0,B|216:116|216:116|252:108,1,70
316,96,51039,1,0,0:0:0:0:
244,148,51789,1,0,0:0:0:0:
256,192,52539,5,0,0:0:0:0:
176,192,52914,1,0,0:0:0:0:
336,192,53289,1,0,0:0:0:0:
96,192,53664,1,0,0:0:0:0:
416,192,54039,1,0,0:0:0:0:
176,192,54414,1,0,0:0:0:0:
320,192,54789,1,0,0:0:0:0:
256,192,55164,1,0,0:0:0:0:
352,192,55539,5,0,0:0:0:0:
176,192,55914,1,0,0:0:0:0:
316,132,56289,1,0,0:0:0:0:
188,248,56664,1,0,0:0:0:0:
252,120,57039,1,0,0:0:0:0:
248,272,57414,1,0,0:0:0:0:
188,136,57789,1,0,0:0:0:0:
328,272,58164,1,0,0:0:0:0:
248,260,58539,5,0,0:0:0:0:
298,119,58914,1,0,0:0:0:0:
168,196,59289,1,0,0:0:0:0:
320,196,59664,1,0,0:0:0:0:
212,116,60039,1,0,0:0:0:0:
248,260,60414,1,0,0:0:0:0:
320,112,60789,1,0,0:0:0:0:
200,144,61164,1,0,0:0:0:0:
304,220,61539,5,0,0:0:0:0:
104,184,61914,1,0,0:0:0:0:
320,224,62289,1,0,0:0:0:0:
144,320,62664,1,0,0:0:0:0:
260,84,63039,1,0,0:0:0:0:
256,312,63414,1,0,0:0:0:0:
252,236,63789,1,0,0:0:0:0:
254,157,64164,1,0,0:0:0:0:
256,192,64539,5,0,0:0:0:0:
188,236,64726,1,0,0:0:0:0:
132,312,64914,2,0,L|220:312,1,70
280,312,65289,1,0,0:0:0:0:
304,200,65476,5,0,0:0:0:0:
232,160,65664,2,0,L|148:160,1,70
88,164,66039,1,0,0:0:0:0:
88,24,66226,2,0,L|88:104,1,70
88,164,66601,1,0,0:0:0:0:
88,280,66789,5,0,0:0:0:0:
88,280,66882,1,0,0:0:0:0:
88,280,66976,1,0,0:0:0:0:
152,328,67164,1,0,0:0:0:0:
156,332,67257,1,0,0:0:0:0:
160,336,67351,1,0,0:0:0:0:
232,352,67539,1,0,0:0:0:0:
332,352,67726,5,0,0:0:0:0:
304,336,67914,2,0,L|244:296,1,70
208,240,68289,1,0,0:0:0:0:
152,88,68476,6,0,L|216:136,1,70
288,40,68851,1,0,0:0:0:0:
288,176,69039,1,0,0:0:0:0:
288,40,69226,1,0,0:0:0:0:
68,60,69414,5,0,0:0:0:0:
96,176,69601,2,0,P|156:244|156:244,1,70
148,232,69882,1,0,0:0:0:0:
148,232,69976,1,0,0:0:0:0:
160,320,70164,1,0,0:0:0:0:
168,328,70257,1,0,0:0:0:0:
168,328,70351,1,0,0:0:0:0:
256,344,70539,5,0,0:0:0:0:
260,264,70726,2,0,L|260:184,1,70
268,48,71289,1,0,0:0:0:0:
224,60,71476,1,0,0:0:0:0:
184,72,71664,1,0,0:0:0:0:
144,88,71851,1,0,0:0:0:0:
56,148,72039,2,0,L|128:148,2,70
60,224,72601,2,0,L|140:224,1,70
130,224,72882,1,0,0:0:0:0:
130,236,72976,1,0,0:0:0:0:
140,316,73164,1,0,0:0:0:0:
160,332,73257,1,0,0:0:0:0:
180,348,73351,5,0,0:0:0:0:
304,348,73539,1,0,0:0:0:0:
184,248,73726,6,0,L|240:200,1,70
260,176,74101,1,0,0:0:0:0:
292,176,74289,1,0,0:0:0:0:
388,208,74476,5,0,0:0:0:0:
388,136,74663,1,0,0:0:0:0:
388,64,74851,1,0,0:0:0:0:
388,280,75039,5,0,0:0:0:0:
28,112,76070,5,0,0:0:0:0:
40,148,76164,1,0,0:0:0:0:
56,192,76257,1,0,0:0:0:0:
72,228,76351,1,0,0:0:0:0:
88,268,76445,1,0,0:0:0:0:
104,304,76539,6,0,L|164:256,3,52.5000020027161
391,318,77101,2,0,L|352:272,3,52.5000020027161
232,272,77664,2,0,L|232:344,3,52.5000020027161
168,152,78226,2,0,L|120:96,3,52.5000020027161
320,152,78789,2,0,L|372:100,3,52.5000020027161
344,292,79351,2,0,L|384:248,3,52.5000020027161
192,232,79914,6,0,L|148:276,3,52.5000020027161
104,156,80476,2,0,L|148:112,3,52.5000020027161
280,42,81039,2,0,L|280:100,3,52.5000020027161
164,120,81601,2,0,L|128:72,3,52.5000020027161
56,192,82257,5,0,0:0:0:0:
140,192,82445,1,0,0:0:0:0:
140,192,82539,1,0,0:0:0:0:
216,192,82820,5,0,0:0:0:0:
292,196,83101,5,0,0:0:0:0:
364,196,83382,5,0,0:0:0:0:
256,116,83668,1,0,0:0:0:0:
256,20,83942,1,0,0:0:0:0:
256,288,84219,1,0,0:0:0:0:
256,384,84505,1,0,0:0:0:0:
256,192,84784,5,0,0:0:0:0:
332,192,85063,1,0,0:0:0:0:
256,280,85342,1,0,0:0:0:0:
256,120,85621,1,0,0:0:0:0:
256,256,85900,1,0,0:0:0:0:
160,220,86179,1,0,0:0:0:0:
40,312,86458,1,0,0:0:0:0:
40,344,86664,6,0,L|116:312,1,70
184,284,87039,2,0,L|240:224,1,70
160,224,87414,1,0,0:0:0:0:
24,340,88539,5,0,0:0:0:0:
24,268,88726,2,0,B|112:268|112:268|112:380,1,140
180,332,89101,1,0,0:0:0:0:
176,264,89288,2,0,B|264:264|264:264|264:316,1,140
328,332,89664,1,0,0:0:0:0:
328,260,89851,2,0,B|416:260|416:260|416:371,1,140
328,332,90226,1,0,0:0:0:0:
416,312,90414,2,0,B|416:260|416:260|328:260,1,140
168,332,90789,1,0,0:0:0:0:
260,260,90976,2,0,B|172:260|172:260|172:208,1,140
172,136,91351,5,0,0:0:0:0:
256,144,91539,2,0,L|256:-4,1,140
340,144,91914,1,0,0:0:0:0:
424,148,92101,2,0,L|424:4,1,140
340,144,92476,1,0,0:0:0:0:
256,140,92664,2,0,L|256:292,1,140
172,132,93039,1,0,0:0:0:0:
88,132,93226,2,0,L|88:288,1,140
12,132,93601,1,0,0:0:0:0:
260,96,93789,5,0,0:0:0:0:
328,120,93976,1,0,0:0:0:0:
272,168,94164,1,0,0:0:0:0:
320,192,94539,5,0,0:0:0:0:
236,184,94727,2,0,L|236:331,1,140
151,184,95102,1,0,0:0:0:0:
67,180,95289,2,0,L|67:324,1,140
151,184,95664,1,0,0:0:0:0:
236,187,95852,2,0,L|236:35,1,140
319,195,96227,1,0,0:0:0:0:
404,196,96414,2,0,L|403:40,1,140
479,195,96789,1,0,0:0:0:0:
404,196,96976,2,0,L|295:83,1,140
224,92,97351,5,0,0:0:0:0:
80,180,97539,2,0,L|168:112,1,105.000004005432
136,248,97914,2,0,L|236:168,1,105.000004005432
228,268,98289,2,0,L|140:176,1,105.000004005432
288,212,98664,2,0,L|212:128,1,105.000004005432
444,312,99039,6,0,L|324:312,1,105.000004005432
168,312,99414,2,0,L|304:312,1,105.000004005432
304,312,99789,2,0,L|304:172,1,105.000004005432
304,184,100164,2,0,L|304:24,1,140
48,332,100539,5,0,0:0:0:0:
128,196,100726,2,0,L|128:368,1,140
204,332,101101,1,0,0:0:0:0:
300,192,101289,2,0,L|300:348,1,140
384,328,101664,1,0,0:0:0:0:
388,244,101851,2,0,L|388:96,1,140
304,96,102226,1,0,0:0:0:0:
224,96,102414,2,0,L|72:96,1,140
0,164,102789,5,0,0:0:0:0:
72,164,102976,2,0,L|232:164,1,140
256,236,103351,5,0,0:0:0:0:
180,236,103539,2,0,L|40:236,1,140
116,304,103914,5,0,0:0:0:0:
196,304,104101,2,0,L|356:304,1,140
480,196,104476,5,0,0:0:0:0:
404,196,104664,2,0,L|264:196,1,140
104,40,105039,5,0,0:0:0:0:
104,292,105226,2,0,L|104:132,1,140
104,40,105601,1,0,0:0:0:0:
220,112,105789,5,0,0:0:0:0:
284,172,105976,1,0,0:0:0:0:
200,200,106164,1,0,0:0:0:0:
48,304,106539,5,0,0:0:0:0:
48,168,106726,2,0,L|48:248,1,70
132,304,107101,1,0,0:0:0:0:
200,172,107289,2,0,L|200:256,1,70
284,304,107664,1,0,0:0:0:0:
364,164,107851,2,0,L|364:252,1,70
448,312,108226,5,0,0:0:0:0:
360,232,108414,2,0,L|360:152,1,70
284,304,108789,1,0,0:0:0:0:
200,228,108976,2,0,L|200:144,1,70
132,304,109352,1,0,0:0:0:0:
12,120,109539,1,0,0:0:0:0:
64,68,109727,1,0,0:0:0:0:
80,132,109914,1,0,0:0:0:0:
128,84,110101,1,0,0:0:0:0:
184,116,110289,6,0,L|328:116,1,140
340,204,111039,1,0,0:0:0:0:
256,204,111226,1,0,0:0:0:0:
256,292,111414,1,0,0:0:0:0:
340,292,111601,1,0,0:0:0:0:
160,292,111789,2,0,L|16:292,1,140
40,24,112539,5,0,0:0:0:0:
40,176,112914,2,0,L|40:256,1,70
148,168,113289,6,0,L|148:92,1,70
204,48,113664,1,0,0:0:0:0:
56,272,113851,5,0,0:0:0:0:
364,176,114039,6,0,L|363:252,1,70
312,312,114414,1,0,0:0:0:0:
56,324,114601,5,0,0:0:0:0:
196,324,114789,6,0,L|196:248,1,70
196,184,115164,1,0,0:0:0:0:
60,336,115351,5,0,0:0:0:0:
256,192,115539,6,0,L|256:284,1,70
256,336,115914,1,0,0:0:0:0:
256,260,116101,2,0,L|256:172,1,70
400,220,116476,5,0,0:0:0:0:
400,144,116664,2,0,L|304:144,1,70
400,300,117039,1,0,0:0:0:0:
320,304,117226,2,0,L|232:304,1,70
176,308,117601,1,0,0:0:0:0:
256,192,117789,5,0,0:0:0:0:
256,192,118164,5,0,0:0:0:0:
32,280,118539,5,0,0:0:0:0:
104,280,118726,2,0,P|96:232|80:224,1,70
72,344,119101,1,0,0:0:0:0:
364,216,119289,6,0,L|364:292,1,70
308,335,119664,1,0,0:0:0:0:
148,344,119851,5,0,0:0:0:0:
148,208,120039,6,0,L|149:132,1,70
208,80,120414,1,0,0:0:0:0:
268,152,120601,1,0,0:0:0:0:
384,252,120789,6,0,B|300:288|300:288,1,70
248,232,121164,1,0,0:0:0:0:
424,296,121351,5,0,0:0:0:0:
256,192,121632,6,0,L|284:248,1,35
108,368,121914,1,0,0:0:0:0:
180,372,122101,1,0,0:0:0:0:
256,380,122289,2,0,L|256:284,1,70
276,108,122664,1,0,0:0:0:0:
216,80,122851,1,0,0:0:0:0:
128,44,123039,5,0,0:0:0:0:
132,112,123414,1,0,0:0:0:0:
132,184,123789,2,0,L|243:183,1,105.000004005432
256,192,125289,5,0,0:0:0:0:
