osu file format v14

[General]
AudioFilename: audio.mp3
AudioLeadIn: 0
PreviewTime: 4539
Countdown: 0
SampleSet: Soft
StackLeniency: 0.7
Mode: 3
LetterboxInBreaks: 0
SpecialStyle: 0
WidescreenStoryboard: 0

[Editor]
DistanceSpacing: 1
BeatDivisor: 4
GridSize: 4
TimelineZoom: 2.699999

[Metadata]
Title:Little Knight
TitleUnicode:Little Knight
Artist:cYsmix
ArtistUnicode:cYsmix
Creator:Sparky
Version:Squire
Source:osu!
Tags:Cold Open Cup coc long notes lns qualifiers Electronic Instrumental Electro House Complextro featured artist fa original mappers' guild mpg mg
BeatmapID:3993568
BeatmapSetID:1932837

[Difficulty]
HPDrainRate:8
CircleSize:4
OverallDifficulty:7
ApproachRate:5
SliderMultiplier:1.4
SliderTickRate:1

[Events]
//Background and Video events
0,0,"bg1920.jpg",0,0
//Break Periods
//Storyboard Layer 0 (Background)
//Storyboard Layer 1 (Fail)
//Storyboard Layer 2 (Pass)
//Storyboard Layer 3 (Foreground)
//Storyboard Layer 4 (Overlay)
//Storyboard Sound Samples

[TimingPoints]
1539.20457231356,375,4,2,1,100,1,0

[HitObjects]
64,192,976,5,0,0:0:0:0:
448,192,976,1,0,0:0:0:0:
64,192,1539,128,0,1726:0:0:0:0:
448,192,1726,128,0,1914:0:0:0:0:
192,192,1914,128,0,2101:0:0:0:0:
320,192,2101,128,0,2289:0:0:0:0:
192,192,2289,128,0,2476:0:0:0:0:
448,192,2476,128,0,2664:0:0:0:0:
64,192,2664,128,0,2851:0:0:0:0:
320,192,2851,128,0,3039:0:0:0:0:
192,192,3039,128,0,3226:0:0:0:0:
64,192,3226,128,0,3414:0:0:0:0:
448,192,3414,128,0,3601:0:0:0:0:
320,192,3601,128,0,3789:0:0:0:0:
192,192,3976,1,0,0:0:0:0:
64,192,3976,1,0,0:0:0:0:
448,192,4164,128,0,4539:0:0:0:0:
192,192,4539,1,0,0:0:0:0:
64,192,4539,128,0,4726:0:0:0:0:
448,192,4726,128,0,4914:0:0:0:0:
320,192,4914,128,0,5101:0:0:0:0:
64,192,4914,1,0,0:0:0:0:
192,192,5101,128,0,5289:0:0:0:0:
448,192,5289,128,0,5476:0:0:0:0:
320,192,5289,1,0,0:0:0:0:
64,192,5476,128,0,5664:0:0:0:0:
448,192,5664,1,0,0:0:0:0:
192,192,5664,128,0,5851:0:0:0:0:
320,192,5851,128,0,6039:0:0:0:0:
192,192,6039,1,0,0:0:0:0:
64,192,6039,128,0,6226:0:0:0:0:
448,192,6226,128,0,6414:0:0:0:0:
320,192,6414,128,0,6601:0:0:0:0:
192,192,6414,1,0,0:0:0:0:
448,192,6601,128,0,6789:0:0:0:0:
192,192,6789,1,0,0:0:0:0:
64,192,6789,128,0,6976:0:0:0:0:
320,192,6976,128,0,7164:0:0:0:0:
448,192,7164,128,0,7351:0:0:0:0:
192,192,7164,1,0,0:0:0:0:
64,192,7351,128,0,7539:0:0:0:0:
448,192,7539,1,0,0:0:0:0:
320,192,7539,128,0,7726:0:0:0:0:
192,192,7726,128,0,7914:0:0:0:0:
320,192,7914,1,0,0:0:0:0:
64,192,7914,128,0,8101:0:0:0:0:
448,192,8101,128,0,8289:0:0:0:0:
320,192,8289,128,0,8476:0:0:0:0:
64,192,8289,1,0,0:0:0:0:
192,192,8476,128,0,8664:0:0:0:0:
448,192,8664,128,0,8851:0:0:0:0:
64,192,8664,1,0,0:0:0:0:
192,192,8851,128,0,9039:0:0:0:0:
320,192,9039,128,0,9414:0:0:0:0:
448,192,9039,1,0,0:0:0:0:
64,192,9226,128,0,9414:0:0:0:0:
448,192,9414,128,0,9789:0:0:0:0:
192,192,9414,128,0,9601:0:0:0:0:
320,192,9601,128,0,9789:0:0:0:0:
192,192,9789,128,0,9976:0:0:0:0:
64,192,9789,128,0,9976:0:0:0:0:
448,192,9976,128,0,10164:0:0:0:0:
320,192,9976,128,0,10164:0:0:0:0:
192,192,10164,128,0,10539:0:0:0:0:
64,192,10164,128,0,10539:0:0:0:0:
448,192,10539,1,0,0:0:0:0:
320,192,10539,128,0,10726:0:0:0:0:
64,192,10726,128,0,10914:0:0:0:0:
448,192,10914,1,0,0:0:0:0:
192,192,10914,128,0,11101:0:0:0:0:
320,192,11101,128,0,11289:0:0:0:0:
192,192,11289,1,0,0:0:0:0:
64,192,11289,128,0,11476:0:0:0:0:
448,192,11476,128,0,11664:0:0:0:0:
320,192,11664,128,0,11851:0:0:0:0:
64,192,11664,1,0,0:0:0:0:
192,192,11851,128,0,12039:0:0:0:0:
448,192,12039,128,0,12226:0:0:0:0:
64,192,12039,1,0,0:0:0:0:
320,192,12226,128,0,12414:0:0:0:0:
448,192,12414,1,0,0:0:0:0:
64,192,12414,128,0,12601:0:0:0:0:
192,192,12601,128,0,12789:0:0:0:0:
320,192,12789,1,0,0:0:0:0:
64,192,12789,128,0,12976:0:0:0:0:
448,192,12976,128,0,13164:0:0:0:0:
320,192,13164,128,0,13351:0:0:0:0:
192,192,13164,1,0,0:0:0:0:
64,192,13351,128,0,13539:0:0:0:0:
448,192,13539,128,0,13914:0:0:0:0:
192,192,13539,128,0,13726:0:0:0:0:
320,192,13726,128,0,13914:0:0:0:0:
192,192,13914,128,0,14289:0:0:0:0:
64,192,13914,128,0,14289:0:0:0:0:
448,192,14289,128,0,14664:0:0:0:0:
320,192,14289,128,0,14476:0:0:0:0:
320,192,14664,128,0,15039:0:0:0:0:
64,192,14664,128,0,15039:0:0:0:0:
192,192,15039,128,0,15414:0:0:0:0:
448,192,15039,128,0,15226:0:0:0:0:
320,192,15414,128,0,15789:0:0:0:0:
64,192,15414,128,0,15601:0:0:0:0:
192,192,15789,128,0,15976:0:0:0:0:
64,192,15789,128,0,16164:0:0:0:0:
320,192,15976,128,0,16164:0:0:0:0:
448,192,16164,128,0,16539:0:0:0:0:
192,192,16164,128,0,16539:0:0:0:0:
320,192,16539,128,0,17289:0:0:0:0:
64,192,16539,128,0,16726:0:0:0:0:
448,192,16726,128,0,16914:0:0:0:0:
192,192,16914,128,0,17101:0:0:0:0:
64,192,17101,128,0,17289:0:0:0:0:
448,192,17289,128,0,18039:0:0:0:0:
192,192,17289,128,0,17476:0:0:0:0:
64,192,17476,128,0,17664:0:0:0:0:
320,192,17664,128,0,17851:0:0:0:0:
192,192,17851,128,0,18039:0:0:0:0:
320,192,18039,128,0,18789:0:0:0:0:
64,192,18039,128,0,18226:0:0:0:0:
192,192,18226,128,0,18414:0:0:0:0:
448,192,18414,128,0,18601:0:0:0:0:
192,192,18601,128,0,18789:0:0:0:0:
448,192,18789,128,0,19539:0:0:0:0:
64,192,18789,128,0,18976:0:0:0:0:
192,192,18976,128,0,19164:0:0:0:0:
320,192,19164,128,0,19351:0:0:0:0:
64,192,19351,128,0,19539:0:0:0:0:
320,192,19539,128,0,20289:0:0:0:0:
192,192,19539,128,0,19726:0:0:0:0:
64,192,19726,128,0,19914:0:0:0:0:
448,192,19914,128,0,20101:0:0:0:0:
64,192,20101,128,0,20289:0:0:0:0:
448,192,20289,128,0,21039:0:0:0:0:
192,192,20289,128,0,20476:0:0:0:0:
320,192,20476,128,0,20664:0:0:0:0:
64,192,20664,128,0,20851:0:0:0:0:
320,192,20851,128,0,21039:0:0:0:0:
192,192,21039,128,0,21226:0:0:0:0:
64,192,21039,128,0,21414:0:0:0:0:
448,192,21226,128,0,21414:0:0:0:0:
320,192,21414,128,0,21789:0:0:0:0:
192,192,21414,128,0,21601:0:0:0:0:
64,192,21601,128,0,21789:0:0:0:0:
448,192,21789,128,0,21976:0:0:0:0:
192,192,21789,128,0,21976:0:0:0:0:
320,192,21976,128,0,22164:0:0:0:0:
64,192,21976,128,0,22164:0:0:0:0:
448,192,22164,128,0,22539:0:0:0:0:
192,192,22164,128,0,22539:0:0:0:0:
320,192,22539,128,0,22726:0:0:0:0:
64,192,22539,128,0,23289:0:0:0:0:
448,192,22726,128,0,22914:0:0:0:0:
192,192,22914,128,0,23101:0:0:0:0:
320,192,23101,128,0,23289:0:0:0:0:
448,192,23289,128,0,23476:0:0:0:0:
192,192,23289,128,0,24039:0:0:0:0:
64,192,23476,128,0,23664:0:0:0:0:
320,192,23664,128,0,23851:0:0:0:0:
448,192,23851,128,0,24039:0:0:0:0:
320,192,24039,128,0,24226:0:0:0:0:
64,192,24039,128,0,24789:0:0:0:0:
448,192,24226,128,0,24414:0:0:0:0:
192,192,24414,128,0,24601:0:0:0:0:
320,192,24601,128,0,24789:0:0:0:0:
448,192,24789,128,0,24976:0:0:0:0:
192,192,24789,128,0,25539:0:0:0:0:
64,192,24976,128,0,25164:0:0:0:0:
320,192,25164,128,0,25351:0:0:0:0:
64,192,25351,128,0,25539:0:0:0:0:
448,192,25539,128,0,25726:0:0:0:0:
320,192,25539,128,0,25726:0:0:0:0:
192,192,25726,128,0,25914:0:0:0:0:
64,192,25726,128,0,25914:0:0:0:0:
448,192,25914,128,0,26101:0:0:0:0:
320,192,25914,128,0,26289:0:0:0:0:
192,192,26101,128,0,26289:0:0:0:0:
448,192,26289,128,0,26664:0:0:0:0:
64,192,26289,128,0,26664:0:0:0:0:
192,192,26664,128,0,27039:0:0:0:0:
320,192,26664,128,0,26851:0:0:0:0:
320,192,27039,128,0,27226:0:0:0:0:
64,192,27039,128,0,27601:0:0:0:0:
448,192,27226,128,0,27414:0:0:0:0:
320,192,27414,128,0,27789:0:0:0:0:
192,192,27414,128,0,27601:0:0:0:0:
448,192,27601,128,0,27789:0:0:0:0:
192,192,27789,128,0,28164:0:0:0:0:
64,192,27789,128,0,28164:0:0:0:0:
448,192,28164,128,0,28539:0:0:0:0:
320,192,28164,128,0,28539:0:0:0:0:
64,192,28539,128,0,28914:0:0:0:0:
192,192,28726,128,0,28914:0:0:0:0:
448,192,28914,128,0,29101:0:0:0:0:
320,192,29101,128,0,29476:0:0:0:0:
64,192,29289,128,0,29476:0:0:0:0:
192,192,29476,128,0,29664:0:0:0:0:
448,192,29664,128,0,30039:0:0:0:0:
320,192,29851,128,0,30039:0:0:0:0:
64,192,30039,128,0,30226:0:0:0:0:
192,192,30226,128,0,30601:0:0:0:0:
448,192,30414,128,0,30601:0:0:0:0:
320,192,30601,128,0,30789:0:0:0:0:
64,192,30789,128,0,31164:0:0:0:0:
320,192,30976,128,0,31164:0:0:0:0:
192,192,31164,128,0,31351:0:0:0:0:
448,192,31351,128,0,31539:0:0:0:0:
192,192,31539,128,0,31914:0:0:0:0:
320,192,31726,128,0,31914:0:0:0:0:
448,192,31914,128,0,32101:0:0:0:0:
64,192,32101,128,0,32476:0:0:0:0:
320,192,32289,128,0,32476:0:0:0:0:
448,192,32476,128,0,32664:0:0:0:0:
192,192,32664,128,0,33039:0:0:0:0:
448,192,32851,128,0,33039:0:0:0:0:
320,192,33039,128,0,33226:0:0:0:0:
64,192,33226,128,0,33601:0:0:0:0:
320,192,33414,128,0,33601:0:0:0:0:
192,192,33601,128,0,33789:0:0:0:0:
320,192,33789,128,0,34164:0:0:0:0:
64,192,33976,128,0,34164:0:0:0:0:
448,192,34164,128,0,34351:0:0:0:0:
192,192,34351,128,0,34539:0:0:0:0:
64,192,34539,128,0,34914:0:0:0:0:
192,192,34726,128,0,34914:0:0:0:0:
448,192,34914,128,0,35101:0:0:0:0:
320,192,35101,128,0,35476:0:0:0:0:
64,192,35289,128,0,35476:0:0:0:0:
192,192,35476,128,0,35664:0:0:0:0:
448,192,35664,128,0,36039:0:0:0:0:
192,192,35851,128,0,36039:0:0:0:0:
64,192,36039,128,0,36226:0:0:0:0:
320,192,36226,128,0,36601:0:0:0:0:
448,192,36414,128,0,36601:0:0:0:0:
192,192,36601,128,0,36789:0:0:0:0:
64,192,36789,128,0,37164:0:0:0:0:
320,192,36976,128,0,37164:0:0:0:0:
448,192,37164,128,0,37351:0:0:0:0:
192,192,37351,128,0,37539:0:0:0:0:
320,192,37539,128,0,37914:0:0:0:0:
64,192,37726,128,0,37914:0:0:0:0:
192,192,37914,128,0,38101:0:0:0:0:
448,192,38101,128,0,38476:0:0:0:0:
192,192,38289,128,0,38476:0:0:0:0:
320,192,38476,128,0,38664:0:0:0:0:
64,192,38664,128,0,39039:0:0:0:0:
448,192,38851,128,0,39039:0:0:0:0:
320,192,39039,128,0,39226:0:0:0:0:
192,192,39226,128,0,39601:0:0:0:0:
320,192,39414,128,0,39601:0:0:0:0:
64,192,39601,128,0,39789:0:0:0:0:
448,192,39789,128,0,40164:0:0:0:0:
320,192,39976,128,0,40164:0:0:0:0:
64,192,40164,128,0,40351:0:0:0:0:
192,192,40351,128,0,40539:0:0:0:0:
448,192,40539,1,0,0:0:0:0:
320,192,40539,1,0,0:0:0:0:
64,192,40726,1,0,0:0:0:0:
320,192,40914,1,0,0:0:0:0:
64,192,41289,1,0,0:0:0:0:
320,192,41476,128,0,41664:0:0:0:0:
448,192,41664,128,0,41851:0:0:0:0:
192,192,41851,128,0,42039:0:0:0:0:
64,192,42039,128,0,42414:0:0:0:0:
192,192,42414,1,0,0:0:0:0:
448,192,42601,1,0,0:0:0:0:
320,192,42789,128,0,43539:0:0:0:0:
192,192,42976,1,0,0:0:0:0:
64,192,43164,1,0,0:0:0:0:
192,192,43351,1,0,0:0:0:0:
448,192,43539,128,0,44289:0:0:0:0:
320,192,43726,1,0,0:0:0:0:
64,192,43914,1,0,0:0:0:0:
192,192,44289,1,0,0:0:0:0:
64,192,44476,128,0,44664:0:0:0:0:
192,192,44664,128,0,44851:0:0:0:0:
448,192,44851,128,0,45414:0:0:0:0:
64,192,45039,128,0,45414:0:0:0:0:
320,192,45414,1,0,0:0:0:0:
192,192,45601,1,0,0:0:0:0:
448,192,45789,128,0,46539:0:0:0:0:
64,192,45976,1,0,0:0:0:0:
320,192,46164,1,0,0:0:0:0:
192,192,46351,1,0,0:0:0:0:
64,192,46539,128,0,47289:0:0:0:0:
192,192,46726,1,0,0:0:0:0:
320,192,46914,1,0,0:0:0:0:
192,192,47289,1,0,0:0:0:0:
448,192,47476,128,0,47664:0:0:0:0:
320,192,47664,128,0,47851:0:0:0:0:
192,192,47851,128,0,48039:0:0:0:0:
320,192,48039,128,0,48789:0:0:0:0:
64,192,48414,1,0,0:0:0:0:
448,192,48601,1,0,0:0:0:0:
192,192,48789,128,0,49539:0:0:0:0:
64,192,48976,1,0,0:0:0:0:
448,192,49164,1,0,0:0:0:0:
320,192,49351,1,0,0:0:0:0:
64,192,49539,128,0,50289:0:0:0:0:
320,192,49726,1,0,0:0:0:0:
448,192,49914,1,0,0:0:0:0:
320,192,50289,1,0,0:0:0:0:
192,192,50476,128,0,50664:0:0:0:0:
64,192,50664,128,0,50851:0:0:0:0:
320,192,50851,128,0,51039:0:0:0:0:
448,192,51039,128,0,51789:0:0:0:0:
320,192,51414,1,0,0:0:0:0:
64,192,51601,1,0,0:0:0:0:
192,192,51789,128,0,52539:0:0:0:0:
320,192,51976,1,0,0:0:0:0:
448,192,52164,1,0,0:0:0:0:
64,192,52351,1,0,0:0:0:0:
320,192,52539,128,0,53476:0:0:0:0:
448,192,52726,128,0,52914:0:0:0:0:
192,192,52914,1,0,0:0:0:0:
64,192,52914,1,0,0:0:0:0:
64,192,53289,128,0,53476:0:0:0:0:
192,192,53476,128,0,53664:0:0:0:0:
448,192,53664,128,0,53851:0:0:0:0:
64,192,53664,1,0,0:0:0:0:
320,192,53851,128,0,54039:0:0:0:0:
192,192,54039,128,0,54226:0:0:0:0:
64,192,54039,128,0,54789:0:0:0:0:
448,192,54226,128,0,54414:0:0:0:0:
320,192,54414,128,0,54601:0:0:0:0:
192,192,54414,1,0,0:0:0:0:
448,192,54601,128,0,54789:0:0:0:0:
192,192,54789,128,0,55539:0:0:0:0:
320,192,54976,128,0,55164:0:0:0:0:
448,192,55164,1,0,0:0:0:0:
64,192,55164,128,0,55351:0:0:0:0:
320,192,55351,128,0,55539:0:0:0:0:
448,192,55539,128,0,56289:0:0:0:0:
192,192,55726,128,0,55914:0:0:0:0:
320,192,55914,1,0,0:0:0:0:
64,192,55914,128,0,56101:0:0:0:0:
192,192,56101,128,0,56289:0:0:0:0:
320,192,56289,128,0,56476:0:0:0:0:
448,192,56476,128,0,56664:0:0:0:0:
320,192,56664,128,0,56851:0:0:0:0:
192,192,56664,1,0,0:0:0:0:
64,192,56851,128,0,57039:0:0:0:0:
320,192,57039,128,0,57789:0:0:0:0:
448,192,57039,128,0,57226:0:0:0:0:
192,192,57414,128,0,57601:0:0:0:0:
64,192,57414,1,0,0:0:0:0:
448,192,57601,128,0,57789:0:0:0:0:
64,192,57789,128,0,58539:0:0:0:0:
320,192,57976,128,0,58164:0:0:0:0:
192,192,58164,1,0,0:0:0:0:
448,192,58164,128,0,58351:0:0:0:0:
192,192,58351,128,0,58539:0:0:0:0:
448,192,58539,1,0,0:0:0:0:
320,192,58539,128,0,59289:0:0:0:0:
192,192,58726,128,0,58914:0:0:0:0:
448,192,58914,128,0,59101:0:0:0:0:
64,192,58914,1,0,0:0:0:0:
448,192,59289,128,0,59476:0:0:0:0:
64,192,59476,128,0,59664:0:0:0:0:
448,192,59664,128,0,59851:0:0:0:0:
192,192,59664,1,0,0:0:0:0:
320,192,59851,128,0,60039:0:0:0:0:
192,192,60039,128,0,60789:0:0:0:0:
64,192,60414,128,0,60601:0:0:0:0:
448,192,60414,1,0,0:0:0:0:
320,192,60601,128,0,60789:0:0:0:0:
448,192,60789,128,0,61539:0:0:0:0:
320,192,60976,128,0,61164:0:0:0:0:
192,192,61164,128,0,61351:0:0:0:0:
64,192,61164,1,0,0:0:0:0:
320,192,61351,128,0,61539:0:0:0:0:
64,192,61539,128,0,62289:0:0:0:0:
192,192,61726,128,0,61914:0:0:0:0:
448,192,61914,128,0,62101:0:0:0:0:
320,192,61914,1,0,0:0:0:0:
192,192,62101,128,0,62289:0:0:0:0:
320,192,62289,128,0,62476:0:0:0:0:
192,192,62476,128,0,62664:0:0:0:0:
64,192,62664,128,0,62851:0:0:0:0:
448,192,62664,1,0,0:0:0:0:
320,192,62851,128,0,63039:0:0:0:0:
448,192,63039,128,0,63789:0:0:0:0:
64,192,63414,1,0,0:0:0:0:
320,192,63414,1,0,0:0:0:0:
192,192,63789,128,0,64539:0:0:0:0:
64,192,63976,1,0,0:0:0:0:
320,192,64070,1,0,0:0:0:0:
64,192,64164,1,0,0:0:0:0:
448,192,64351,1,0,0:0:0:0:
320,192,64445,1,0,0:0:0:0:
64,192,64539,128,0,65289:0:0:0:0:
448,192,64539,1,0,0:0:0:0:
448,192,64914,1,0,0:0:0:0:
192,192,64914,1,0,0:0:0:0:
320,192,65289,128,0,65476:0:0:0:0:
192,192,65476,128,0,65664:0:0:0:0:
448,192,65664,128,0,65851:0:0:0:0:
64,192,65664,1,0,0:0:0:0:
320,192,65851,128,0,66039:0:0:0:0:
192,192,66039,128,0,66789:0:0:0:0:
64,192,66039,1,0,0:0:0:0:
320,192,66414,1,0,0:0:0:0:
64,192,66414,1,0,0:0:0:0:
448,192,66601,1,0,0:0:0:0:
320,192,66789,1,0,0:0:0:0:
64,192,66882,1,0,0:0:0:0:
448,192,66976,1,0,0:0:0:0:
192,192,67164,1,0,0:0:0:0:
320,192,67257,1,0,0:0:0:0:
64,192,67351,1,0,0:0:0:0:
448,192,67539,1,0,0:0:0:0:
320,192,67539,1,0,0:0:0:0:
192,192,67726,128,0,67914:0:0:0:0:
64,192,67914,1,0,0:0:0:0:
320,192,67914,128,0,68101:0:0:0:0:
448,192,68101,128,0,68289:0:0:0:0:
320,192,68289,128,0,68476:0:0:0:0:
192,192,68476,128,0,68664:0:0:0:0:
320,192,68664,128,0,68851:0:0:0:0:
64,192,68664,1,0,0:0:0:0:
448,192,68851,128,0,69039:0:0:0:0:
192,192,69039,128,0,69414:0:0:0:0:
64,192,69039,1,0,0:0:0:0:
320,192,69226,1,0,0:0:0:0:
448,192,69414,1,0,0:0:0:0:
64,192,69414,1,0,0:0:0:0:
192,192,69601,1,0,0:0:0:0:
448,192,69789,1,0,0:0:0:0:
64,192,69882,1,0,0:0:0:0:
320,192,69976,1,0,0:0:0:0:
192,192,70164,1,0,0:0:0:0:
448,192,70257,1,0,0:0:0:0:
320,192,70351,1,0,0:0:0:0:
192,192,70539,1,0,0:0:0:0:
64,192,70539,128,0,71289:0:0:0:0:
448,192,70914,1,0,0:0:0:0:
192,192,70914,1,0,0:0:0:0:
320,192,71289,1,0,0:0:0:0:
448,192,71476,128,0,71664:0:0:0:0:
192,192,71664,128,0,71851:0:0:0:0:
64,192,71664,1,0,0:0:0:0:
320,192,71851,128,0,72039:0:0:0:0:
448,192,72039,128,0,72226:0:0:0:0:
64,192,72039,1,0,0:0:0:0:
320,192,72226,128,0,72414:0:0:0:0:
192,192,72414,1,0,0:0:0:0:
64,192,72414,128,0,72601:0:0:0:0:
320,192,72601,128,0,72789:0:0:0:0:
192,192,72789,1,0,0:0:0:0:
448,192,72882,1,0,0:0:0:0:
64,192,72976,1,0,0:0:0:0:
320,192,73164,1,0,0:0:0:0:
192,192,73257,1,0,0:0:0:0:
320,192,73351,1,0,0:0:0:0:
448,192,73539,1,0,0:0:0:0:
64,192,73539,1,0,0:0:0:0:
192,192,73726,128,0,73914:0:0:0:0:
448,192,73914,128,0,74101:0:0:0:0:
64,192,73914,1,0,0:0:0:0:
320,192,74101,128,0,74289:0:0:0:0:
192,192,74289,1,0,0:0:0:0:
448,192,74476,128,0,74664:0:0:0:0:
64,192,74664,128,0,74851:0:0:0:0:
192,192,74664,1,0,0:0:0:0:
320,192,74851,128,0,75039:0:0:0:0:
448,192,75039,1,0,0:0:0:0:
192,192,75039,128,0,75414:0:0:0:0:
64,192,76070,1,0,0:0:0:0:
448,192,76164,1,0,0:0:0:0:
192,192,76257,1,0,0:0:0:0:
320,192,76351,1,0,0:0:0:0:
192,192,76445,1,0,0:0:0:0:
64,192,76539,128,0,76632:0:0:0:0:
448,192,76820,128,0,76914:0:0:0:0:
192,192,77101,128,0,77195:0:0:0:0:
64,192,77382,128,0,77476:0:0:0:0:
448,192,77476,128,0,77664:0:0:0:0:
320,192,77664,128,0,77851:0:0:0:0:
448,192,77851,128,0,78039:0:0:0:0:
192,192,77945,1,0,0:0:0:0:
64,192,78039,128,0,78226:0:0:0:0:
320,192,78226,128,0,78320:0:0:0:0:
192,192,78507,128,0,78601:0:0:0:0:
448,192,78789,128,0,78882:0:0:0:0:
64,192,79070,128,0,79164:0:0:0:0:
192,192,79351,128,0,79445:0:0:0:0:
448,192,79632,128,0,79726:0:0:0:0:
192,192,79914,128,0,80007:0:0:0:0:
64,192,80195,128,0,80289:0:0:0:0:
192,192,80476,128,0,80664:0:0:0:0:
64,192,80664,128,0,80851:0:0:0:0:
320,192,80757,1,0,0:0:0:0:
192,192,80851,128,0,81039:0:0:0:0:
448,192,81039,128,0,81414:0:0:0:0:
192,192,81320,128,0,81414:0:0:0:0:
64,192,81601,128,0,81695:0:0:0:0:
320,192,81882,128,0,81976:0:0:0:0:
448,192,82164,128,0,82257:0:0:0:0:
64,192,82445,1,0,0:0:0:0:
320,192,82539,128,0,82632:0:0:0:0:
448,192,82820,128,0,82914:0:0:0:0:
192,192,83101,128,0,83195:0:0:0:0:
64,192,83382,128,0,83476:0:0:0:0:
448,192,83476,128,0,83664:0:0:0:0:
320,192,83664,128,0,83851:0:0:0:0:
64,192,83851,128,0,84039:0:0:0:0:
192,192,83945,1,0,0:0:0:0:
320,192,84039,128,0,84226:0:0:0:0:
448,192,84226,128,0,84414:0:0:0:0:
192,192,84414,128,0,84789:0:0:0:0:
320,192,84507,1,0,0:0:0:0:
64,192,84789,128,0,84882:0:0:0:0:
192,192,85070,128,0,85164:0:0:0:0:
448,192,85351,128,0,85445:0:0:0:0:
320,192,85632,128,0,85726:0:0:0:0:
448,192,85914,128,0,86007:0:0:0:0:
192,192,86195,128,0,86289:0:0:0:0:
192,192,86476,128,0,86664:0:0:0:0:
448,192,86664,128,0,86851:0:0:0:0:
320,192,86851,128,0,87039:0:0:0:0:
64,192,87039,128,0,88539:0:0:0:0:
320,192,88164,128,0,88539:0:0:0:0:
448,192,88539,1,0,0:0:0:0:
192,192,88539,128,0,88726:0:0:0:0:
64,192,88726,128,0,88914:0:0:0:0:
448,192,88914,128,0,89101:0:0:0:0:
320,192,88914,1,0,0:0:0:0:
192,192,89101,128,0,89289:0:0:0:0:
320,192,89289,1,0,0:0:0:0:
64,192,89289,128,0,89476:0:0:0:0:
448,192,89476,128,0,89664:0:0:0:0:
192,192,89664,128,0,89851:0:0:0:0:
64,192,89664,1,0,0:0:0:0:
320,192,89851,128,0,90039:0:0:0:0:
448,192,90039,1,0,0:0:0:0:
192,192,90039,128,0,90226:0:0:0:0:
64,192,90226,128,0,90414:0:0:0:0:
448,192,90414,1,0,0:0:0:0:
320,192,90414,128,0,90601:0:0:0:0:
64,192,90601,128,0,90789:0:0:0:0:
448,192,90789,1,0,0:0:0:0:
192,192,90789,128,0,90976:0:0:0:0:
320,192,90976,128,0,91164:0:0:0:0:
192,192,91164,128,0,91351:0:0:0:0:
64,192,91164,1,0,0:0:0:0:
448,192,91351,128,0,91539:0:0:0:0:
320,192,91539,1,0,0:0:0:0:
64,192,91539,128,0,91726:0:0:0:0:
192,192,91726,128,0,91914:0:0:0:0:
448,192,91914,128,0,92101:0:0:0:0:
320,192,91914,1,0,0:0:0:0:
64,192,92101,128,0,92289:0:0:0:0:
320,192,92289,128,0,92476:0:0:0:0:
448,192,92289,1,0,0:0:0:0:
192,192,92476,128,0,92664:0:0:0:0:
448,192,92664,128,0,92851:0:0:0:0:
64,192,92664,1,0,0:0:0:0:
192,192,92851,128,0,93039:0:0:0:0:
64,192,93039,1,0,0:0:0:0:
320,192,93039,128,0,93414:0:0:0:0:
448,192,93226,128,0,93414:0:0:0:0:
64,192,93414,128,0,93789:0:0:0:0:
192,192,93414,128,0,93601:0:0:0:0:
320,192,93601,128,0,93789:0:0:0:0:
448,192,93789,128,0,93976:0:0:0:0:
192,192,93789,128,0,93976:0:0:0:0:
320,192,93976,128,0,94164:0:0:0:0:
64,192,93976,128,0,94164:0:0:0:0:
448,192,94164,128,0,94539:0:0:0:0:
192,192,94164,128,0,94539:0:0:0:0:
320,192,94539,1,0,0:0:0:0:
64,192,94539,128,0,94726:0:0:0:0:
448,192,94726,128,0,94914:0:0:0:0:
192,192,94914,128,0,95101:0:0:0:0:
64,192,94914,1,0,0:0:0:0:
320,192,95101,128,0,95289:0:0:0:0:
448,192,95289,1,0,0:0:0:0:
192,192,95289,128,0,95476:0:0:0:0:
64,192,95476,128,0,95664:0:0:0:0:
448,192,95664,128,0,95851:0:0:0:0:
320,192,95664,1,0,0:0:0:0:
192,192,95851,128,0,96039:0:0:0:0:
448,192,96039,128,0,96226:0:0:0:0:
64,192,96039,1,0,0:0:0:0:
320,192,96226,128,0,96414:0:0:0:0:
448,192,96414,1,0,0:0:0:0:
64,192,96414,128,0,96601:0:0:0:0:
192,192,96601,128,0,96789:0:0:0:0:
448,192,96789,1,0,0:0:0:0:
320,192,96789,128,0,96976:0:0:0:0:
64,192,96976,128,0,97164:0:0:0:0:
320,192,97164,1,0,0:0:0:0:
192,192,97164,128,0,97351:0:0:0:0:
448,192,97351,128,0,97539:0:0:0:0:
192,192,97539,128,0,97726:0:0:0:0:
64,192,97539,128,0,97914:0:0:0:0:
320,192,97726,128,0,97914:0:0:0:0:
192,192,97914,128,0,98289:0:0:0:0:
448,192,97914,128,0,98289:0:0:0:0:
320,192,98289,128,0,98476:0:0:0:0:
64,192,98289,128,0,98664:0:0:0:0:
448,192,98664,128,0,99039:0:0:0:0:
320,192,98664,128,0,99039:0:0:0:0:
192,192,99039,128,0,99414:0:0:0:0:
64,192,99039,128,0,99414:0:0:0:0:
448,192,99414,128,0,99601:0:0:0:0:
320,192,99414,128,0,99789:0:0:0:0:
64,192,99601,128,0,99789:0:0:0:0:
448,192,99789,128,0,100164:0:0:0:0:
192,192,99789,128,0,99976:0:0:0:0:
320,192,99976,128,0,100164:0:0:0:0:
192,192,100164,128,0,100539:0:0:0:0:
64,192,100164,128,0,100539:0:0:0:0:
448,192,100539,128,0,101289:0:0:0:0:
320,192,100539,128,0,100726:0:0:0:0:
64,192,100726,128,0,100914:0:0:0:0:
192,192,100914,128,0,101101:0:0:0:0:
320,192,101101,128,0,101289:0:0:0:0:
192,192,101289,128,0,101476:0:0:0:0:
64,192,101289,128,0,102039:0:0:0:0:
448,192,101476,128,0,101664:0:0:0:0:
320,192,101664,128,0,101851:0:0:0:0:
192,192,101851,128,0,102039:0:0:0:0:
448,192,102039,128,0,102226:0:0:0:0:
320,192,102039,128,0,102789:0:0:0:0:
192,192,102226,128,0,102414:0:0:0:0:
64,192,102414,128,0,102601:0:0:0:0:
192,192,102601,128,0,102789:0:0:0:0:
64,192,102789,128,0,103539:0:0:0:0:
448,192,102789,128,0,102976:0:0:0:0:
192,192,102976,128,0,103164:0:0:0:0:
320,192,103164,128,0,103351:0:0:0:0:
448,192,103351,128,0,103539:0:0:0:0:
320,192,103539,128,0,104289:0:0:0:0:
192,192,103539,128,0,103726:0:0:0:0:
448,192,103726,128,0,103914:0:0:0:0:
64,192,103914,128,0,104101:0:0:0:0:
448,192,104101,128,0,104289:0:0:0:0:
192,192,104289,128,0,104476:0:0:0:0:
64,192,104289,128,0,105039:0:0:0:0:
320,192,104476,128,0,104664:0:0:0:0:
448,192,104664,128,0,104851:0:0:0:0:
320,192,104851,128,0,105039:0:0:0:0:
448,192,105039,128,0,105414:0:0:0:0:
192,192,105039,128,0,105226:0:0:0:0:
64,192,105226,128,0,105414:0:0:0:0:
192,192,105414,128,0,105601:0:0:0:0:
320,192,105414,128,0,105789:0:0:0:0:
448,192,105601,128,0,105789:0:0:0:0:
192,192,105789,128,0,105976:0:0:0:0:
64,192,105789,128,0,105976:0:0:0:0:
448,192,105976,128,0,106164:0:0:0:0:
320,192,105976,128,0,106164:0:0:0:0:
192,192,106164,128,0,106539:0:0:0:0:
64,192,106164,128,0,106539:0:0:0:0:
448,192,106539,128,0,107289:0:0:0:0:
320,192,106539,128,0,106726:0:0:0:0:
64,192,106726,128,0,106914:0:0:0:0:
192,192,106914,128,0,107101:0:0:0:0:
320,192,107101,128,0,107289:0:0:0:0:
192,192,107289,128,0,108039:0:0:0:0:
64,192,107289,128,0,107476:0:0:0:0:
448,192,107476,128,0,107664:0:0:0:0:
320,192,107664,128,0,107851:0:0:0:0:
64,192,107851,128,0,108039:0:0:0:0:
448,192,108039,128,0,108789:0:0:0:0:
320,192,108039,128,0,108226:0:0:0:0:
64,192,108226,128,0,108414:0:0:0:0:
192,192,108414,128,0,108601:0:0:0:0:
320,192,108601,128,0,108789:0:0:0:0:
192,192,108789,128,0,109539:0:0:0:0:
64,192,108789,128,0,108976:0:0:0:0:
448,192,108976,128,0,109164:0:0:0:0:
320,192,109164,128,0,109351:0:0:0:0:
448,192,109351,128,0,109539:0:0:0:0:
320,192,109539,128,0,109726:0:0:0:0:
64,192,109539,128,0,109726:0:0:0:0:
448,192,109726,128,0,109914:0:0:0:0:
192,192,109726,128,0,109914:0:0:0:0:
320,192,109914,128,0,110289:0:0:0:0:
64,192,109914,128,0,110101:0:0:0:0:
192,192,110101,128,0,110289:0:0:0:0:
448,192,110289,128,0,110664:0:0:0:0:
64,192,110289,128,0,110664:0:0:0:0:
320,192,110664,128,0,110851:0:0:0:0:
192,192,110664,128,0,111039:0:0:0:0:
448,192,111039,128,0,111414:0:0:0:0:
320,192,111039,128,0,111226:0:0:0:0:
192,192,111226,128,0,111414:0:0:0:0:
64,192,111414,128,0,111789:0:0:0:0:
320,192,111414,128,0,111601:0:0:0:0:
448,192,111601,128,0,111789:0:0:0:0:
192,192,111789,128,0,112164:0:0:0:0:
320,192,111789,128,0,111976:0:0:0:0:
448,192,111976,128,0,112164:0:0:0:0:
320,192,112164,128,0,112539:0:0:0:0:
64,192,112164,128,0,112539:0:0:0:0:
192,192,112539,128,0,112726:0:0:0:0:
448,192,112539,128,0,112914:0:0:0:0:
320,192,112726,128,0,112914:0:0:0:0:
192,192,112914,128,0,113289:0:0:0:0:
64,192,113101,128,0,113289:0:0:0:0:
448,192,113289,128,0,113664:0:0:0:0:
320,192,113289,128,0,113476:0:0:0:0:
192,192,113476,128,0,113664:0:0:0:0:
320,192,113664,128,0,114039:0:0:0:0:
192,192,113851,128,0,114039:0:0:0:0:
64,192,114039,128,0,114414:0:0:0:0:
448,192,114039,128,0,114226:0:0:0:0:
192,192,114226,128,0,114414:0:0:0:0:
320,192,114414,128,0,114789:0:0:0:0:
448,192,114414,128,0,114601:0:0:0:0:
64,192,114601,128,0,114789:0:0:0:0:
448,192,114789,128,0,115164:0:0:0:0:
192,192,114976,128,0,115164:0:0:0:0:
320,192,115164,128,0,115539:0:0:0:0:
64,192,115164,128,0,115351:0:0:0:0:
192,192,115539,128,0,115726:0:0:0:0:
64,192,115539,128,0,117039:0:0:0:0:
320,192,115726,128,0,115914:0:0:0:0:
192,192,116101,128,0,116289:0:0:0:0:
448,192,116289,128,0,116476:0:0:0:0:
320,192,116664,128,0,116851:0:0:0:0:
192,192,116851,128,0,117039:0:0:0:0:
448,192,117039,128,0,117226:0:0:0:0:
320,192,117226,128,0,117414:0:0:0:0:
64,192,117414,128,0,117601:0:0:0:0:
192,192,117601,128,0,117789:0:0:0:0:
448,192,117789,1,0,0:0:0:0:
64,192,117976,1,0,0:0:0:0:
448,192,118164,1,0,0:0:0:0:
320,192,118164,1,0,0:0:0:0:
448,192,118351,1,0,0:0:0:0:
320,192,118351,1,0,0:0:0:0:
64,192,118539,1,0,0:0:0:0:
192,192,118726,128,0,118914:0:0:0:0:
320,192,118914,128,0,119289:0:0:0:0:
64,192,119101,128,0,119289:0:0:0:0:
448,192,119289,128,0,119664:0:0:0:0:
192,192,119289,128,0,119476:0:0:0:0:
320,192,119476,128,0,119664:0:0:0:0:
192,192,119664,128,0,120039:0:0:0:0:
448,192,119851,128,0,120039:0:0:0:0:
320,192,120039,128,0,120226:0:0:0:0:
64,192,120039,128,0,120414:0:0:0:0:
448,192,120414,128,0,120789:0:0:0:0:
192,192,120414,128,0,120601:0:0:0:0:
320,192,120601,128,0,120789:0:0:0:0:
64,192,120789,128,0,121164:0:0:0:0:
320,192,120976,128,0,121164:0:0:0:0:
448,192,121164,128,0,121351:0:0:0:0:
192,192,121164,128,0,121539:0:0:0:0:
64,192,121351,128,0,121539:0:0:0:0:
448,192,121539,128,0,121726:0:0:0:0:
320,192,121539,128,0,121726:0:0:0:0:
192,192,121726,128,0,121914:0:0:0:0:
64,192,121726,128,0,121914:0:0:0:0:
448,192,121914,128,0,122289:0:0:0:0:
320,192,121914,128,0,122101:0:0:0:0:
192,192,122101,128,0,122289:0:0:0:0:
320,192,122289,128,0,122664:0:0:0:0:
64,192,122289,128,0,122664:0:0:0:0:
448,192,122664,128,0,123039:0:0:0:0:
192,192,122664,128,0,123039:0:0:0:0:
320,192,123039,128,0,123226:0:0:0:0:
64,192,123039,128,0,123414:0:0:0:0:
192,192,123226,128,0,123414:0:0:0:0:
448,192,123414,128,0,123789:0:0:0:0:
320,192,123414,128,0,123601:0:0:0:0:
64,192,123601,128,0,123789:0:0:0:0:
320,192,123789,128,0,124164:0:0:0:0:
192,192,123789,128,0,124164:0:0:0:0:
448,192,124164,128,0,124539:0:0:0:0:
64,192,124164,128,0,124539:0:0:0:0:
192,192,124539,128,0,127539:0:0:0:0:
448,192,125289,128,0,127539:0:0:0:0:
320,192,125289,128,0,127539:0:0:0:0:
64,192,125289,128,0,127539:0:0:0:0:
