osu file format v14

[General]
AudioFilename: audio.mp3
AudioLeadIn: 0
PreviewTime: 4539
Countdown: 0
SampleSet: Soft
StackLeniency: 0.7
Mode: 3
LetterboxInBreaks: 0
SpecialStyle: 0
WidescreenStoryboard: 1

[Editor]
DistanceSpacing: 1
BeatDivisor: 4
GridSize: 4
TimelineZoom: 3.599998

[Metadata]
Title:Little Knight
TitleUnicode:Little Knight
Artist:cYsmix
ArtistUnicode:cYsmix
Creator:Sparky
Version:Normal
Source:osu!
Tags:Cold Open Cup coc long notes lns qualifiers Electronic Instrumental Electro House Complextro featured artist fa original mappers' guild mpg mg
BeatmapID:3993567
BeatmapSetID:1932837

[Difficulty]
HPDrainRate:7
CircleSize:4
OverallDifficulty:7
ApproachRate:5
SliderMultiplier:1.4
SliderTickRate:1

[Events]
//Background and Video events
0,0,"bg1920.jpg",0,0
//Break Periods
//Storyboard Layer 0 (Background)
//Storyboard Layer 1 (Fail)
//Storyboard Layer 2 (Pass)
//Storyboard Layer 3 (Foreground)
//Storyboard Layer 4 (Overlay)
//Storyboard Sound Samples

[TimingPoints]
1539.20457231356,375,4,2,1,100,1,0

[HitObjects]
64,192,976,5,0,0:0:0:0:
448,192,976,1,0,0:0:0:0:
64,192,1539,1,0,0:0:0:0:
320,192,1726,1,0,0:0:0:0:
192,192,1914,1,0,0:0:0:0:
448,192,2101,1,0,0:0:0:0:
320,192,2289,1,0,0:0:0:0:
64,192,2476,1,0,0:0:0:0:
192,192,2664,1,0,0:0:0:0:
448,192,2851,1,0,0:0:0:0:
64,192,3039,1,0,0:0:0:0:
320,192,3226,1,0,0:0:0:0:
192,192,3414,1,0,0:0:0:0:
448,192,3601,1,0,0:0:0:0:
192,192,3976,1,0,0:0:0:0:
64,192,3976,1,0,0:0:0:0:
448,192,4164,128,0,4539:0:0:0:0:
64,192,4539,1,0,0:0:0:0:
192,192,4726,128,0,4914:0:0:0:0:
448,192,4914,1,0,0:0:0:0:
64,192,5101,1,0,0:0:0:0:
320,192,5289,128,0,5476:0:0:0:0:
192,192,5476,1,0,0:0:0:0:
448,192,5664,1,0,0:0:0:0:
64,192,5851,128,0,6039:0:0:0:0:
320,192,6039,1,0,0:0:0:0:
192,192,6226,1,0,0:0:0:0:
448,192,6414,128,0,6601:0:0:0:0:
64,192,6601,1,0,0:0:0:0:
192,192,6789,1,0,0:0:0:0:
320,192,6976,128,0,7164:0:0:0:0:
64,192,7164,1,0,0:0:0:0:
448,192,7351,1,0,0:0:0:0:
192,192,7539,128,0,7726:0:0:0:0:
320,192,7726,1,0,0:0:0:0:
64,192,7914,1,0,0:0:0:0:
448,192,8101,128,0,8289:0:0:0:0:
192,192,8289,1,0,0:0:0:0:
320,192,8476,1,0,0:0:0:0:
64,192,8664,128,0,8851:0:0:0:0:
448,192,8851,1,0,0:0:0:0:
320,192,9039,128,0,9414:0:0:0:0:
192,192,9414,128,0,9789:0:0:0:0:
448,192,9789,128,0,9976:0:0:0:0:
64,192,9976,128,0,10164:0:0:0:0:
320,192,10164,128,0,10539:0:0:0:0:
64,192,10539,1,0,0:0:0:0:
192,192,10726,128,0,10914:0:0:0:0:
448,192,10914,1,0,0:0:0:0:
320,192,11101,1,0,0:0:0:0:
64,192,11289,128,0,11476:0:0:0:0:
448,192,11476,1,0,0:0:0:0:
192,192,11664,1,0,0:0:0:0:
448,192,11851,128,0,12039:0:0:0:0:
64,192,12039,1,0,0:0:0:0:
192,192,12226,1,0,0:0:0:0:
320,192,12414,128,0,12601:0:0:0:0:
64,192,12601,1,0,0:0:0:0:
448,192,12789,1,0,0:0:0:0:
64,192,12976,128,0,13164:0:0:0:0:
320,192,13164,1,0,0:0:0:0:
192,192,13351,1,0,0:0:0:0:
448,192,13539,128,0,13726:0:0:0:0:
192,192,13726,128,0,13914:0:0:0:0:
320,192,13914,128,0,14289:0:0:0:0:
64,192,14289,128,0,14664:0:0:0:0:
448,192,14664,128,0,15039:0:0:0:0:
192,192,15039,128,0,15414:0:0:0:0:
320,192,15414,128,0,15789:0:0:0:0:
64,192,15789,128,0,16164:0:0:0:0:
448,192,16164,128,0,16539:0:0:0:0:
192,192,16539,1,0,0:0:0:0:
320,192,16726,128,0,16914:0:0:0:0:
64,192,16914,1,0,0:0:0:0:
192,192,17101,1,0,0:0:0:0:
448,192,17289,128,0,17476:0:0:0:0:
64,192,17476,1,0,0:0:0:0:
320,192,17664,1,0,0:0:0:0:
192,192,17851,128,0,18039:0:0:0:0:
448,192,18039,1,0,0:0:0:0:
320,192,18226,1,0,0:0:0:0:
64,192,18414,128,0,18601:0:0:0:0:
448,192,18601,1,0,0:0:0:0:
192,192,18789,1,0,0:0:0:0:
320,192,18976,128,0,19164:0:0:0:0:
64,192,19164,1,0,0:0:0:0:
192,192,19351,1,0,0:0:0:0:
448,192,19539,128,0,19726:0:0:0:0:
64,192,19726,1,0,0:0:0:0:
320,192,19914,1,0,0:0:0:0:
192,192,20101,128,0,20289:0:0:0:0:
448,192,20289,1,0,0:0:0:0:
320,192,20476,1,0,0:0:0:0:
64,192,20664,128,0,20851:0:0:0:0:
448,192,20851,1,0,0:0:0:0:
320,192,21039,128,0,21414:0:0:0:0:
64,192,21414,128,0,21789:0:0:0:0:
192,192,21789,128,0,21976:0:0:0:0:
320,192,21976,128,0,22164:0:0:0:0:
192,192,22164,128,0,22539:0:0:0:0:
448,192,22539,1,0,0:0:0:0:
64,192,22726,128,0,22914:0:0:0:0:
320,192,22914,1,0,0:0:0:0:
448,192,23101,1,0,0:0:0:0:
192,192,23289,128,0,23476:0:0:0:0:
320,192,23476,1,0,0:0:0:0:
64,192,23664,1,0,0:0:0:0:
448,192,23851,128,0,24039:0:0:0:0:
192,192,24039,1,0,0:0:0:0:
64,192,24226,1,0,0:0:0:0:
320,192,24414,128,0,24601:0:0:0:0:
64,192,24601,1,0,0:0:0:0:
448,192,24789,1,0,0:0:0:0:
192,192,24976,128,0,25164:0:0:0:0:
320,192,25164,1,0,0:0:0:0:
448,192,25351,1,0,0:0:0:0:
64,192,25539,128,0,25726:0:0:0:0:
320,192,25726,128,0,25914:0:0:0:0:
192,192,25914,128,0,26289:0:0:0:0:
448,192,26289,128,0,26664:0:0:0:0:
64,192,26664,128,0,27039:0:0:0:0:
320,192,27039,1,0,0:0:0:0:
192,192,27226,1,0,0:0:0:0:
448,192,27414,1,0,0:0:0:0:
64,192,27601,1,0,0:0:0:0:
192,192,27789,128,0,28164:0:0:0:0:
448,192,28164,128,0,28539:0:0:0:0:
64,192,28539,1,0,0:0:0:0:
192,192,28726,1,0,0:0:0:0:
448,192,28914,1,0,0:0:0:0:
320,192,29289,1,0,0:0:0:0:
64,192,29476,1,0,0:0:0:0:
192,192,29851,128,0,30039:0:0:0:0:
320,192,30039,1,0,0:0:0:0:
448,192,30226,1,0,0:0:0:0:
320,192,30414,1,0,0:0:0:0:
192,192,30601,1,0,0:0:0:0:
64,192,30789,1,0,0:0:0:0:
448,192,30976,1,0,0:0:0:0:
192,192,31164,1,0,0:0:0:0:
320,192,31351,1,0,0:0:0:0:
64,192,31726,1,0,0:0:0:0:
448,192,31914,1,0,0:0:0:0:
320,192,32289,1,0,0:0:0:0:
192,192,32476,1,0,0:0:0:0:
448,192,32851,128,0,33039:0:0:0:0:
192,192,33039,1,0,0:0:0:0:
320,192,33226,1,0,0:0:0:0:
64,192,33414,1,0,0:0:0:0:
448,192,33601,1,0,0:0:0:0:
192,192,33789,1,0,0:0:0:0:
448,192,33976,1,0,0:0:0:0:
320,192,34164,1,0,0:0:0:0:
64,192,34351,1,0,0:0:0:0:
192,192,34726,1,0,0:0:0:0:
320,192,34914,1,0,0:0:0:0:
64,192,35289,1,0,0:0:0:0:
448,192,35476,1,0,0:0:0:0:
192,192,35851,128,0,36039:0:0:0:0:
320,192,36039,1,0,0:0:0:0:
448,192,36226,1,0,0:0:0:0:
64,192,36414,1,0,0:0:0:0:
320,192,36601,1,0,0:0:0:0:
448,192,36789,1,0,0:0:0:0:
192,192,36976,1,0,0:0:0:0:
320,192,37164,1,0,0:0:0:0:
448,192,37351,1,0,0:0:0:0:
64,192,37726,1,0,0:0:0:0:
448,192,37914,1,0,0:0:0:0:
320,192,38289,1,0,0:0:0:0:
192,192,38476,1,0,0:0:0:0:
64,192,38851,128,0,39039:0:0:0:0:
448,192,39039,1,0,0:0:0:0:
192,192,39226,1,0,0:0:0:0:
64,192,39414,1,0,0:0:0:0:
320,192,39601,1,0,0:0:0:0:
192,192,39789,1,0,0:0:0:0:
448,192,39976,1,0,0:0:0:0:
64,192,40164,1,0,0:0:0:0:
320,192,40351,1,0,0:0:0:0:
448,192,40539,1,0,0:0:0:0:
192,192,40539,1,0,0:0:0:0:
64,192,40726,1,0,0:0:0:0:
320,192,40914,1,0,0:0:0:0:
64,192,41289,1,0,0:0:0:0:
448,192,41476,1,0,0:0:0:0:
320,192,41664,1,0,0:0:0:0:
192,192,41851,1,0,0:0:0:0:
320,192,42039,128,0,42789:0:0:0:0:
64,192,42789,128,0,43539:0:0:0:0:
448,192,43539,128,0,44289:0:0:0:0:
64,192,44476,1,0,0:0:0:0:
320,192,44664,1,0,0:0:0:0:
192,192,44851,1,0,0:0:0:0:
64,192,45039,128,0,45789:0:0:0:0:
320,192,45789,128,0,46539:0:0:0:0:
192,192,46539,128,0,47289:0:0:0:0:
448,192,47476,1,0,0:0:0:0:
320,192,47664,1,0,0:0:0:0:
192,192,47851,1,0,0:0:0:0:
448,192,48039,128,0,48789:0:0:0:0:
64,192,48789,128,0,49539:0:0:0:0:
320,192,49539,128,0,50289:0:0:0:0:
64,192,50476,1,0,0:0:0:0:
192,192,50664,1,0,0:0:0:0:
448,192,50851,1,0,0:0:0:0:
320,192,51039,128,0,51789:0:0:0:0:
192,192,51789,128,0,52539:0:0:0:0:
64,192,52539,128,0,53289:0:0:0:0:
448,192,52914,1,0,0:0:0:0:
192,192,53289,1,0,0:0:0:0:
320,192,53476,1,0,0:0:0:0:
448,192,53664,1,0,0:0:0:0:
320,192,53851,1,0,0:0:0:0:
192,192,54039,128,0,54789:0:0:0:0:
320,192,54414,1,0,0:0:0:0:
448,192,54789,128,0,55539:0:0:0:0:
192,192,55164,1,0,0:0:0:0:
64,192,55539,128,0,56289:0:0:0:0:
448,192,55914,1,0,0:0:0:0:
320,192,56289,1,0,0:0:0:0:
192,192,56476,1,0,0:0:0:0:
448,192,56664,1,0,0:0:0:0:
64,192,56851,1,0,0:0:0:0:
192,192,57039,128,0,57789:0:0:0:0:
448,192,57414,1,0,0:0:0:0:
320,192,57789,128,0,58539:0:0:0:0:
64,192,58164,1,0,0:0:0:0:
448,192,58539,128,0,59289:0:0:0:0:
192,192,58914,1,0,0:0:0:0:
64,192,59289,1,0,0:0:0:0:
192,192,59476,1,0,0:0:0:0:
448,192,59664,1,0,0:0:0:0:
320,192,59851,1,0,0:0:0:0:
64,192,60039,128,0,60789:0:0:0:0:
320,192,60414,1,0,0:0:0:0:
448,192,60789,128,0,61539:0:0:0:0:
64,192,61164,1,0,0:0:0:0:
192,192,61539,128,0,62289:0:0:0:0:
320,192,61914,1,0,0:0:0:0:
448,192,62289,1,0,0:0:0:0:
64,192,62476,1,0,0:0:0:0:
192,192,62664,1,0,0:0:0:0:
320,192,62851,1,0,0:0:0:0:
448,192,63039,128,0,63789:0:0:0:0:
192,192,63414,1,0,0:0:0:0:
64,192,63789,1,0,0:0:0:0:
192,192,64070,1,0,0:0:0:0:
320,192,64164,1,0,0:0:0:0:
448,192,64351,1,0,0:0:0:0:
192,192,64539,1,0,0:0:0:0:
64,192,64539,1,0,0:0:0:0:
320,192,64726,1,0,0:0:0:0:
448,192,64914,1,0,0:0:0:0:
192,192,64914,1,0,0:0:0:0:
64,192,65101,1,0,0:0:0:0:
320,192,65289,1,0,0:0:0:0:
192,192,65476,1,0,0:0:0:0:
448,192,65664,1,0,0:0:0:0:
320,192,65664,1,0,0:0:0:0:
64,192,65851,1,0,0:0:0:0:
448,192,66039,1,0,0:0:0:0:
192,192,66039,1,0,0:0:0:0:
320,192,66226,1,0,0:0:0:0:
192,192,66414,1,0,0:0:0:0:
64,192,66414,1,0,0:0:0:0:
320,192,66601,1,0,0:0:0:0:
448,192,66789,1,0,0:0:0:0:
64,192,66882,1,0,0:0:0:0:
320,192,66976,1,0,0:0:0:0:
192,192,67164,1,0,0:0:0:0:
448,192,67257,1,0,0:0:0:0:
320,192,67539,1,0,0:0:0:0:
64,192,67539,1,0,0:0:0:0:
192,192,67726,1,0,0:0:0:0:
448,192,67914,1,0,0:0:0:0:
320,192,67914,1,0,0:0:0:0:
64,192,68101,1,0,0:0:0:0:
448,192,68289,1,0,0:0:0:0:
320,192,68476,1,0,0:0:0:0:
448,192,68664,1,0,0:0:0:0:
64,192,68664,1,0,0:0:0:0:
192,192,68851,1,0,0:0:0:0:
448,192,69039,1,0,0:0:0:0:
320,192,69039,1,0,0:0:0:0:
64,192,69226,1,0,0:0:0:0:
448,192,69414,1,0,0:0:0:0:
192,192,69414,1,0,0:0:0:0:
320,192,69601,1,0,0:0:0:0:
64,192,69789,1,0,0:0:0:0:
448,192,69882,1,0,0:0:0:0:
192,192,69976,1,0,0:0:0:0:
320,192,70164,1,0,0:0:0:0:
64,192,70257,1,0,0:0:0:0:
448,192,70539,1,0,0:0:0:0:
320,192,70539,1,0,0:0:0:0:
192,192,70726,1,0,0:0:0:0:
320,192,70914,1,0,0:0:0:0:
64,192,70914,1,0,0:0:0:0:
448,192,71101,1,0,0:0:0:0:
192,192,71289,1,0,0:0:0:0:
448,192,71476,1,0,0:0:0:0:
320,192,71664,1,0,0:0:0:0:
192,192,71664,1,0,0:0:0:0:
64,192,71851,1,0,0:0:0:0:
448,192,72039,1,0,0:0:0:0:
320,192,72039,1,0,0:0:0:0:
192,192,72226,1,0,0:0:0:0:
320,192,72414,1,0,0:0:0:0:
64,192,72414,1,0,0:0:0:0:
192,192,72601,1,0,0:0:0:0:
320,192,72789,1,0,0:0:0:0:
448,192,72882,1,0,0:0:0:0:
64,192,72976,1,0,0:0:0:0:
192,192,73164,1,0,0:0:0:0:
448,192,73257,1,0,0:0:0:0:
192,192,73539,1,0,0:0:0:0:
64,192,73539,1,0,0:0:0:0:
320,192,73726,1,0,0:0:0:0:
448,192,73914,1,0,0:0:0:0:
192,192,73914,1,0,0:0:0:0:
64,192,74101,1,0,0:0:0:0:
320,192,74289,1,0,0:0:0:0:
64,192,74476,1,0,0:0:0:0:
192,192,74664,1,0,0:0:0:0:
320,192,74664,1,0,0:0:0:0:
448,192,74851,1,0,0:0:0:0:
64,192,75039,1,0,0:0:0:0:
192,192,75039,1,0,0:0:0:0:
64,192,76070,1,0,0:0:0:0:
448,192,76164,1,0,0:0:0:0:
192,192,76351,1,0,0:0:0:0:
320,192,76539,1,0,0:0:0:0:
448,192,76820,1,0,0:0:0:0:
64,192,77101,1,0,0:0:0:0:
192,192,77382,1,0,0:0:0:0:
320,192,77664,1,0,0:0:0:0:
64,192,77945,1,0,0:0:0:0:
448,192,78226,1,0,0:0:0:0:
192,192,78507,1,0,0:0:0:0:
320,192,78789,1,0,0:0:0:0:
64,192,79070,1,0,0:0:0:0:
448,192,79351,1,0,0:0:0:0:
192,192,79632,1,0,0:0:0:0:
320,192,79914,1,0,0:0:0:0:
64,192,80195,1,0,0:0:0:0:
448,192,80476,1,0,0:0:0:0:
192,192,80757,1,0,0:0:0:0:
320,192,81039,1,0,0:0:0:0:
448,192,81320,1,0,0:0:0:0:
64,192,81601,1,0,0:0:0:0:
320,192,81882,1,0,0:0:0:0:
192,192,82164,1,0,0:0:0:0:
448,192,82445,1,0,0:0:0:0:
64,192,82539,1,0,0:0:0:0:
320,192,82820,1,0,0:0:0:0:
192,192,83101,1,0,0:0:0:0:
448,192,83382,1,0,0:0:0:0:
64,192,83664,1,0,0:0:0:0:
320,192,83945,1,0,0:0:0:0:
192,192,84226,1,0,0:0:0:0:
448,192,84507,1,0,0:0:0:0:
64,192,84789,1,0,0:0:0:0:
320,192,85070,1,0,0:0:0:0:
192,192,85351,1,0,0:0:0:0:
448,192,85632,1,0,0:0:0:0:
64,192,85914,1,0,0:0:0:0:
320,192,86195,1,0,0:0:0:0:
192,192,86476,128,0,86664:0:0:0:0:
448,192,86664,128,0,86851:0:0:0:0:
320,192,86851,128,0,87039:0:0:0:0:
64,192,87039,128,0,88164:0:0:0:0:
320,192,88164,128,0,88539:0:0:0:0:
192,192,88539,1,0,0:0:0:0:
64,192,88539,1,0,0:0:0:0:
448,192,88726,128,0,88914:0:0:0:0:
64,192,88914,1,0,0:0:0:0:
320,192,89101,1,0,0:0:0:0:
192,192,89289,128,0,89476:0:0:0:0:
448,192,89476,1,0,0:0:0:0:
64,192,89664,1,0,0:0:0:0:
448,192,89851,128,0,90039:0:0:0:0:
192,192,90039,1,0,0:0:0:0:
320,192,90226,1,0,0:0:0:0:
64,192,90414,128,0,90601:0:0:0:0:
448,192,90601,1,0,0:0:0:0:
320,192,90789,1,0,0:0:0:0:
192,192,90976,128,0,91164:0:0:0:0:
448,192,91164,1,0,0:0:0:0:
64,192,91351,1,0,0:0:0:0:
320,192,91539,128,0,91726:0:0:0:0:
192,192,91726,1,0,0:0:0:0:
448,192,91914,1,0,0:0:0:0:
64,192,92101,128,0,92289:0:0:0:0:
320,192,92289,1,0,0:0:0:0:
192,192,92476,1,0,0:0:0:0:
448,192,92664,128,0,92851:0:0:0:0:
64,192,92851,1,0,0:0:0:0:
192,192,93039,128,0,93414:0:0:0:0:
320,192,93414,128,0,93789:0:0:0:0:
64,192,93789,128,0,93976:0:0:0:0:
448,192,93976,128,0,94164:0:0:0:0:
192,192,94164,128,0,94539:0:0:0:0:
448,192,94539,1,0,0:0:0:0:
320,192,94726,128,0,94914:0:0:0:0:
64,192,94914,1,0,0:0:0:0:
192,192,95101,1,0,0:0:0:0:
448,192,95289,128,0,95476:0:0:0:0:
64,192,95476,1,0,0:0:0:0:
320,192,95664,1,0,0:0:0:0:
64,192,95851,128,0,96039:0:0:0:0:
448,192,96039,1,0,0:0:0:0:
320,192,96226,1,0,0:0:0:0:
192,192,96414,128,0,96601:0:0:0:0:
448,192,96601,1,0,0:0:0:0:
64,192,96789,1,0,0:0:0:0:
448,192,96976,128,0,97164:0:0:0:0:
64,192,97164,1,0,0:0:0:0:
320,192,97351,1,0,0:0:0:0:
64,192,97539,128,0,97726:0:0:0:0:
320,192,97726,128,0,97914:0:0:0:0:
192,192,97914,128,0,98289:0:0:0:0:
448,192,98289,128,0,98664:0:0:0:0:
64,192,98664,128,0,99039:0:0:0:0:
320,192,99039,128,0,99414:0:0:0:0:
192,192,99414,128,0,99789:0:0:0:0:
448,192,99789,128,0,100164:0:0:0:0:
64,192,100164,128,0,100539:0:0:0:0:
320,192,100539,1,0,0:0:0:0:
192,192,100726,128,0,100914:0:0:0:0:
448,192,100914,1,0,0:0:0:0:
320,192,101101,1,0,0:0:0:0:
64,192,101289,128,0,101476:0:0:0:0:
448,192,101476,1,0,0:0:0:0:
192,192,101664,1,0,0:0:0:0:
320,192,101851,128,0,102039:0:0:0:0:
64,192,102039,1,0,0:0:0:0:
192,192,102226,1,0,0:0:0:0:
448,192,102414,128,0,102601:0:0:0:0:
64,192,102601,1,0,0:0:0:0:
320,192,102789,1,0,0:0:0:0:
192,192,102976,128,0,103164:0:0:0:0:
448,192,103164,1,0,0:0:0:0:
320,192,103351,1,0,0:0:0:0:
64,192,103539,128,0,103726:0:0:0:0:
448,192,103726,1,0,0:0:0:0:
192,192,103914,1,0,0:0:0:0:
320,192,104101,128,0,104289:0:0:0:0:
64,192,104289,1,0,0:0:0:0:
192,192,104476,1,0,0:0:0:0:
448,192,104664,128,0,104851:0:0:0:0:
64,192,104851,1,0,0:0:0:0:
192,192,105039,128,0,105414:0:0:0:0:
320,192,105414,128,0,105789:0:0:0:0:
64,192,105789,128,0,105976:0:0:0:0:
448,192,105976,128,0,106164:0:0:0:0:
64,192,106164,128,0,106539:0:0:0:0:
320,192,106539,1,0,0:0:0:0:
448,192,106726,128,0,106914:0:0:0:0:
192,192,106914,1,0,0:0:0:0:
64,192,107101,1,0,0:0:0:0:
320,192,107289,128,0,107476:0:0:0:0:
192,192,107476,1,0,0:0:0:0:
448,192,107664,1,0,0:0:0:0:
64,192,107851,128,0,108039:0:0:0:0:
320,192,108039,1,0,0:0:0:0:
448,192,108226,1,0,0:0:0:0:
192,192,108414,128,0,108601:0:0:0:0:
448,192,108601,1,0,0:0:0:0:
64,192,108789,1,0,0:0:0:0:
320,192,108976,128,0,109164:0:0:0:0:
192,192,109164,1,0,0:0:0:0:
64,192,109351,1,0,0:0:0:0:
448,192,109539,128,0,109726:0:0:0:0:
192,192,109726,128,0,109914:0:0:0:0:
320,192,109914,128,0,110289:0:0:0:0:
64,192,110289,128,0,110664:0:0:0:0:
448,192,110664,128,0,111039:0:0:0:0:
192,192,111039,1,0,0:0:0:0:
320,192,111226,1,0,0:0:0:0:
64,192,111414,1,0,0:0:0:0:
448,192,111601,1,0,0:0:0:0:
320,192,111789,128,0,112164:0:0:0:0:
64,192,112164,128,0,112539:0:0:0:0:
448,192,112539,1,0,0:0:0:0:
192,192,112726,1,0,0:0:0:0:
320,192,112914,128,0,113289:0:0:0:0:
64,192,113289,128,0,113664:0:0:0:0:
448,192,113664,128,0,114039:0:0:0:0:
192,192,114039,128,0,114414:0:0:0:0:
320,192,114414,128,0,114789:0:0:0:0:
64,192,114789,128,0,115164:0:0:0:0:
448,192,115164,128,0,115539:0:0:0:0:
192,192,115539,128,0,117039:0:0:0:0:
320,192,115914,1,0,0:0:0:0:
448,192,116289,1,0,0:0:0:0:
320,192,116664,1,0,0:0:0:0:
448,192,117039,128,0,117414:0:0:0:0:
64,192,117414,128,0,117789:0:0:0:0:
320,192,117789,1,0,0:0:0:0:
192,192,117976,1,0,0:0:0:0:
448,192,118164,1,0,0:0:0:0:
320,192,118164,1,0,0:0:0:0:
192,192,118351,1,0,0:0:0:0:
64,192,118351,1,0,0:0:0:0:
448,192,118539,1,0,0:0:0:0:
192,192,118726,1,0,0:0:0:0:
320,192,118914,128,0,119289:0:0:0:0:
64,192,119289,128,0,119664:0:0:0:0:
448,192,119664,128,0,120039:0:0:0:0:
192,192,120039,128,0,120414:0:0:0:0:
64,192,120414,128,0,120789:0:0:0:0:
448,192,120789,128,0,121164:0:0:0:0:
192,192,121164,128,0,121539:0:0:0:0:
320,192,121539,1,0,0:0:0:0:
64,192,121726,1,0,0:0:0:0:
448,192,121914,128,0,122289:0:0:0:0:
64,192,122289,128,0,122664:0:0:0:0:
320,192,122664,128,0,123039:0:0:0:0:
64,192,123039,1,0,0:0:0:0:
192,192,123226,1,0,0:0:0:0:
320,192,123414,1,0,0:0:0:0:
448,192,123601,1,0,0:0:0:0:
64,192,123789,128,0,124164:0:0:0:0:
448,192,124164,128,0,124539:0:0:0:0:
192,192,124539,128,0,127539:0:0:0:0:
448,192,125289,128,0,127539:0:0:0:0:
