osu file format v14

[General]
AudioFilename: audio.mp3
AudioLeadIn: 0
PreviewTime: 88445
Countdown: 0
SampleSet: Soft
StackLeniency: 0.4
Mode: 0
LetterboxInBreaks: 0
WidescreenStoryboard: 0

[Editor]
Bookmarks: 1539,4539,16539,28539,40539,52539,64539,76539,88539,100539,112539,125289
DistanceSpacing: 0.9
BeatDivisor: 4
GridSize: 4
TimelineZoom: 1

[Metadata]
Title:Little Knight
TitleUnicode:Little Knight
Artist:cYsmix
ArtistUnicode:cYsmix
Creator:Sonnyc
Version:Hard
Source:osu!
Tags:Left island featured artist
BeatmapID:1661047
BeatmapSetID:791845

[Difficulty]
HPDrainRate:5
CircleSize:4
OverallDifficulty:6
ApproachRate:7
SliderMultiplier:1.6
SliderTickRate:2

[Events]
//Background and Video events
0,0,"little_knight[1].png",0,0
//Break Periods
2,76539,87639
//Storyboard Layer 0 (Background)
//Storyboard Layer 1 (Fail)
//Storyboard Layer 2 (Pass)
//Storyboard Layer 3 (Foreground)
//Storyboard Sound Samples

[TimingPoints]
1539,375,4,2,0,40,1,0
3976,-100,4,2,0,80,0,0
4539,-100,4,2,0,80,0,1
28539,-100,4,2,0,50,0,0
40539,-100,4,2,0,60,0,0
52539,-100,4,2,0,70,0,0
88539,-100,4,2,0,80,0,1
112539,-100,4,2,0,80,0,0
125289,-100,4,2,0,60,0,0
126039,-100,4,2,0,40,0,0
126414,-100,4,2,0,30,0,0
126789,-100,4,2,0,20,0,0
127164,-100,4,2,0,10,0,0
127539,-100,4,2,0,5,0,0

[Colours]
Combo1 : 255,128,0
Combo2 : 0,255,128
Combo3 : 128,128,255
Combo4 : 255,0,128

[HitObjects]
100,92,1539,22,0,P|76:132|76:176,3,80,0|2|2|0,0:0|0:0|0:0|0:0,0:0:0:0:
48,240,2289,2,0,P|94:240|132:218,3,80,2|0|0|2,0:0|0:0|0:0|0:0,0:0:0:0:
201,211,3039,2,0,P|178:170|140:148,2,80,0|2|2,0:0|0:0|0:0,0:0:0:0:
176,288,3601,1,0,0:0:0:0:
320,220,3976,21,8,0:0:0:0:
384,268,4164,2,0,L|464:264,1,80,8|0,0:1|0:0,0:0:0:0:
500,192,4539,6,0,B|488:184|488:184|420:188,1,80,4|0,0:3|0:0,0:0:0:0:
448,112,4914,2,0,B|404:136|404:136|292:128,1,160,0|4,1:0|0:3,0:0:0:0:
328,56,5476,2,0,B|284:80|284:80|172:72,1,160,0|0,0:0|0:0,0:0:0:0:
104,36,6039,2,0,B|128:80|128:80|120:192,1,160,4|0,0:3|1:0,0:0:0:0:
48,156,6601,2,0,B|72:200|72:200|64:312,1,160,0|0,0:0|0:0,0:0:0:0:
0,356,7164,1,0,1:0:0:0:
212,316,7539,5,4,0:3:0:0:
176,244,7726,2,0,B|220:268|220:268|332:260,1,160,0|0,0:0|0:0,0:0:0:0:
296,188,8289,2,0,B|340:212|340:212|452:204,1,160,4|0,0:3|1:0,0:0:0:0:
496,140,8851,1,0,0:0:0:0:
416,124,9039,6,0,B|352:128|352:128|320:112|320:112|256:116,2,160,4|4|2,0:3|0:3|0:0,0:0:0:0:
472,68,9976,1,0,0:0:0:0:
472,68,10164,1,0,1:0:0:0:
484,228,10539,22,0,B|472:220|472:220|404:224,1,80,4|0,0:3|0:0,0:0:0:0:
440,296,10914,2,0,B|396:320|396:320|284:312,1,160,0|4,1:0|0:3,0:0:0:0:
320,240,11476,2,0,B|276:264|276:264|164:256,1,160,0|0,0:0|0:0,0:0:0:0:
92,288,12039,2,0,B|116:244|116:244|108:132,1,160,4|0,0:3|1:0,0:0:0:0:
52,80,12601,2,0,B|28:124|28:124|36:236,1,160,0|0,0:0|0:0,0:0:0:0:
92,288,13164,1,0,1:0:0:0:
200,168,13539,37,4,0:3:0:0:
280,180,13726,1,0,0:0:0:0:
360,192,13914,2,0,B|352:204|352:204|356:272,1,80,0|0,1:0|0:0,0:0:0:0:
364,348,14289,2,0,B|378:348|378:348|435:311,1,80,4|0,0:3|0:0,0:0:0:0:
498,267,14664,2,0,B|491:254|491:254|430:223,1,80,0|0,1:0|0:0,0:0:0:0:
360,192,15039,2,0,B|184:204,2,160,4|0|4,0:3|1:0|0:3,0:0:0:0:
424,144,15976,1,8,0:0:0:0:
352,112,16164,2,0,B|264:118,1,80,8|0,1:0|0:0,0:0:0:0:
228,52,16539,6,0,B|216:60|216:60|148:56,1,80,4|0,0:3|0:0,0:0:0:0:
80,20,16914,2,0,B|104:64|104:64|96:176,1,160,0|4,1:0|0:3,0:0:0:0:
24,140,17476,2,0,B|48:184|48:184|40:296,1,160,0|0,0:0|0:0,0:0:0:0:
0,360,18039,2,0,B|44:336|44:336|156:344,1,160,4|0,0:3|1:0,0:0:0:0:
220,300,18601,2,0,B|264:324|264:324|376:316,1,160,0|0,0:0|0:0,0:0:0:0:
452,312,19164,1,0,1:0:0:0:
348,192,19539,5,4,0:3:0:0:
384,120,19726,2,0,B|340:144|340:144|228:136,1,160,0|0,0:0|0:0,0:0:0:0:
264,64,20289,2,0,B|220:88|220:88|108:80,1,160,4|0,0:3|1:0,0:0:0:0:
64,16,20851,1,0,0:0:0:0:
27,86,21039,6,0,B|23:150|23:150|39:182|39:182|35:246,2,160,4|4|2,0:3|0:3|0:0,0:0:0:0:
64,16,21976,1,0,0:0:0:0:
64,16,22164,1,0,1:0:0:0:
224,63,22539,22,0,B|236:55|236:55|304:59,1,80,4|0,0:3|0:0,0:0:0:0:
372,20,22914,2,0,B|348:64|348:64|356:176,1,160,0|4,1:0|0:3,0:0:0:0:
428,140,23476,2,0,B|404:184|404:184|412:296,1,160,0|0,0:0|0:0,0:0:0:0:
452,360,24039,2,0,B|408:336|408:336|296:344,1,160,4|0,0:3|1:0,0:0:0:0:
232,300,24601,2,0,B|188:324|188:324|76:316,1,160,0|0,0:0|0:0,0:0:0:0:
0,312,25164,1,0,1:0:0:0:
44,160,25539,37,4,0:3:0:0:
124,148,25726,1,0,0:0:0:0:
204,136,25914,2,0,B|196:124|196:124|200:56,1,80,0|0,1:0|0:0,0:0:0:0:
276,80,26289,2,0,B|282:67|282:67|343:36,1,80,4|0,0:3|0:0,0:0:0:0:
360,114,26664,2,0,B|374:113|374:113|431:150,1,80,0|0,1:0|0:0,0:0:0:0:
416,228,27039,22,0,B|401:228|401:228|344:191,2,80,4|0|0,0:3|0:0|1:0,0:0:0:0:
424,308,27601,2,0,B|409:309|409:309|360:356,2,80,0|4|4,0:0|0:3|0:3,0:0:0:0:
488,260,28164,1,0,1:0:0:0:
328,276,28539,38,0,L|248:272,1,80,2|0,0:0|0:0,0:0:0:0:
184,320,28914,2,0,P|168:264|240:192,1,160,0|0,0:0|0:0,0:0:0:0:
248,272,29476,1,2,0:0:0:0:
400,228,29851,1,2,0:0:0:0:
344,172,30039,6,0,L|352:12,1,160,0|2,0:0|0:0,0:0:0:0:
272,20,30601,2,0,L|264:180,1,160,0|2,0:0|0:0,0:0:0:0:
184,187,31164,2,0,L|188:107,1,80,2|0,0:0|0:0,0:0:0:0:
180,266,31726,5,0,0:0:0:0:
228,331,31914,2,0,P|172:347|100:275,1,160,2|0,0:0|0:0,0:0:0:0:
180,266,32476,1,2,0:0:0:0:
108,124,32851,1,2,0:0:0:0:
176,168,33039,6,0,L|336:160,1,160,0|2,0:0|0:0,0:0:0:0:
344,80,33601,2,0,L|184:88,1,160,0|2,0:0|0:0,0:0:0:0:
192,8,34164,2,0,L|272:3,1,80,2|0,0:0|0:0,0:0:0:0:
400,112,34726,5,2,0:0:0:0:
335,160,34914,2,0,P|319:104|391:32,1,160,0|0,0:0|0:0,0:0:0:0:
400,112,35476,1,2,0:0:0:0:
252,172,35851,1,2,0:0:0:0:
188,124,36039,6,0,L|28:132,1,160,0|2,0:0|0:0,0:0:0:0:
20,212,36601,2,0,L|180:204,1,160,0|2,0:0|0:0,0:0:0:0:
172,284,37164,2,0,L|92:288,2,80,2|0|2,0:0|0:0|0:0,0:0:0:0:
252,280,37726,5,0,0:0:0:0:
328,308,37914,2,0,P|332:272|296:212,1,80,2|0,0:0|0:0,0:0:0:0:
260,180,38289,1,0,0:0:0:0:
184,208,38476,2,0,P|180:172|216:112,1,80,2|0,0:0|0:0,0:0:0:0:
252,80,38851,1,2,0:0:0:0:
320,124,39039,6,0,L|400:120,1,80,0|0,0:0|0:0,0:0:0:0:
478,116,39414,1,2,0:0:0:0:
468,196,39601,2,0,L|388:200,1,80,0|0,0:0|0:0,0:0:0:0:
310,204,39976,1,2,0:0:0:0:
300,284,40164,2,0,L|380:280,1,80,2|0,0:0|0:0,0:0:0:0:
458,276,40539,5,4,0:3:0:0:
379,280,40726,1,2,0:0:0:0:
300,284,40914,1,2,0:0:0:0:
360,136,41289,6,0,P|328:160|288:152,1,80,0|2,0:0|0:0,0:0:0:0:
232,208,41664,2,0,P|192:212|161:185,1,80,0|2,0:0|0:0,0:0:0:0:
85,206,42039,2,0,P|48:190|35:151,3,80,2|0|0|0,0:0|0:0|0:0|0:0,0:0:0:0:
60,80,42789,2,0,P|96:95|109:134,2,80,2|0|0,0:0|0:0|0:0,0:0:0:0:
216,48,43539,5,2,0:0:0:0:
292,68,43726,1,0,0:0:0:0:
236,124,43914,1,0,0:0:0:0:
372,212,44289,6,0,P|332:207|301:234,1,80,0|2,0:0|0:0,0:0:0:0:
225,213,44664,2,0,P|188:228|175:267,1,80,0|2,0:0|0:0,0:0:0:0:
98,288,45039,2,0,P|73:320|82:360,4,80,2|0|0|0|2,0:0|0:0|0:0|0:0|0:0,0:0:0:0:
36,88,46539,5,2,0:0:0:0:
115,92,46726,1,0,0:0:0:0:
194,96,46914,1,0,0:0:0:0:
308,208,47289,6,0,P|338:183|377:189,1,80,0|2,0:0|0:0,0:0:0:0:
436,136,47664,2,0,P|460:166|454:205,1,80,0|2,0:0|0:0,0:0:0:0:
508,264,48039,2,0,P|477:288|438:282,3,80,2|0|0|0,0:0|0:0|0:0|0:0,0:0:0:0:
380,336,48789,2,0,P|355:305|361:266,2,80,2|0|0,0:0|0:0|0:0,0:0:0:0:
224,292,49539,5,2,0:0:0:0:
148,312,49726,1,0,0:0:0:0:
204,368,49914,1,0,0:0:0:0:
348,300,50289,6,0,P|353:261|328:231,1,80,0|2,0:0|0:0,0:0:0:0:
316,152,50664,2,0,P|292:120|253:117,1,80,0|2,0:0|0:0,0:0:0:0:
192,68,51039,2,0,P|153:62|123:87,3,80,2|0|0|0,0:0|0:0|0:0|0:0,0:0:0:0:
44,96,51789,2,0,P|12:119|9:158,3,80,2|0|0|0,0:0|0:0|0:0|0:0,0:0:0:0:
48,220,52539,6,0,P|104:204|176:276,2,160,2|2|0,0:0|1:3|0:0,0:0:0:0:
96,284,53476,1,2,0:0:0:0:
175,267,53664,2,0,L|255:271,1,80,0|2,1:0|0:0,0:0:0:0:
320,316,54039,2,0,P|376:332|448:260,1,160,2|0,0:0|1:0,0:0:0:0:
508,124,54789,2,0,P|452:140|380:68,1,160,2|0,0:0|1:0,0:0:0:0:
232,16,55539,6,0,P|176:0|104:72,2,160,2|2|0,0:0|1:3|0:0,0:0:0:0:
184,80,56476,1,2,0:0:0:0:
244,132,56664,2,0,L|240:212,1,80,0|2,1:0|0:0,0:0:0:0:
172,252,57039,2,0,P|156:308|228:380,1,160,2|0,0:0|1:0,0:0:0:0:
368,324,57789,2,0,P|384:268|312:196,1,160,2|0,0:0|1:0,0:0:0:0:
164,168,58539,6,0,P|108:184|36:112,2,160,4|2|0,0:3|1:3|0:0,0:0:0:0:
116,104,59476,1,2,0:0:0:0:
180,56,59664,2,0,L|260:60,1,80,0|2,1:0|0:0,0:0:0:0:
324,108,60039,2,0,P|374:50|450:61,1,160,2|0,0:0|1:0,0:0:0:0:
500,216,60789,2,0,P|449:273|373:262,1,160,2|0,0:0|1:0,0:0:0:0:
244,360,61539,6,0,P|188:376|116:304,2,160,2|2|0,0:0|1:3|0:0,0:0:0:0:
196,296,62476,1,2,0:0:0:0:
264,252,62664,2,0,L|260:172,1,80,0|2,1:0|0:0,0:0:0:0:
192,132,63039,2,0,P|176:76|248:4,1,160,2|0,0:0|1:0,0:0:0:0:
352,116,63789,2,0,P|392:74|490:100,1,160,2|0,0:0|1:0,0:0:0:0:
440,248,64539,6,0,L|444:328,1,80,4|2,0:3|0:0,0:0:0:0:
368,348,64914,2,0,L|364:268,2,80,0|0|0,1:0|0:0|0:0,0:0:0:0:
292,368,65476,1,4,0:3:0:0:
232,316,65664,2,0,L|152:320,1,80,0|2,1:0|0:0,0:0:0:0:
88,368,66039,2,0,P|72:312|144:240,1,160,4|2,0:3|1:2,0:0:0:0:
212,228,66601,1,4,0:3:0:0:
160,168,66789,2,0,L|158:128,2,40,0|0|4,1:0|1:0|0:3,0:0:0:0:
212,228,67164,2,0,L|210:268,2,40,0|4|2,1:0|0:3|0:0,0:0:0:0:
260,164,67539,6,0,P|296:148|336:152,1,80,4|2,0:3|0:0,0:0:0:0:
384,216,67914,2,0,P|347:231|307:227,2,80,0|0|0,1:0|0:0|0:0,0:0:0:0:
336,152,68476,1,4,0:3:0:0:
396,100,68664,2,0,L|476:104,1,80,0|2,1:0|0:0,0:0:0:0:
456,180,69039,2,0,L|464:340,1,160,4|2,0:3|1:2,0:0:0:0:
388,316,69601,1,4,0:3:0:0:
316,352,69789,2,0,L|276:354,2,40,0|0|4,1:0|1:0|0:3,0:0:0:0:
320,272,70164,2,0,L|322:232,2,40,0|4|2,1:0|0:3|0:0,0:0:0:0:
240,284,70539,6,0,L|244:204,1,80,4|2,0:3|0:0,0:0:0:0:
164,200,70914,2,0,L|160:280,2,80,0|0|0,1:0|0:0|0:0,0:0:0:0:
208,132,71476,1,4,0:3:0:0:
168,64,71664,2,0,L|88:68,1,80,0|2,1:0|0:0,0:0:0:0:
24,20,72039,2,0,P|12:95|70:146,1,160,4|2,0:3|1:2,0:0:0:0:
148,164,72601,1,4,0:3:0:0:
92,220,72789,2,0,L|90:260,2,40,0|0|4,1:0|1:0|0:3,0:0:0:0:
168,244,73164,2,0,L|166:284,2,40,0|4|2,1:0|0:3|0:0,0:0:0:0:
224,188,73539,6,0,P|260:172|300:176,1,80,4|2,0:3|0:0,0:0:0:0:
348,240,73914,2,0,P|311:255|271:251,2,80,0|0|0,1:0|0:0|0:0,0:0:0:0:
300,176,74476,1,4,0:3:0:0:
352,116,74664,2,0,L|432:120,1,80,0|2,1:0|0:0,0:0:0:0:
512,124,75039,1,4,0:3:0:0:
12,192,88539,6,0,B|24:200|24:200|92:196,1,80,4|0,0:3|0:0,0:0:0:0:
64,272,88914,2,0,B|108:248|108:248|220:256,1,160,0|4,1:0|0:3,0:0:0:0:
184,328,89476,2,0,B|228:304|228:304|340:312,1,160,0|0,0:0|0:0,0:0:0:0:
408,348,90039,2,0,B|384:304|384:304|392:192,1,160,4|0,0:3|1:0,0:0:0:0:
464,228,90601,2,0,B|440:184|440:184|448:72,1,160,0|0,0:0|0:0,0:0:0:0:
512,28,91164,1,0,1:0:0:0:
300,68,91539,5,4,0:3:0:0:
336,140,91726,2,0,B|292:116|292:116|180:124,1,160,0|0,0:0|0:0,0:0:0:0:
216,196,92289,2,0,B|172:172|172:172|60:180,1,160,4|0,0:3|1:0,0:0:0:0:
16,244,92851,1,0,0:0:0:0:
96,260,93039,6,0,B|160:256|160:256|192:272|192:272|256:268,2,160,4|4|2,0:3|0:3|0:0,0:0:0:0:
40,316,93976,1,0,0:0:0:0:
40,316,94164,1,0,1:0:0:0:
28,156,94539,22,0,B|40:164|40:164|108:160,1,80,4|0,0:3|0:0,0:0:0:0:
72,88,94914,2,0,B|116:64|116:64|228:72,1,160,0|4,1:0|0:3,0:0:0:0:
192,144,95476,2,0,B|236:120|236:120|348:128,1,160,0|0,0:0|0:0,0:0:0:0:
420,96,96039,2,0,B|396:140|396:140|404:252,1,160,4|0,0:3|1:0,0:0:0:0:
460,304,96601,2,0,B|484:260|484:260|476:148,1,160,0|0,0:0|0:0,0:0:0:0:
420,96,97164,1,0,1:0:0:0:
312,216,97539,37,4,0:3:0:0:
232,204,97726,1,0,0:0:0:0:
152,192,97914,2,0,B|160:180|160:180|156:112,1,80,0|0,1:0|0:0,0:0:0:0:
148,36,98289,2,0,B|134:36|134:36|77:73,1,80,4|0,0:3|0:0,0:0:0:0:
14,117,98664,2,0,B|21:130|21:130|82:161,1,80,0|0,1:0|0:0,0:0:0:0:
152,192,99039,2,0,B|328:180,2,160,4|0|4,0:3|1:0|0:3,0:0:0:0:
88,240,99976,1,8,0:0:0:0:
160,272,100164,2,0,B|248:266,1,80,8|0,1:0|0:0,0:0:0:0:
284,332,100539,6,0,B|296:324|296:324|364:328,1,80,4|0,0:3|0:0,0:0:0:0:
432,364,100914,2,0,B|408:320|408:320|416:208,1,160,0|4,1:0|0:3,0:0:0:0:
488,244,101476,2,0,B|464:200|464:200|472:88,1,160
511,24,102039,2,0,B|467:48|467:48|355:40,1,160,4|0,0:3|1:0,0:0:0:0:
292,84,102601,2,0,B|248:60|248:60|136:68,1,160,0|0,0:0|0:0,0:0:0:0:
60,72,103164,1,0,1:0:0:0:
164,192,103539,5,4,0:3:0:0:
128,264,103726,2,0,B|172:240|172:240|284:248,1,160,0|0,0:0|0:0,0:0:0:0:
248,320,104289,2,0,B|292:296|292:296|404:304,1,160,4|0,0:3|1:0,0:0:0:0:
448,368,104851,1,0,0:0:0:0:
484,296,105039,6,0,B|488:232|488:232|472:200|472:200|476:136,2,160,4|4|2,0:3|0:3|0:0,0:0:0:0:
448,368,105976,1,0,0:0:0:0:
448,368,106164,1,0,1:0:0:0:
288,321,106539,22,0,B|276:329|276:329|208:325,1,80,4|0,0:3|0:0,0:0:0:0:
140,364,106914,2,0,B|164:320|164:320|156:208,1,160,0|4,1:0|0:3,0:0:0:0:
84,244,107476,2,0,B|108:200|108:200|100:88,1,160,0|0,0:0|0:0,0:0:0:0:
60,24,108039,2,0,B|104:48|104:48|216:40,1,160,4|0,0:3|1:0,0:0:0:0:
280,84,108601,2,0,B|324:60|324:60|436:68,1,160,0|0,0:0|0:0,0:0:0:0:
512,72,109164,1,0,1:0:0:0:
468,224,109539,37,4,0:3:0:0:
388,236,109726,1,0,0:0:0:0:
308,248,109914,2,0,B|316:260|316:260|312:328,1,80,0|0,1:0|0:0,0:0:0:0:
236,304,110289,2,0,B|230:317|230:317|169:348,1,80,4|0,0:3|0:0,0:0:0:0:
152,270,110664,2,0,B|138:271|138:271|81:234,1,80,0|0,1:0|0:0,0:0:0:0:
96,156,111039,22,0,B|111:156|111:156|168:193,2,80,4|0|0,0:3|0:0|1:0,0:0:0:0:
88,76,111601,2,0,B|103:75|103:75|152:28,2,80,0|4|4,0:0|0:3|0:3,0:0:0:0:
24,124,112164,1,0,1:0:0:0:
184,108,112539,38,0,B|196:100|196:100|264:104,1,80,4|0,0:3|0:0,0:0:0:0:
296,32,112914,2,0,B|310:34|310:34|355:85,1,80,0|0,1:0|0:0,0:0:0:0:
428,57,113289,2,0,B|435:69|435:69|432:137,1,80,4|0,0:3|0:0,0:0:0:0:
504,169,113664,2,0,B|501:183|501:183|450:228,1,80,0|0,1:0|0:0,0:0:0:0:
479,301,114039,2,0,B|467:308|467:308|399:305,1,80,4|0,0:3|0:0,0:0:0:0:
367,377,114414,2,0,B|352:374|352:374|307:323,1,80,0|0,1:0|0:0,0:0:0:0:
235,352,114789,2,0,B|227:340|227:340|231:272,1,80,4|0,0:3|0:0,0:0:0:0:
159,240,115164,2,0,B|161:225|161:225|212:180,1,80,0|0,1:0|0:0,0:0:0:0:
184,108,115539,6,0,B|208:92|208:92|344:100,3,160,4|0|4|0,0:3|1:0|0:3|1:0,0:0:0:0:
360,260,117039,6,0,B|296:256|296:256|264:272|264:272|200:268,2,160,4|4|4,0:3|0:3|0:3,0:0:0:0:
360,260,117976,1,4,0:3:0:0:
440,268,118164,1,0,1:0:0:0:
440,268,118351,1,0,1:0:0:0:
408,196,118539,22,0,B|457:152|457:152|459:138,1,80,4|0,0:3|0:0,0:0:0:0:
387,103,118914,2,0,B|390:37|390:37|382:25,1,80,0|0,1:0|0:0,0:0:0:0:
309,53,119289,2,0,B|265:3|265:3|251:1,1,80,4|0,0:3|0:0,0:0:0:0:
217,73,119664,2,0,B|151:69|151:69|139:77,1,80,0|0,1:0|0:0,0:0:0:0:
166,151,120039,2,0,B|116:194|116:194|114:208,1,80,4|0,0:3|0:0,0:0:0:0:
186,243,120414,2,0,B|182:308|182:308|190:320,1,80,0|0,1:0|0:0,0:0:0:0:
265,294,120789,2,0,B|308:343|308:343|322:345,1,80,4|0,0:3|0:0,0:0:0:0:
357,274,121164,2,0,B|422:277|422:277|434:269,1,80,0|0,1:0|0:0,0:0:0:0:
400,196,121539,6,0,B|334:192|334:192|322:200,2,80,4|0|0,0:3|0:0|1:0,0:0:0:0:
480,204,122101,1,0,0:0:0:0:
448,132,122289,2,0,B|440:120|440:120|443:54,1,80,4|0,0:3|0:0,0:0:0:0:
380,8,122664,2,0,B|368:15|368:15|302:12,1,80,0|0,1:0|0:0,0:0:0:0:
256,76,123039,6,0,B|263:88|263:88|260:153,1,80,4|0,0:3|0:0,0:0:0:0:
188,188,123414,2,0,B|180:176|180:176|183:110,1,80,4|0,0:3|0:0,0:0:0:0:
188,32,123789,2,0,P|108:88|40:48,2,160,4|0|0,0:3|1:0|0:0,0:0:0:0:
372,312,125289,5,2,0:0:0:0:
256,192,125382,12,0,127539,0:0:0:0:
