osu file format v14

[General]
AudioFilename: audio.mp3
AudioLeadIn: 0
PreviewTime: 88445
Countdown: 0
SampleSet: Soft
StackLeniency: 0.7
Mode: 0
LetterboxInBreaks: 0
WidescreenStoryboard: 0

[Editor]
Bookmarks: 1539,4539,16539,28539,40539,52539,64539,76539,88539,100539,112539,125289
DistanceSpacing: 1
BeatDivisor: 4
GridSize: 4
TimelineZoom: 1

[Metadata]
Title:Little Knight
TitleUnicode:Little Knight
Artist:cYsmix
ArtistUnicode:cYsmix
Creator:Sonnyc
Version:Easy
Source:osu!
Tags:Left island featured artist
BeatmapID:1661046
BeatmapSetID:791845

[Difficulty]
HPDrainRate:2
CircleSize:3
OverallDifficulty:2
ApproachRate:3
SliderMultiplier:0.9
SliderTickRate:1

[Events]
//Background and Video events
0,0,"little_knight[1].png",0,0
//Break Periods
2,76539,87099
//Storyboard Layer 0 (Background)
//Storyboard Layer 1 (Fail)
//Storyboard Layer 2 (Pass)
//Storyboard Layer 3 (Foreground)
//Storyboard Sound Samples

[TimingPoints]
1539,375,4,2,0,40,1,0
4164,-100,4,2,0,80,0,0
4539,-100,4,2,0,80,0,1
28539,-100,4,2,0,50,0,0
40539,-100,4,2,0,60,0,0
52539,-100,4,2,0,70,0,0
88539,-100,4,2,0,80,0,1
112539,-100,4,2,0,80,0,0
125289,-100,4,2,0,60,0,0
126039,-100,4,2,0,40,0,0
126414,-100,4,2,0,30,0,0
126789,-100,4,2,0,20,0,0
127164,-100,4,2,0,10,0,0
127539,-100,4,2,0,5,0,0

[Colours]
Combo1 : 255,128,0
Combo2 : 0,255,128
Combo3 : 128,128,255
Combo4 : 255,0,128

[HitObjects]
351,217,1539,54,0,L|171:205,1,180,0|2,0:0|0:0,0:0:0:0:
276,344,3039,2,0,L|411:352,1,135
396,140,4539,6,0,B|390:50|390:50|204:60,1,270,4|0,0:3|1:0,0:0:0:0:
118,63,6039,2,0,B|124:153|124:153|304:144,1,270,4|0,0:3|1:0,0:0:0:0:
396,140,7539,2,0,B|390:50|390:50|204:60,1,270,4|0,0:3|1:0,0:0:0:0:
118,63,9039,6,0,B|124:153,1,90,4|4,0:3|0:3,0:0:0:0:
72,228,9789,2,0,B|78:318,1,90,2|0,0:0|1:0,0:0:0:0:
164,344,10539,6,0,B|254:338|254:338|244:158,1,270,4|0,0:3|1:0,0:0:0:0:
241,66,12039,2,0,B|151:72|151:72|160:252,1,270,4|0,0:3|1:0,0:0:0:0:
164,344,13539,6,0,B|254:338,1,90,4|0,0:3|1:0,0:0:0:0:
336,372,14289,2,0,B|426:366,1,90,4|0,0:3|1:0,0:0:0:0:
421,273,15039,2,0,B|331:279,1,90,4|0,0:3|1:0,0:0:0:0:
249,245,15789,2,0,B|159:251,1,90,4|8,0:3|1:0,0:0:0:0:
67,257,16539,6,0,B|63:166|63:166|249:157,1,270,4|0,0:3|1:0,0:0:0:0:
335,151,18039,2,0,B|338:241|338:241|158:250,1,270,4|0,0:3|1:0,0:0:0:0:
67,257,19539,2,0,B|63:166|63:166|249:157,1,270,4|0,0:3|1:0,0:0:0:0:
335,151,21039,6,0,B|341:241,1,90,4|4,0:3|0:3,0:0:0:0:
416,292,21789,2,0,B|422:382,1,90,2|0,0:0|1:0,0:0:0:0:
332,364,22539,6,0,B|241:367|241:367|232:187,1,270,4|0,0:3|1:0,0:0:0:0:
226,96,24039,2,0,B|316:92|316:92|325:278,1,270,4|0,0:3|1:0,0:0:0:0:
332,364,25539,6,0,B|241:367,1,90,4|0,0:3|1:0,0:0:0:0:
160,328,26289,2,0,B|69:331,1,90,4|0,0:3|1:0,0:0:0:0:
68,240,27039,2,0,B|157:237,1,90,4|0,0:3|1:0,0:0:0:0:
239,276,27789,2,0,B|328:273,1,90,4|0,0:3|1:0,0:0:0:0:
410,312,28539,6,0,P|436:232|336:92,1,270,2|0,0:0|0:0,0:0:0:0:
356,4,30039,2,0,P|264:96|135:78,1,270,0|2,0:0|0:0,0:0:0:0:
36,228,31914,6,0,P|164:209|256:302,1,270,2|0,0:0|0:0,0:0:0:0:
212,384,33414,2,0,P|272:332|368:344,1,180,2|2,0:0|0:0,0:0:0:0:
472,196,34914,6,0,P|380:103|251:121,1,270,0|0,0:0|0:0,0:0:0:0:
284,208,36414,2,0,P|352:188|380:280,1,180,2|2,0:0|0:0,0:0:0:0:
228,356,37914,6,0,P|99:374|7:281,1,270,2|0,0:0|0:0,0:0:0:0:
88,240,39414,2,0,P|114:282|208:232,1,180,2|2,0:0|0:0,0:0:0:0:
144,168,40539,5,4,0:3:0:0:
288,60,41289,2,0,P|344:56|380:72,1,90,0|0,0:0|0:0,0:0:0:0:
324,144,42039,2,0,P|416:152|464:80,2,180,2|2|2,0:0|0:0|0:0,0:0:0:0:
176,244,44289,6,0,P|120:248|84:232,1,90,0|0,0:0|0:0,0:0:0:0:
140,160,45039,2,0,P|36:160|36:308,1,270,2|0,0:0|0:0,0:0:0:0:
92,360,46539,5,2,0:0:0:0:
236,252,47289,2,0,P|292:248|328:264,1,90,0|0,0:0|0:0,0:0:0:0:
272,336,48039,2,0,P|364:344|412:272,2,180,2|2|2,0:0|0:0|0:0,0:0:0:0:
176,184,50289,6,0,P|131:189|89:175,1,90,0|0,0:0|0:0,0:0:0:0:
139,100,51040,2,0,P|53:89|0:156,1,180,2|2,0:0|0:0,0:0:0:0:
124,288,52539,6,0,B|214:282,1,90,2|2,0:0|1:3,0:0:0:0:
272,212,53289,2,0,P|266:167|280:125,1,90,0|0,0:0|1:0,0:0:0:0:
328,48,54039,2,0,B|508:60,2,180,2|2|2,0:0|0:0|0:0,0:0:0:0:
252,96,55914,5,2,1:3:0:0:
176,44,56289,2,0,P|162:86|168:130,1,90,0|0,0:0|1:0,0:0:0:0:
212,208,57039,2,0,P|341:190|432:283,1,270,2|0,0:0|1:0,0:0:0:0:
360,340,58539,6,0,B|270:334,1,90,4|2,0:3|1:3,0:0:0:0:
188,296,59289,2,0,P|145:309|101:303,1,90,0|0,0:0|1:0,0:0:0:0:
20,264,60039,2,0,B|32:84,2,180,2|2|2,0:0|0:0|0:0,0:0:0:0:
88,320,61914,5,2,1:3:0:0:
156,260,62289,2,0,P|198:246|242:252,1,90,0|0,0:0|1:0,0:0:0:0:
320,296,63039,2,0,B|500:284,1,180,2|2,0:0|0:0,0:0:0:0:
399,134,64539,5,4,0:3:0:0:
324,184,64914,2,0,B|285:207|285:207|145:187,1,180,0|0,1:0|1:0,0:0:0:0:
99,261,66039,2,0,P|64:203|202:111,1,270,4|0,0:3|1:0,0:0:0:0:
272,154,67539,5,4,0:3:0:0:
216,224,67914,2,0,B|255:247|255:247|395:227,1,180,0|0,1:0|1:0,0:0:0:0:
441,300,69039,2,0,P|476:242|338:150,1,270,4|0,0:3|1:0,0:0:0:0:
273,201,70539,5,4,0:3:0:0:
201,146,70914,2,0,B|178:185|178:185|198:325,1,180,0|0,1:0|1:0,0:0:0:0:
120,365,72039,2,0,B|91:164|91:164|125:106,1,270,4|0,0:3|1:0,0:0:0:0:
172,29,73539,5,4,0:3:0:0:
246,79,73914,2,0,B|285:102|285:102|425:82,1,180,0|0,1:0|1:0,0:0:0:0:
506,67,75039,1,4,0:3:0:0:
116,244,88539,6,0,B|122:334|122:334|308:324,1,270,4|0,0:3|1:0,0:0:0:0:
394,321,90039,2,0,B|388:231|388:231|208:240,1,270,4|0,0:3|1:0,0:0:0:0:
116,244,91539,2,0,B|122:334|122:334|308:324,1,270,4|0,0:3|1:0,0:0:0:0:
394,321,93039,6,0,B|388:231,1,90,4|4,0:3|0:3,0:0:0:0:
440,156,93789,2,0,B|434:66,1,90,2|0,0:0|1:0,0:0:0:0:
348,40,94539,6,0,B|258:46|258:46|268:226,1,270,4|0,0:3|1:0,0:0:0:0:
271,318,96039,2,0,B|361:312|361:312|352:132,1,270,4|0,0:3|1:0,0:0:0:0:
348,40,97539,6,0,B|258:46,1,90,4|0,0:3|1:0,0:0:0:0:
176,12,98289,2,0,B|86:18,1,90,4|0,0:3|1:0,0:0:0:0:
91,111,99039,2,0,B|181:105,1,90,4|0,0:3|1:0,0:0:0:0:
263,139,99789,2,0,B|353:133,1,90,4|8,0:3|1:0,0:0:0:0:
445,127,100539,6,0,B|449:218|449:218|263:227,1,270,4|0,0:3|1:0,0:0:0:0:
177,233,102039,2,0,B|174:143|174:143|354:134,1,270,4|0,0:3|1:0,0:0:0:0:
445,127,103539,2,0,B|449:218|449:218|263:227,1,270,4|0,0:3|1:0,0:0:0:0:
177,233,105039,6,0,B|171:143,1,90,4|4,0:3|0:3,0:0:0:0:
96,92,105789,2,0,B|90:2,1,90,2|0,0:0|1:0,0:0:0:0:
180,20,106539,6,0,B|271:17|271:17|280:197,1,270,4|0,0:3|1:0,0:0:0:0:
286,288,108039,2,0,B|196:292|196:292|187:106,1,270,4|0,0:3|1:0,0:0:0:0:
180,20,109539,6,0,B|271:17,1,90,4|0,0:3|1:0,0:0:0:0:
352,56,110289,2,0,B|443:53,1,90,4|0,0:3|1:0,0:0:0:0:
444,144,111039,2,0,B|355:147,1,90,4|0,0:3|1:0,0:0:0:0:
273,108,111789,2,0,B|184:111,1,90,4|0,0:3|1:0,0:0:0:0:
102,72,112539,5,4,0:3:0:0:
62,153,112914,1,0,1:0:0:0:
144,193,113289,2,0,B|147:282,1,90,4|0,0:3|1:0,0:0:0:0:
68,326,114039,2,0,B|158:306|158:306|238:341|238:341|328:322,1,270,4|0,0:3|1:0,0:0:0:0:
414,302,115539,2,0,B|423:122|423:122|333:116,1,270,4|0,0:3|1:0,0:0:0:0:
258,66,117039,6,0,B|169:63,1,90,4|4,0:3|0:3,0:0:0:0:
78,61,117789,1,4,0:3:0:0:
31,234,118539,5,4,0:3:0:0:
112,274,118914,1,0,1:0:0:0:
152,192,119289,2,0,B|241:189,1,90,4|0,0:3|1:0,0:0:0:0:
285,268,120039,2,0,B|265:178|265:178|300:98|300:98|281:8,1,270,4|0,0:3|1:0,0:0:0:0:
370,19,121539,2,0,B|388:107|388:107|353:187|353:187|373:277,1,270,4|0,0:3|1:0,0:0:0:0:
439,339,123039,6,0,P|401:367|353:363,1,90,4|4,0:3|0:3,0:0:0:0:
277,329,123789,2,0,P|234:350|123:272,1,180,4|0,0:3|0:0,0:0:0:0:
256,192,125289,12,0,127539,0:0:0:0:
