osu file format v14

[General]
AudioFilename: cYsmix - House With Legs 224.mp3
AudioLeadIn: 0
PreviewTime: 46932
Countdown: 1
SampleSet: Normal
StackLeniency: 0.6
Mode: 0
LetterboxInBreaks: 0
WidescreenStoryboard: 1

[Editor]
Bookmarks: 16932,31932,39432,46932,61932,76932,84432,91932,99432,106932,114432,129432,144432,155682
DistanceSpacing: 1.13
BeatDivisor: 4
GridSize: 8
TimelineZoom: 1.1

[Metadata]
Title:House With Legs
TitleUnicode:House With Legs
Artist:cYsmix
ArtistUnicode:cYsmix
Creator:D33d
Version:Insane
Source:osu!
Tags:Mapping with Rewards
BeatmapID:794743
BeatmapSetID:361785

[Difficulty]
HPDrainRate:7.5
CircleSize:4
OverallDifficulty:8.5
ApproachRate:8.5
SliderMultiplier:2.06
SliderTickRate:2

[Events]
//Background and Video events
0,0,"osu!cysmix-bgtiny.jpg",0,0
//Break Periods
2,76932,83757
//Storyboard Layer 0 (Background)
//Storyboard Layer 1 (Fail)
//Storyboard Layer 2 (Pass)
//Storyboard Layer 3 (Foreground)
//Storyboard Sound Samples

[TimingPoints]
1932,468.75,4,3,0,65,1,0
22439,-90.9090909090909,4,1,0,65,0,0
23260,-90.9090909090909,4,1,0,75,0,0
23377,-72.992700729927,4,1,0,75,0,0
24314,-80,4,1,0,75,0,0
30877,-72.992700729927,4,1,0,75,0,0
31814,-80,4,1,0,75,0,0
38377,-72.992700729927,4,1,0,75,0,0
39314,-80,4,1,0,85,0,0
42478,-80,4,1,0,85,0,0
44119,-117.647058823529,4,1,0,85,0,0
46932,-66.6666666666667,4,1,0,85,0,1
76932,-80,4,3,0,65,0,0
91463,-76.9230769230769,4,3,0,65,0,0
91814,-97.0873786407767,4,3,0,65,0,0
95564,-71.4285714285714,4,3,0,65,0,0
97557,-62.5,4,3,0,65,0,0
98494,-72.992700729927,4,3,0,90,0,0
99432,-66.6666666666667,4,3,0,75,0,0
102127,-62.5,4,3,0,75,0,0
102713,-66.6666666666667,4,3,0,75,0,0
106228,-66.6666666666667,4,3,0,90,0,0
106932,-66.6666666666667,4,3,0,75,0,0
109627,-62.5,4,3,0,75,0,0
110213,-66.6666666666667,4,3,0,75,0,0
110447,-64.5161290322581,4,3,0,75,0,0
110564,-66.6666666666667,4,3,0,75,0,0
114432,-66.6666666666667,4,1,0,85,0,1
144432,-66.6666666666667,4,1,0,85,0,0
147596,-64.1025641025641,4,1,0,85,0,0
147947,-66.6666666666667,4,1,0,85,0,0

[Colours]
Combo1 : 240,215,0
Combo2 : 237,0,140
Combo3 : 0,192,245
Combo4 : 255,102,0

[HitObjects]
0,200,16932,6,0,P|36:272|104:288,2,154.5,8|2|2,3:3|3:2|3:0,0:0:0:0:
40,104,17869,1,2,1:2:0:0:
40,104,17986,1,0,3:0:0:0:
96,192,18221,2,0,P|168:212|199:280,1,154.5,2|0,1:3|3:0,0:0:0:0:
144,360,18807,6,0,L|0:296,2,154.5,4|2|2,0:3|2:2|3:0,0:0:0:0:
184,264,19744,2,0,L|328:200,1,154.5,4|2,0:3|3:0,0:0:0:0:
420,156,20330,1,2,3:0:0:0:
512,288,20682,6,0,P|476:360|408:376,2,154.5,8|2|2,3:0|3:2|3:0,0:0:0:0:
472,192,21619,1,2,1:2:0:0:
472,192,21736,1,0,3:0:0:0:
416,280,21971,1,2,3:0:0:0:
416,280,22088,1,8,3:0:0:0:
416,280,22557,6,0,B|344:256|328:304|248:280,1,169.950005186463,4|2,3:0|3:0,1:0:0:0:
176,256,23025,1,4,3:0:0:0:
40,192,23260,1,8,0:0:0:0:
112,56,23494,2,0,L|184:32,1,70.5550019916802,4|0,1:3|3:0,0:0:0:0:
264,16,23728,1,2,3:2:0:0:
264,16,23846,1,0,3:0:0:0:
264,16,23963,1,8,1:0:0:0:
400,56,24197,1,2,0:0:0:0:
448,192,24432,6,0,P|408:272|320:252,1,193.125,4|2,1:2|3:0,0:0:0:0:
264,204,24900,2,0,P|340:180|376:204,1,128.75,8|8,1:2|3:0,0:0:0:0:
448,336,25369,1,2,0:2:0:0:
448,336,25486,2,0,P|408:352|324:344,1,128.75,2|8,3:0|3:0,0:0:0:0:
256,312,25838,1,8,0:2:0:0:
256,312,26307,6,0,P|196:296|136:188,2,193.125,4|2|2,1:3|3:2|3:0,0:0:0:0:
256,192,27244,2,0,P|272:132|380:72,1,193.125,4|2,1:3|1:3,0:0:0:0:
372,188,27830,1,2,1:3:0:0:
64,192,28182,6,0,P|104:112|191:132,1,193.125,4|2,1:3|3:0,0:0:0:0:
248,180,28650,2,0,P|172:204|136:180,1,128.75,8|8,1:2|3:0,0:0:0:0:
64,48,29119,1,2,0:2:0:0:
64,48,29236,2,0,P|104:32|188:40,1,128.75,2|8,3:0|3:0,0:0:0:0:
256,72,29588,1,8,0:2:0:0:
256,72,30057,6,0,B|352:96|352:48|448:72,1,193.125,4|2,3:0|3:0,3:0:0:0:
512,108,30525,1,8,0:2:0:0:
464,228,30760,1,2,3:2:0:0:
360,160,30994,2,0,L|296:192,1,70.5550019916802,4|0,3:0|3:0,0:0:0:0:
216,192,31228,2,0,L|152:160,1,70.5550019916802,2|0,3:2|3:0,0:0:0:0:
192,88,31463,2,0,P|272:64|320:88,1,141.11000398336,12|8,1:2|3:0,1:0:0:0:
256,328,31932,6,0,P|188:360|80:328,2,193.125,4|2|8,0:0|1:3|3:3,0:0:0:0:
216,208,32869,1,2,0:2:0:0:
216,208,32986,2,0,P|248:152|304:120,1,128.75,0|0,3:0|3:0,0:0:0:0:
376,120,33338,2,0,P|430:152|462:207,1,128.75,8|0,1:2|3:0,0:0:0:0:
448,344,33807,6,0,B|352:368|352:320|256:344,1,193.125,4|2,1:3|3:3,3:0:0:0:
188,372,34275,1,8,0:2:0:0:
64,320,34510,1,2,0:3:0:0:
64,192,34744,2,0,B|160:216|160:168|256:192,1,193.125,4|2,1:3|1:3,3:0:0:0:
352,268,35330,1,2,0:3:0:0:
352,268,35447,1,0,3:0:0:0:
256,56,35682,6,0,P|324:24|432:56,2,193.125,8|2|8,0:3|1:3|0:3,0:0:0:0:
296,176,36619,1,2,0:2:0:0:
296,176,36736,2,0,P|264:232|208:264,1,128.75,0|0,3:0|3:0,0:0:0:0:
136,264,37088,2,0,P|82:232|50:177,1,128.75,8|0,1:2|3:0,0:0:0:0:
176,80,37557,6,0,P|208:48|336:80,2,193.125,4|2|2,1:3|3:2|0:3,0:0:0:0:
256,192,38494,2,0,L|208:248,1,70.5550019916802,4|0,3:0|3:0,0:0:0:0:
256,304,38728,2,0,L|304:248,1,70.5550019916802,8|0,1:3|3:0,0:0:0:0:
352,192,38963,1,8,0:0:0:0:
256,80,39197,1,2,1:1:0:0:
92,88,39432,6,0,P|32:108|8:164,1,128.75,4|0,1:0|3:0,3:0:0:0:
8,236,39783,2,0,L|120:304,1,128.75,8|0,1:2|3:0,3:0:0:0:
180,340,40135,1,2,3:0:0:0:
179,164,40369,1,2,0:2:0:0:
179,164,40486,2,0,P|199:104|255:80,1,128.75,2|0,3:3|3:0,3:0:0:0:
255,156,40838,2,0,P|315:176|339:232,1,128.75,8|0,1:2|3:0,3:0:0:0:
424,376,41307,22,0,P|484:356|508:300,1,128.75,4|0,1:3|3:0,3:0:0:0:
512,228,41658,2,0,L|400:160,1,128.75,8|0,1:2|3:0,3:0:0:0:
340,124,42010,1,2,3:0:0:0:
380,244,42244,2,0,P|316:268|256:276,1,128.75,4|0,0:3|3:0,0:0:0:0:
212,271,42595,1,0,3:0:0:0:
171,260,42712,1,8,1:2:0:0:
132,244,42829,1,2,0:3:0:0:
348,32,43182,6,0,P|336:92|268:120,1,128.75,4|0,1:3|3:0,3:0:0:0:
276,48,43533,2,0,P|236:16|164:28,1,128.75,8|0,1:2|3:0,3:0:0:0:
132,96,43885,1,2,3:3:0:0:
303,192,44119,1,2,0:2:0:0:
260,192,44236,1,0,3:0:0:0:
223,169,44353,1,8,3:0:0:0:
205,130,44470,1,8,3:0:0:0:
212,88,44587,1,8,0:0:0:0:
256,192,45057,12,12,46463,0:2:0:0:
512,80,46932,6,0,B|468:132|400:116|416:76|348:60|304:112,1,231.750008840561,4|2,0:0|1:2,0:0:0:0:
384,248,47517,1,2,3:0:0:0:
384,248,47635,1,10,1:3:0:0:
256,336,47869,2,0,P|168:320|112:288,1,154.500005893708,4|2,1:3|3:0,0:0:0:0:
80,256,48221,1,0,3:0:0:0:
48,224,48338,1,8,0:0:0:0:
64,184,48455,1,0,3:0:0:0:
80,144,48572,1,2,1:2:0:0:
96,104,48689,1,0,3:0:0:0:
112,64,48807,6,0,P|176:24|328:24,1,231.750008840561,4|0,0:3|0:0,0:0:0:0:
368,40,49275,1,8,0:0:0:0:
408,56,49392,1,0,3:0:0:0:
448,72,49510,1,4,3:0:0:0:
397,203,49744,2,0,P|329:243|256:256,1,154.500005893708,8|2,0:3|3:0,0:0:0:0:
216,192,50096,1,0,3:0:0:0:
216,192,50213,2,0,L|144:224,1,77.2500029468538,8|0,0:0|3:0,0:0:0:0:
72,200,50447,2,0,L|0:232,1,77.2500029468538,2|0,3:0|3:0,0:0:0:0:
0,312,50682,6,0,B|44:364|112:348|96:308|164:292|208:344,1,231.750008840561,4|2,0:0|1:2,0:0:0:0:
392,344,51267,1,2,3:0:0:0:
392,344,51385,1,8,3:0:0:0:
192,240,51619,1,4,3:0:0:0:
416,264,51853,1,2,3:0:0:0:
256,112,52088,1,8,0:0:0:0:
472,200,52322,1,8,3:0:0:0:
400,48,52557,6,0,B|356:-4|288:12|288:64|224:64|224:12|156:-4|112:48,1,309.000011787415,6|8,0:2|0:0,0:0:0:0:
95,87,53142,1,0,3:0:0:0:
104,129,53259,1,0,0:0:0:0:
135,160,53376,1,0,3:0:0:0:
176,168,53493,1,8,0:3:0:0:
384,96,53728,1,2,0:0:0:0:
256,280,53963,1,8,0:0:0:0:
256,56,54197,1,2,0:3:0:0:
384,240,54432,6,0,P|344:296|264:328,1,154.500005893708,4|0,1:0|3:0,0:0:0:0:
128,144,54900,2,0,P|168:88|248:56,1,154.500005893708,8|0,1:0|3:0,0:0:0:0:
456,120,55369,1,4,0:3:0:0:
256,192,55603,1,8,3:0:0:0:
56,264,55838,1,8,0:0:0:0:
256,336,56072,1,8,3:3:0:0:
368,100,56307,6,0,P|480:156|512:252,1,231.750008840561,4|0,0:3|3:0,0:0:0:0:
432,251,56775,2,0,P|400:188|320:192,1,154.500005893708,8|8,0:0|3:0,0:0:0:0:
144,8,57244,2,0,P|32:64|0:160,1,231.750008840561,4|0,0:2|3:0,0:0:0:0:
80,159,57713,1,8,0:0:0:0:
80,159,57830,2,0,P|112:96|192:100,1,154.500005893708,2|8,0:3|3:0,0:0:0:0:
240,168,58182,6,0,B|292:212|276:280|236:264|220:332|272:376,1,231.750008840561,4|0,0:0|3:2,0:0:0:0:
316,316,58650,1,8,0:0:0:0:
196,228,58885,1,8,3:0:0:0:
256,92,59119,1,4,3:3:0:0:
320,56,59236,2,0,P|254:19|192:56,1,154.500005893708,2|2,3:2|3:3,0:0:0:0:
152,120,59588,2,0,L|220:160,1,77.2500029468538,8|2,0:0|3:2,0:0:0:0:
293,159,59822,2,0,L|360:120,1,77.2500029468538,8|8,0:2|3:3,0:0:0:0:
424,160,60057,6,8,P|364:248|255:223,2,231.750008840561,8|2|4,3:3|1:3|3:0,1:0:0:0:
256,92,60994,2,8,P|136:72|88:156,1,231.750008840561,8|0,1:3|3:3,1:0:0:0:
88,230,61463,2,0,P|112:302|176:342,1,154.500005893708,8|2,0:0|3:0,0:0:0:0:
440,336,62166,5,8,3:0:0:0:
512,192,62400,1,8,0:0:0:0:
440,48,62635,1,2,3:0:0:0:
284,16,62869,1,2,0:2:0:0:
156,112,63103,1,2,3:0:0:0:
156,272,63338,1,8,0:0:0:0:
284,368,63572,1,8,3:0:0:0:
416,272,63807,6,0,P|448:184|364:88,1,231.750008840561,4|0,0:3|3:0,0:0:0:0:
288,88,64275,2,0,P|208:164|237:271,1,231.750008840561,8|0,0:0|3:0,0:0:0:0:
328,320,64744,1,8,1:3:0:0:
328,320,64861,1,2,3:2:0:0:
328,320,64978,1,2,3:0:0:0:
328,320,65096,2,0,B|296:376|224:376|224:376|116:376,1,231.750008840561,4|2,0:2|3:0,0:0:0:0:
0,256,65682,6,0,P|-16:192|32:120,1,154.500005893708,4|2,1:3|3:0,0:0:0:0:
172,160,66150,2,0,P|188:224|140:296,1,154.500005893708,8|2,1:0|3:0,0:0:0:0:
100,140,66619,2,0,P|128:80|208:48,1,154.500005893708,0|2,1:3|3:0,0:0:0:0:
256,192,67088,2,0,L|256:272,1,77.2500029468538,8|2,0:0|3:2,0:0:0:0:
256,344,67322,1,8,0:3:0:0:
408,376,67557,6,0,L|512:168,1,231.750008840561,4|0,1:3|3:0,3:0:0:0:
436,152,68025,2,0,L|364:292,1,154.500005893708,8|8,1:0|3:0,3:0:0:0:
332,360,68377,1,0,3:0:0:0:
332,360,68494,1,0,0:0:0:0:
256,192,68728,1,2,3:3:0:0:
180,24,68963,1,8,0:0:0:0:
146,94,69080,2,0,L|76:232,1,154.500005893708,2|8,1:2|3:0,3:0:0:0:
40,304,69432,5,4,1:3:0:0:
192,304,69666,1,2,3:0:0:0:
0,192,69900,1,8,0:0:0:0:
224,232,70135,1,2,3:0:0:0:
56,80,70369,1,2,0:2:0:0:
256,160,70603,1,2,3:0:0:0:
376,296,70838,1,8,0:0:0:0:
496,160,71072,1,8,3:0:0:0:
360,32,71307,6,0,B|316:84|248:68|264:28|196:12|152:64,2,231.750008840561,4|2|8,0:2|1:3|3:0,0:0:0:0:
376,184,72244,1,4,1:3:0:0:
339,159,72361,1,0,3:0:0:0:
298,144,72478,1,2,0:2:0:0:
255,139,72595,1,0,3:0:0:0:
212,144,72712,1,8,0:0:0:0:
171,159,72829,1,0,3:0:0:0:
135,184,72947,1,10,3:0:0:0:
112,336,73182,6,10,B|156:388|224:372|224:320|288:320|288:372|356:388|400:336,2,309.000011787415,4|8|4,1:0|1:0|3:0,3:0:0:0:
196,204,74353,2,0,L|268:232,1,77.2500029468538,2|0,3:0|3:0,0:0:0:0:
332,188,74588,2,0,L|320:112,1,77.2500029468538,8|2,0:0|3:2,0:0:0:0:
248,80,74822,2,0,L|188:128,1,77.2500029468538,8|8,1:2|3:0,0:0:0:0:
128,176,75057,6,0,B|112:220|136:260|168:272|168:272|212:288,1,154.500005893708,4|0,3:3|3:0,0:0:0:0:
248,224,75408,2,0,B|356:265|356:265|388:277|412:317|396:361,1,231.750008840561,4|0,3:3|3:0,0:0:0:0:
328,332,75877,1,0,3:0:0:0:
328,332,75994,1,8,0:0:0:0:
184,52,76463,1,12,0:2:0:0:
376,272,84432,6,0,P|360:208|460:156,1,193.125,4|0,3:0|3:0,0:0:0:0:
432,224,84900,1,8,3:2:0:0:
512,320,85135,1,2,3:0:0:0:
384,344,85369,1,10,0:2:0:0:
384,344,85486,1,0,3:0:0:0:
256,320,85721,1,8,3:0:0:0:
256,320,85838,1,8,3:2:0:0:
512,96,86307,6,0,P|469:47|348:36,1,193.125,4|0,3:0|3:0,3:0:0:0:
288,80,86775,1,8,3:2:0:0:
288,208,87010,1,2,3:0:0:0:
400,144,87244,1,10,3:2:0:0:
400,144,87361,1,0,0:0:0:0:
512,208,87596,1,0,0:0:0:0:
512,208,87713,1,8,3:2:0:0:
136,112,88182,6,0,P|152:176|52:228,1,193.125,4|0,3:0|3:0,0:0:0:0:
80,160,88650,1,8,3:2:0:0:
0,64,88885,1,2,3:0:0:0:
128,40,89119,1,10,0:2:0:0:
128,40,89236,1,0,3:0:0:0:
224,136,89471,1,8,3:0:0:0:
224,136,89588,2,0,P|224:192|192:256,1,128.75,8|0,0:2|0:0,0:0:0:0:
0,288,90057,6,0,P|43:337|164:348,1,193.125,4|0,3:0|3:0,3:0:0:0:
224,304,90525,1,8,3:2:0:0:
224,176,90760,1,2,3:0:0:0:
112,240,90994,1,10,3:2:0:0:
112,240,91111,1,0,0:0:0:0:
112,112,91346,1,8,0:0:0:0:
112,112,91463,2,0,P|168:60|224:48,1,133.899993870545,12|2,0:2|0:2,0:0:0:0:
364,184,91932,5,8,1:2:0:0:
424,344,92400,2,0,P|396:296|352:276,1,106.089999109657,8|10,1:2|3:0,0:0:0:0:
340,364,92869,1,8,1:2:0:0:
512,324,93338,1,8,0:2:0:0:
148,96,93807,5,8,1:2:0:0:
88,256,94275,2,0,P|116:208|160:188,1,106.089999109657,8|10,1:2|3:0,0:0:0:0:
172,276,94744,1,8,1:2:0:0:
0,236,95213,1,8,0:2:0:0:
220,376,95682,6,0,P|176:352|164:328,3,72.0999977996827,8|0|0|0,1:1|0:0|1:3|0:0,0:0:0:0:
292,376,96150,2,0,P|336:352|348:328,3,72.0999977996827,8|0|10|0,1:1|0:0|3:0|0:0,0:0:0:0:
256,312,96619,1,8,1:2:0:0:
276,304,96736,1,0,0:0:0:0:
288,280,96853,1,0,1:0:0:0:
284,248,96970,1,0,0:0:0:0:
256,224,97088,1,8,1:2:0:0:
224,200,97205,1,0,0:0:0:0:
196,156,97322,1,0,0:0:0:0:
204,108,97439,1,0,0:0:0:0:
256,80,97557,6,0,P|308:60|324:36,1,82.4,12|0,1:0|3:0,0:0:0:0:
256,4,97791,2,0,P|204:24|188:48,1,82.4,4|0,1:3|3:0,0:0:0:0:
132,92,98025,2,0,L|84:100,8,41.2,8|0|0|0|2|0|0|0|12,1:3|0:0|0:0|0:0|0:2|0:0|0:0|0:0|1:0,0:0:0:0:
512,24,98963,1,6,1:0:0:0:
144,256,99432,6,0,L|72:224,1,77.2500029468538,4|0,3:0|3:0,0:0:0:0:
0,192,99666,1,10,3:0:0:0:
104,336,99900,1,4,3:0:0:0:
184,176,100135,2,0,L|256:144,1,77.2500029468538,10|0,3:0|3:0,0:0:0:0:
328,112,100369,1,4,1:3:0:0:
328,112,100486,1,10,3:0:0:0:
495,175,100721,2,0,P|504:286|415:352,1,231.750008840561,4|8,1:2|3:0,0:0:0:0:
336,360,101189,1,8,3:0:0:0:
256,368,101307,5,4,1:3:0:0:
400,176,101541,1,10,1:3:0:0:
168,96,101775,2,0,P|204:60|256:48,2,103.000003929138,4|10|10,1:3|1:3|1:3,0:0:0:0:
256,152,102244,2,0,B|216:208|152:216|144:180|80:188|40:244,1,247.2,4|4,1:3|1:2,0:2:0:0:
176,360,102830,1,6,1:2:0:0:
176,360,102947,1,8,0:3:0:0:
336,360,103182,5,4,0:0:0:0:
512,136,103533,1,0,0:0:0:0:
512,136,103650,2,0,L|440:168,1,77.2500029468538,8|0,1:2|0:0,0:0:0:0:
424,88,103885,2,0,L|352:56,1,77.2500029468538,2|2,1:3|0:0,0:0:0:0:
280,24,104119,1,10,1:2:0:0:
240,40,104236,1,2,0:2:0:0:
200,56,104353,1,0,0:0:0:0:
160,72,104471,1,10,1:3:0:0:
360,292,104822,5,4,3:3:0:0:
320,308,104939,1,0,1:3:0:0:
280,324,105057,2,0,P|224:324|144:268,1,154.500005893708,4|2,1:3|0:3,0:0:0:0:
232,60,105525,2,0,P|288:60|368:116,1,154.500005893708,8|2,1:3|0:3,0:0:0:0:
256,192,105994,1,4,1:3:0:0:
0,16,106463,1,6,1:0:0:0:
368,256,106932,6,0,L|440:224,1,77.2500029468538,4|0,3:0|3:0,0:0:0:0:
512,192,107166,1,10,3:0:0:0:
408,336,107400,1,4,1:3:0:0:
328,176,107635,2,0,L|256:144,1,77.2500029468538,10|0,3:0|3:0,0:0:0:0:
184,112,107869,1,4,1:3:0:0:
184,112,107986,1,10,3:0:0:0:
16,175,108221,2,0,P|7:286|96:352,1,231.750008840561,4|8,1:2|3:0,0:0:0:0:
176,360,108689,1,8,3:0:0:0:
256,368,108807,5,4,1:3:0:0:
112,176,109041,1,10,1:3:0:0:
344,96,109275,2,0,P|308:60|256:48,2,103.000003929138,4|10|10,1:3|1:3|1:3,0:0:0:0:
256,152,109744,2,0,B|296:208|360:216|368:180|432:188|472:244,1,247.2,4|4,1:3|1:2,0:0:0:0:
336,360,110330,1,6,1:2:0:0:
336,360,110447,2,0,L|256:360,1,79.8250006090164
176,360,110682,6,0,P|96:336|40:288,1,154.500005893708,4|0,1:3|0:2,0:0:0:0:
0,224,111033,1,2,3:0:0:0:
0,144,111150,2,0,L|56:88,1,77.2500029468538,8|2,1:2|0:2,0:0:0:0:
128,168,111385,2,0,L|184:112,1,77.2500029468538,2|2,1:3|0:2,0:0:0:0:
256,192,111619,2,0,L|312:136,1,77.2500029468538,4|2,1:3|0:2,0:0:0:0:
384,216,111853,1,0,0:0:0:0:
384,216,111971,1,8,1:3:0:0:
80,376,112322,5,4,3:3:0:0:
64,336,112439,1,0,1:3:0:0:
48,296,112557,2,0,P|48:240|104:160,1,154.500005893708,4|2,1:3|0:2,0:0:0:0:
464,88,113025,2,0,P|464:144|408:224,1,154.500005893708,8|2,1:3|0:2,0:0:0:0:
256,376,113494,1,4,1:3:0:0:
75,181,113963,22,0,B|112:176|152:152|152:152,1,77.2500029468538,2|2,3:3|0:2,0:0:0:0:
132,12,114197,2,0,B|100:16|56:40|56:40|56:40,1,77.2500029468538,2|2,3:3|0:2,0:0:0:0:
0,80,114432,38,0,B|44:132|112:116|96:76|164:60|208:112,1,231.750008840561,4|2,0:0|1:2,0:0:0:0:
128,248,115017,1,2,3:0:0:0:
128,248,115135,1,8,1:3:0:0:
256,336,115369,2,0,P|344:320|400:288,1,154.500005893708,4|2,1:3|3:0,0:0:0:0:
432,256,115721,1,0,3:0:0:0:
464,224,115838,1,8,0:0:0:0:
448,184,115955,1,0,3:0:0:0:
432,144,116072,1,2,1:2:0:0:
416,104,116189,1,0,3:0:0:0:
400,64,116307,6,0,P|336:24|184:24,1,231.750008840561,4|0,0:3|0:0,0:0:0:0:
144,40,116775,1,8,0:0:0:0:
104,56,116892,1,0,3:0:0:0:
64,72,117010,1,8,3:0:0:0:
115,203,117244,2,0,P|183:243|256:256,1,154.500005893708,4|0,0:3|3:0,0:0:0:0:
296,192,117596,1,0,3:0:0:0:
296,192,117713,2,0,L|368:224,1,77.2500029468538,8|0,0:0|3:0,0:0:0:0:
440,200,117947,2,0,L|512:232,1,77.2500029468538,2|0,3:0|3:0,0:0:0:0:
512,312,118182,6,0,B|468:364|400:348|416:308|348:292|304:344,1,231.750008840561,4|2,0:0|1:2,0:0:0:0:
120,344,118767,1,2,3:0:0:0:
120,344,118885,1,8,3:0:0:0:
320,240,119119,1,4,3:0:0:0:
96,264,119353,1,2,3:0:0:0:
256,112,119588,1,8,0:0:0:0:
40,200,119822,1,8,3:0:0:0:
112,48,120057,6,0,B|156:-4|224:12|224:64|288:64|288:12|356:-4|400:48,1,309.000011787415,6|8,0:2|0:0,0:0:0:0:
417,87,120642,1,0,3:0:0:0:
408,129,120759,1,0,0:0:0:0:
377,160,120876,1,0,3:0:0:0:
336,168,120993,1,8,0:3:0:0:
128,96,121228,2,0,L|176:156,1,77.2500029468538,2|0,0:0|3:0,0:0:0:0:
228,224,121463,2,0,L|256:152,1,77.2500029468538,8|0,0:0|3:0,0:0:0:0:
288,76,121697,2,0,L|208:85,1,77.2500029468538,2|0,0:3|3:0,0:0:0:0:
128,96,121932,6,0,B|72:104|72:104|16:112|0:164,1,154.500005893708,4|2,0:0|3:2,0:0:0:0:
0,240,122283,1,0,3:0:0:0:
60,288,122400,2,0,B|116:280|116:280|172:272|188:220,1,154.500005893708,8|2,0:0|3:3,0:0:0:0:
256,36,122869,2,0,L|328:68,1,77.2500029468538,4|0,0:3|3:0,0:0:0:0:
424,116,123103,2,0,L|352:148,1,77.2500029468538,8|0,0:3|3:0,0:0:0:0:
256,192,123338,1,8,0:0:0:0:
424,268,123572,6,4,P|368:328|152:352,1,309.000011787415,4|2,0:2|1:3,0:2:0:0:
112,340,124158,1,0,3:0:0:0:
72,324,124275,1,8,0:0:0:0:
56,284,124392,1,0,3:0:0:0:
40,244,124510,1,8,3:0:0:0:
24,204,124627,1,0,3:0:0:0:
8,164,124744,2,4,P|64:104|128:72,1,154.500005893708,4|10,0:3|3:3,0:2:0:0:
260,28,125213,5,8,0:0:0:0:
296,52,125330,1,2,3:2:0:0:
312,92,125447,1,2,3:0:0:0:
304,136,125564,1,2,3:2:0:0:
272,168,125682,2,0,B|220:212|236:280|276:264|292:332|240:376,1,231.750008840561,4|0,0:0|3:2,0:0:0:0:
196,316,126150,1,8,0:0:0:0:
316,228,126385,1,8,3:0:0:0:
256,92,126619,1,4,3:0:0:0:
192,56,126736,2,0,P|258:19|320:56,1,154.500005893708,2|2,3:2|3:3,0:0:0:0:
360,120,127088,2,0,L|292:160,1,77.2500029468538,8|2,0:0|3:2,0:0:0:0:
219,159,127322,2,0,L|152:120,1,77.2500029468538,8|8,0:2|3:0,0:0:0:0:
88,160,127557,6,8,P|148:248|257:223,2,231.750008840561,8|2|4,3:3|1:3|3:0,1:0:0:0:
256,92,128494,2,8,P|376:72|424:156,1,231.750008840561,8|0,1:3|3:3,1:0:0:0:
423,230,128963,1,8,0:0:0:0:
256,192,129197,1,2,0:3:0:0:
228,368,129432,5,4,0:0:0:0:
72,336,129666,1,2,3:0:0:0:
0,192,129900,1,8,0:0:0:0:
72,48,130135,1,2,3:0:0:0:
228,16,130369,1,2,0:2:0:0:
356,112,130603,1,2,3:0:0:0:
356,272,130838,1,8,0:0:0:0:
228,368,131072,1,8,3:0:0:0:
72,344,131307,6,0,P|72:256|112:208,1,154.500005893708,4|2,0:3|3:0,0:0:0:0:
440,40,131775,2,0,P|440:128|400:176,1,154.500005893708,8|2,0:0|3:0,0:0:0:0:
184,248,132244,1,8,1:3:0:0:
208,284,132361,1,2,3:2:0:0:
232,320,132478,1,2,3:0:0:0:
256,356,132596,2,0,B|364:356|364:356|436:356|468:300,1,231.750008840561,4|2,0:2|3:0,0:0:0:0:
384,40,133182,6,0,B|440:48|440:48|496:56|512:108,1,154.500005893708,4|2,0:0|3:2,0:0:0:0:
512,184,133533,1,0,3:0:0:0:
452,232,133650,2,0,B|396:224|396:224|340:216|324:164,1,154.500005893708,8|2,0:0|3:3,0:0:0:0:
128,40,134119,2,0,B|72:48|72:48|16:56|0:108,1,154.500005893708,4|2,0:3|3:2,0:0:0:0:
0,184,134470,1,8,3:0:0:0:
60,232,134588,2,0,L|136:220,1,77.2500029468538,8|2,0:0|3:0,0:0:0:0:
196,268,134822,1,8,3:0:0:0:
400,184,135057,6,0,B|376:136|320:136|320:136|264:136,1,154.500005893708,4|2,0:3|3:2,0:0:0:0:
184,136,135408,1,0,3:0:0:0:
112,100,135525,2,0,B|136:52|192:52|192:52|248:52,1,154.500005893708,8|2,0:0|3:2,0:0:0:0:
336,296,135994,1,8,0:3:0:0:
168,248,136228,1,2,3:0:0:0:
272,120,136463,1,8,0:0:0:0:
352,136,136580,2,0,P|424:176|448:240,1,154.500005893708,2|8,0:2|3:0,0:0:0:0:
432,320,136932,5,4,1:3:0:0:
256,368,137166,1,2,3:0:0:0:
80,224,137400,1,8,0:0:0:0:
256,272,137635,1,2,3:0:0:0:
344,88,137869,1,2,0:2:0:0:
168,248,138103,1,2,3:0:0:0:
344,296,138338,1,8,0:0:0:0:
256,168,138572,1,2,3:0:0:0:
152,32,138807,6,0,B|196:84|264:68|248:28|316:12|360:64,2,231.750008840561,4|2|8,0:2|1:3|3:0,0:0:0:0:
136,184,139744,1,4,1:3:0:0:
173,159,139861,1,0,3:0:0:0:
214,144,139978,1,2,0:2:0:0:
257,139,140095,1,2,3:2:0:0:
300,144,140212,1,8,0:0:0:0:
341,159,140329,1,0,3:0:0:0:
377,184,140447,1,10,3:0:0:0:
400,344,140682,6,10,B|356:396|288:380|288:328|224:328|224:380|156:396|112:344,2,309.000011787415,4|8|4,1:0|1:0|3:0,3:0:0:0:
316,204,141853,2,0,L|244:232,1,77.2500029468538,2|0,3:0|3:0,0:0:0:0:
180,188,142088,2,0,L|192:112,1,77.2500029468538,8|2,0:0|3:2,0:0:0:0:
264,80,142322,2,0,L|324:128,1,77.2500029468538,8|8,1:2|3:0,0:0:0:0:
384,176,142557,6,0,B|400:220|376:260|344:272|344:272|300:288,1,154.500005893708,4|0,3:3|3:0,0:0:0:0:
232,312,142908,1,4,3:0:0:0:
116,164,143142,1,8,3:0:0:0:
92,128,143260,1,4,3:0:0:0:
88,84,143377,1,0,3:0:0:0:
112,48,143494,2,8,B|156:-4|224:12|224:64|288:64|288:12|356:-4|400:48,2,309.000011787415,2|12|4,1:2|1:0|3:0,1:0:0:0:
200,204,144666,5,2,3:0:0:0:
344,92,144900,1,8,0:0:0:0:
424,256,145135,1,8,3:3:0:0:
244,296,145369,1,2,0:2:0:0:
244,112,145603,1,10,3:0:0:0:
424,152,145838,1,8,0:0:0:0:
344,316,146072,1,2,3:0:0:0:
108,376,146307,6,0,L|4:168,1,231.750008840561,4|0,3:0|3:0,3:0:0:0:
80,152,146775,2,0,L|152:292,1,154.500005893708,8|8,1:0|3:0,3:0:0:0:
156,136,147244,2,0,L|192:204,1,77.2500029468538,8|0,3:3|3:0,0:0:0:0:
224,272,147478,1,2,3:2:0:0:
256,340,147596,2,0,P|336:348|376:288,1,160.680005393921,4|8,0:2|3:0,0:0:0:0:
300,280,147947,5,2,1:3:0:0:
300,280,148064,1,0,3:0:0:0:
300,280,148182,2,0,P|352:192|472:176,1,231.750008840561,4|8,3:0|3:0,0:0:0:0:
512,236,148650,1,8,0:0:0:0:
464,384,148885,1,2,3:0:0:0:
312,352,149119,2,0,P|244:328|232:252,1,154.500005893708,2|0,0:2|3:0,0:0:0:0:
260,188,149471,1,8,3:0:0:0:
260,188,149588,2,0,P|296:144|320:128,1,77.2500029468538,8|2,0:0|3:0,0:0:0:0:
376,100,149822,1,8,3:0:0:0:
212,280,150057,6,0,P|160:192|40:176,1,231.750008840561,4|8,3:0|3:0,0:0:0:0:
0,236,150525,1,8,0:0:0:0:
48,384,150760,1,2,3:0:0:0:
200,352,150994,1,8,0:3:0:0:
64,272,151228,2,0,L|100:204,1,77.2500029468538,2|0,1:3|3:0,0:0:0:0:
136,136,151463,1,8,0:0:0:0:
172,68,151580,2,8,P|240:16|308:16,1,154.500005893708,2|8,1:2|3:0,0:0:0:0:
380,36,151931,1,4,3:0:0:0:
312,204,152166,5,2,3:0:0:0:
168,92,152400,1,8,0:0:0:0:
88,256,152635,1,8,3:3:0:0:
272,296,152869,1,2,0:2:0:0:
268,112,153103,1,10,3:0:0:0:
88,152,153338,1,8,0:0:0:0:
168,316,153572,1,2,3:0:0:0:
360,104,153807,22,0,B|316:156|248:140|264:100|196:84|152:136,2,231.750008840561,4|2|8,0:2|1:3|3:0,0:0:0:0:
372,292,154744,1,4,3:3:0:0:
336,268,154861,1,0,3:1:0:0:
292,272,154978,1,2,1:3:0:0:
256,248,155096,1,2,3:2:0:0:
220,272,155213,1,8,1:2:0:0:
176,268,155330,1,0,3:1:0:0:
140,292,155447,1,8,3:0:0:0:
256,192,155682,12,2,159314,3:0:0:0:
