osu file format v14

[General]
AudioFilename: cYsmix - House With Legs 224.mp3
AudioLeadIn: 0
PreviewTime: 46932
Countdown: 1
SampleSet: None
StackLeniency: 0.7
Mode: 0
LetterboxInBreaks: 0
WidescreenStoryboard: 1

[Editor]
Bookmarks: 16932,31932,39432,46932,61932,76932,84432,91932,99432,106932,114432,129432,144432,155682
DistanceSpacing: 1
BeatDivisor: 4
GridSize: 8
TimelineZoom: 1.1

[Metadata]
Title:House With Legs
TitleUnicode:House With Legs
Artist:cYsmix
ArtistUnicode:cYsmix
Creator:D33d
Version:Hard
Source:osu!
Tags:Mapping with Rewards
BeatmapID:797206
BeatmapSetID:361785

[Difficulty]
HPDrainRate:7
CircleSize:3.5
OverallDifficulty:7
ApproachRate:7
SliderMultiplier:1.92
SliderTickRate:2

[Events]
//Background and Video events
0,0,"osu!cysmix-bgtiny.jpg",0,0
//Break Periods
2,76932,83532
//Storyboard Layer 0 (Background)
//Storyboard Layer 1 (Fail)
//Storyboard Layer 2 (Pass)
//Storyboard Layer 3 (Foreground)
//Storyboard Sound Samples

[TimingPoints]
1932,468.75,4,3,0,65,1,0
22439,-90.9090909090909,4,1,0,65,0,0
23260,-90.9090909090909,4,1,0,75,0,0
24314,-80,4,1,0,75,0,0
31814,-80,4,1,0,75,0,0
39314,-80,4,1,0,75,0,0
43182,-77.5193798449612,4,1,0,75,0,0
46463,-77.5193798449612,4,1,0,85,0,0
46932,-66.6666666666667,4,1,0,85,0,1
76932,-80,4,3,0,65,0,0
91463,-76.9230769230769,4,3,0,65,0,0
91814,-97.0873786407767,4,3,0,65,0,0
95564,-71.4285714285714,4,3,0,65,0,0
97557,-62.5,4,3,0,65,0,0
98377,-62.5,4,3,0,90,0,0
99432,-66.6666666666667,4,3,0,75,0,0
102127,-62.5,4,3,0,75,0,0
102713,-66.6666666666667,4,3,0,75,0,0
106228,-66.6666666666667,4,3,0,90,0,0
106932,-66.6666666666667,4,3,0,75,0,0
109627,-62.5,4,3,0,75,0,0
110213,-66.6666666666667,4,3,0,75,0,0
114432,-66.6666666666667,4,1,0,85,0,1
136580,-65.7894736842105,4,1,0,85,0,1
136932,-66.6666666666667,4,1,0,85,0,1
144432,-66.6666666666667,4,1,0,85,0,0

[Colours]
Combo1 : 240,215,0
Combo2 : 237,0,140
Combo3 : 0,192,245
Combo4 : 255,102,0

[HitObjects]
0,192,16932,6,0,P|27:261|88:288,2,144,8|2|2,3:0|0:2|3:0,0:0:0:0:
48,112,17869,1,2,1:2:0:0:
48,112,17986,1,0,0:0:0:0:
96,192,18221,1,2,1:3:0:0:
320,328,18807,6,0,P|285:351|192:328,2,144,4|2|2,3:0|3:2|3:0,0:0:0:0:
256,264,19744,2,0,P|256:192|312:136,1,152.64000023291,4|2,3:0|3:0,0:0:0:0:
400,120,20330,1,2,3:0:0:0:
512,240,20682,6,0,P|485:309|424:336,2,144,8|2|2,3:0|0:2|3:0,0:0:0:0:
464,160,21619,1,2,1:2:0:0:
464,160,21736,1,0,0:0:0:0:
416,240,21971,1,2,3:3:0:0:
416,240,22088,1,8,3:0:0:0:
24,160,22557,6,0,P|8:252|48:296,1,158.400004833985,4|0,3:0|3:0,0:0:0:0:
120,312,23025,1,4,3:0:0:0:
176,224,23260,1,8,1:0:0:0:
120,136,23494,2,0,L|200:64,1,105.600003222656,4|2,1:3|3:2,0:0:0:0:
312,136,23963,2,0,L|392:64,1,105.600003222656,8|2,0:0|0:0,0:0:0:0:
512,192,24432,6,0,P|480:272|400:312,1,180,4|0,0:2|3:0,0:0:0:0:
324,312,24900,1,8,1:2:0:0:
256,208,25135,1,0,0:0:0:0:
328,112,25369,1,2,0:2:0:0:
328,112,25486,1,2,3:0:0:0:
440,160,25721,1,8,3:0:0:0:
440,160,25838,1,8,1:2:0:0:
176,336,26307,6,0,P|208:360|336:336,2,180,4|2|2,3:0|3:2|3:0,0:0:0:0:
256,264,27244,2,0,P|280:176|224:112,1,180,4|2,3:0|1:3,0:0:0:0:
128,48,27830,1,2,1:3:0:0:
0,192,28182,6,0,P|32:272|112:312,1,180,4|2,1:3|3:0,0:0:0:0:
188,312,28650,1,8,0:2:0:0:
256,208,28885,1,0,0:0:0:0:
184,112,29119,1,2,1:2:0:0:
184,112,29236,1,2,3:0:0:0:
72,160,29471,1,8,3:0:0:0:
72,160,29588,1,8,0:2:0:0:
344,352,30057,6,0,B|264:320|248:384|168:352,1,180,4|2,1:3|3:0,0:0:0:0:
104,312,30525,1,8,0:2:0:0:
184,192,30760,1,2,3:2:0:0:
328,192,30994,1,4,3:3:0:0:
256,64,31228,1,0,0:0:0:0:
256,64,31346,1,0,0:0:0:0:
256,64,31463,1,12,0:2:0:0:
488,272,31932,6,0,P|520:216|488:112,2,180,4|2|8,0:0|1:3|3:0,0:0:0:0:
416,192,32869,1,2,1:2:0:0:
416,192,32986,2,0,P|344:208|304:232,1,120,0|0,3:0|3:0,0:0:0:0:
256,296,33338,1,8,0:2:0:0:
168,40,33807,6,0,B|248:72|264:8|344:40,1,180,4|2,1:3|1:3,0:0:0:0:
448,248,34510,1,2,0:3:0:0:
344,192,34744,2,0,B|264:160|248:224|168:192,1,180,4|2,1:3|1:3,0:0:0:0:
212,80,35330,1,2,1:3:0:0:
24,272,35682,6,0,P|-8:216|24:112,2,180,8|2|8,0:3|1:3|3:0,0:0:0:0:
96,192,36619,1,2,1:2:0:0:
96,192,36736,2,0,P|168:208|208:232,1,120,2|0,3:0|3:0,0:0:0:0:
256,296,37088,1,8,0:2:0:0:
176,64,37557,6,0,P|232:32|336:64,2,180,4|2|2,0:3|3:2|3:0,0:0:0:0:
128,200,38494,1,4,0:3:0:0:
256,288,38728,1,8,0:3:0:0:
384,200,38963,1,8,0:0:0:0:
256,144,39197,1,2,0:0:0:0:
384,88,39432,6,0,P|452:112|496:208,1,180,4|0,0:0|3:0,0:0:0:0:
472,280,39900,1,8,0:2:0:0:
364,324,40135,1,2,3:0:0:0:
256,368,40369,2,0,L|88:300,1,180,2|0,0:2|3:0,0:0:0:0:
16,272,40838,2,0,P|68:224|116:228,1,120,8|0,0:2|3:0,0:0:0:0:
256,280,41307,22,0,L|424:212,1,180,4|0,1:3|3:0,0:0:0:0:
496,184,41775,2,0,P|444:136|396:140,1,120,8|0,0:2|3:0,0:0:0:0:
256,192,42244,2,0,L|88:124,1,180,8|0,0:3|0:0,0:0:0:0:
16,96,42713,1,8,0:2:0:0:
16,96,42830,1,10,1:3:0:0:
256,112,43182,6,0,P|320:144|312:248,1,185.760002834473,4|0,1:3|3:0,0:0:0:0:
256,192,43650,2,0,P|192:160|176:112,1,123.840001889648,8|2,0:2|3:0,0:0:0:0:
256,32,44119,1,4,1:3:0:0:
256,32,44236,1,0,0:0:0:0:
336,112,44471,1,0,3:0:0:0:
336,112,44588,1,8,1:3:0:0:
256,192,45057,12,12,46463,1:2:0:0:
504,24,46932,6,0,B|472:72|408:72|408:24|344:24|312:72,1,216.000008239746,4|2,0:0|0:2,0:0:0:0:
376,200,47517,1,2,3:0:0:0:
376,200,47635,2,0,P|280:292|136:272,1,288.000010986329,10|8,0:3|3:0,0:0:0:0:
16,200,48338,1,8,0:0:0:0:
176,200,48572,1,2,1:2:0:0:
96,344,48807,6,0,P|172:376|312:368,1,216.000008239746,4|8,1:3|3:0,0:0:0:0:
368,240,49392,1,0,3:0:0:0:
368,240,49510,1,4,1:3:0:0:
256,152,49744,2,0,P|216:88|152:72,1,144.000005493164,8|2,1:3|3:0,0:0:0:0:
80,104,50096,1,0,3:0:0:0:
80,104,50213,1,8,1:0:0:0:
40,240,50447,1,2,3:0:0:0:
160,328,50682,6,0,B|192:376|256:376|256:328|320:328|352:376,2,216.000008239746,4|2|8,0:0|0:2|1:3,0:0:0:0:
280,248,51619,1,4,0:3:0:0:
240,112,51853,1,2,3:0:0:0:
120,192,52088,1,8,0:0:0:0:
0,112,52322,1,10,3:3:0:0:
120,32,52557,6,0,B|160:-8|224:-4|224:48|288:48|288:-4|352:-8|392:32,1,288.000010986329,6|8,0:2|0:0,0:0:0:0:
336,168,53260,1,2,3:0:0:0:
416,288,53494,1,8,1:3:0:0:
472,144,53728,1,2,0:0:0:0:
336,88,53963,1,8,0:0:0:0:
280,232,54197,1,2,0:3:0:0:
188,88,54432,6,0,P|76:136|36:216,1,216.000008239746,4|0,0:0|3:0,0:0:0:0:
108,248,54900,2,0,P|133:183|199:162,1,144.000005493164,8|2,0:0|3:0,0:0:0:0:
312,252,55369,2,0,P|378:231|403:166,1,144.000005493164,8|2,0:3|3:0,0:0:0:0:
475,46,55838,1,8,0:0:0:0:
476,196,56072,2,0,P|422:289|256:312,1,288.000010986329,4|2,0:3|3:0,0:0:0:0:
120,264,56775,1,8,0:0:0:0:
324,28,57244,6,0,P|256:8|188:28,1,144.000005493164,4|0,0:2|3:0,0:0:0:0:
256,140,57713,1,8,0:0:0:0:
256,140,57830,2,0,L|256:288,1,144.000005493164,0|8,0:0|3:0,0:0:0:0:
216,352,58182,6,0,P|128:320|56:224,2,216.000008239746,4|2|8,1:0|1:3|1:3,0:0:0:0:
296,232,59119,2,0,P|384:200|456:104,1,216.000008239746,4|2,3:3|1:3,0:0:0:0:
336,24,59705,1,0,0:0:0:0:
336,24,59822,1,8,3:0:0:0:
57,104,60057,6,0,P|118:192|216:232,2,216.000008239746,8|2|4,3:3|1:3|0:3,0:0:0:0:
176,24,60994,1,8,1:3:0:0:
336,360,61463,1,8,0:0:0:0:
0,192,62166,5,8,3:0:0:0:
128,128,62400,1,8,0:0:0:0:
52,256,62635,1,2,3:0:0:0:
0,112,62869,1,2,0:2:0:0:
112,204,63103,1,2,3:0:0:0:
200,320,63338,1,8,0:0:0:0:
344,328,63572,1,8,3:0:0:0:
480,272,63807,6,0,P|432:160|280:144,2,288.000010986329,4|8|8,1:3|0:0|1:3,0:0:0:0:
344,272,64978,1,2,3:0:0:0:
344,272,65096,2,0,P|288:320|168:272,1,216.000008239746,4|2,1:2|3:0,0:0:0:0:
160,112,65682,6,0,P|184:48|248:16,1,144.000005493164,4|2,1:3|3:0,0:0:0:0:
352,112,66150,2,0,P|328:176|264:208,1,144.000005493164,8|0,0:0|3:0,0:0:0:0:
120,176,66619,1,0,0:0:0:0:
0,248,66853,1,2,3:0:0:0:
72,368,67088,1,8,0:0:0:0:
72,368,67205,1,2,3:2:0:0:
72,368,67322,1,8,1:3:0:0:
192,296,67557,6,0,P|256:352|384:368,1,216.000008239746,4|0,1:3|3:0,0:0:0:0:
456,336,68025,1,8,0:0:0:0:
492,200,68260,1,8,3:0:0:0:
356,232,68494,1,0,0:0:0:0:
256,128,68728,1,2,3:0:0:0:
160,8,68963,1,8,0:0:0:0:
160,8,69080,2,0,P|64:24|24:48,1,144.000005493164,0|2,0:0|3:0,0:0:0:0:
56,368,69666,5,8,3:0:0:0:
20,232,69901,1,8,1:0:0:0:
156,264,70135,1,2,3:0:0:0:
252,160,70369,1,2,0:2:0:0:
356,264,70603,1,2,3:0:0:0:
456,368,70838,1,8,0:0:0:0:
492,232,71073,1,8,3:0:0:0:
388,120,71307,6,0,P|316:32|220:20,2,216.000008239746,4|2|8,0:2|0:3|1:3,0:0:0:0:
356,264,72244,1,4,1:3:0:0:
252,160,72478,1,2,0:2:0:0:
116,120,72713,1,8,0:0:0:0:
28,232,72947,1,8,3:0:0:0:
120,352,73182,6,0,B|160:392|224:388|224:336|288:336|288:388|352:392|392:352,3,288.000010986329,4|8|0|8,0:0|0:0|0:0|0:0,0:0:0:0:
440,216,74822,1,8,0:2:0:0:
320,136,75057,6,0,P|288:160|192:136,1,144.000005493164,4|0,3:3|3:0,0:0:0:0:
168,64,75408,2,0,B|192:16|240:16|240:16|272:16|272:16|320:16|344:64,1,216.000008239746,4|0,3:3|0:0,0:0:0:0:
472,204,75994,1,8,0:0:0:0:
40,207,76463,1,12,0:2:0:0:
384,128,84432,6,0,P|404:200|488:256,2,180,4|2|2,3:0|0:2|0:0,0:0:0:0:
448,24,85369,1,10,1:2:0:0:
448,24,85486,1,0,0:0:0:0:
512,128,85721,1,4,1:2:0:0:
176,344,86307,6,0,P|280:376|336:344,2,180,4|2|2,3:0|0:2|3:0,0:0:0:0:
88,264,87244,1,10,1:2:0:0:
88,264,87361,1,0,3:0:0:0:
0,344,87596,1,4,1:2:0:0:
128,144,88182,6,0,P|108:72|24:16,2,180,4|2|2,3:0|3:2|3:0,0:0:0:0:
0,144,89119,1,10,1:2:0:0:
0,144,89236,1,0,3:0:0:0:
64,248,89471,1,8,3:0:0:0:
64,248,89588,1,8,1:2:0:0:
336,64,90057,6,0,P|232:32|176:64,2,180,4|2|2,3:0|3:2|3:0,0:0:0:0:
256,144,90994,1,10,1:2:0:0:
260,148,91111,1,0,3:0:0:0:
320,256,91346,1,8,3:0:0:0:
320,256,91463,1,12,1:2:0:0:
256,368,91697,1,2,3:2:0:0:
192,256,91932,5,8,1:2:0:0:
32,200,92400,2,0,P|40:144|64:104,1,98.879999170166,8|10,1:2|0:0,0:0:0:0:
144,56,92869,1,8,1:2:0:0:
304,112,93338,1,8,1:2:0:0:
320,336,93807,5,8,1:2:0:0:
480,280,94275,2,0,P|472:224|448:184,1,98.879999170166,8|10,1:2|3:0,0:0:0:0:
368,136,94744,1,8,1:2:0:0:
208,192,95213,1,8,1:2:0:0:
52,52,95682,5,8,1:2:0:0:
32,176,95916,1,0,1:0:0:0:
84,288,96150,1,8,1:2:0:0:
192,352,96385,1,6,1:3:0:0:
318,352,96619,1,8,1:2:0:0:
427,289,96853,1,0,0:0:0:0:
480,176,97088,1,8,1:2:0:0:
458,52,97322,1,0,0:0:0:0:
376,128,97557,6,0,P|360:200|296:248,1,153.6,12|4,1:0|1:3,0:0:0:0:
136,144,98025,2,0,P|152:72|216:24,1,153.6,8|2,1:3|3:2,0:0:0:0:
376,24,98494,1,12,1:0:0:0:
136,360,98963,1,6,1:0:0:0:
512,152,99432,5,4,0:0:0:0:
512,152,99549,1,0,0:0:0:0:
512,152,99666,1,8,0:0:0:0:
448,280,99900,2,0,L|328:200,1,144.000005493164,4|8,0:0|0:0,0:0:0:0:
208,120,100369,1,4,1:3:0:0:
208,120,100486,1,10,0:0:0:0:
192,280,100721,2,0,P|240:344|368:376,1,216.000008239746,4|0,1:2|0:0,0:0:0:0:
440,344,101189,5,0,0:0:0:0:
440,344,101307,1,4,1:3:0:0:
496,188,101541,1,8,1:3:0:0:
336,224,101775,2,0,L|428:252,2,96.0000036621095,4|0|0,1:3|0:0|0:0,0:0:0:0:
240,192,102244,2,0,B|256:136|316:108|376:128|376:128|436:148,1,230.4,4|4,1:3|1:2,0:0:0:0:
512,280,102830,1,4,1:2:0:0:
512,280,102947,1,8,0:0:0:0:
356,320,103182,6,0,P|228:352|156:320,1,216.000008239746,4|0,0:0|0:0,0:0:0:0:
108,256,103650,1,8,1:2:0:0:
256,192,103885,1,0,0:0:0:0:
400,128,104119,2,0,P|352:64|292:36,1,144.000005493164,8|0,1:2|1:0,1:0:0:0:
216,36,104471,1,10,1:3:0:0:
128,288,104822,5,4,0:0:0:0:
128,288,104939,1,0,0:0:0:0:
128,288,105057,2,0,B|176:332|256:308|256:272|256:236|336:212|384:256,2,288.000010986329,4|8|4,1:3|1:0|1:3,0:0:0:0:
256,16,106463,1,12,1:2:0:0:
0,152,106932,5,4,0:0:0:0:
0,152,107049,1,0,0:0:0:0:
0,152,107166,1,8,0:0:0:0:
64,280,107400,2,0,L|184:200,1,144.000005493164,4|8,0:0|0:0,0:0:0:0:
304,120,107869,1,4,1:3:0:0:
304,120,107986,1,10,0:0:0:0:
320,280,108221,2,0,P|272:344|144:376,1,216.000008239746,4|0,1:2|0:0,0:0:0:0:
72,344,108689,5,0,0:0:0:0:
76,348,108807,1,4,1:3:0:0:
16,188,109041,1,8,1:3:0:0:
176,224,109275,2,0,L|84:252,2,96.0000036621095,4|0|0,1:3|0:0|0:0,0:0:0:0:
272,192,109744,2,0,B|256:136|196:108|136:128|136:128|76:148,1,230.4,4|4,1:3|1:2,0:0:0:0:
0,280,110330,1,4,1:2:0:0:
0,280,110447,1,8,0:0:0:0:
156,320,110682,6,0,P|228:352|292:348,1,144.000005493164,4|0,1:3|0:0,0:0:0:0:
364,312,111033,1,0,3:0:0:0:
364,312,111150,1,8,1:2:0:0:
256,192,111385,1,2,1:3:0:0:
156,64,111619,2,0,P|228:32|292:36,1,144.000005493164,4|0,1:3|0:0,0:0:0:0:
364,72,111971,1,8,0:3:0:0:
512,360,112322,5,8,3:0:0:0:
512,360,112439,1,0,3:0:0:0:
512,360,112557,2,0,P|480:304|424:248,1,144.000005493164,4|2,1:3|0:2,0:0:0:0:
256,192,113025,2,0,P|208:196|116:232,1,144.000005493164,8|2,1:0|0:2,0:0:0:0:
0,360,113494,1,4,0:3:0:0:
8,24,114432,6,0,B|40:72|104:72|104:24|168:24|200:72,1,216.000008239746,4|2,0:0|0:2,0:0:0:0:
136,200,115017,1,2,3:0:0:0:
136,200,115135,2,0,P|232:292|376:272,1,288.000010986329,8|2,0:3|3:0,0:0:0:0:
496,200,115838,1,8,0:0:0:0:
336,200,116072,1,2,0:2:0:0:
416,344,116307,6,0,P|340:376|200:368,1,216.000008239746,4|8,1:3|3:0,0:0:0:0:
144,240,116892,1,0,3:0:0:0:
144,240,117010,1,4,1:3:0:0:
256,152,117244,2,0,P|296:88|360:72,1,144.000005493164,8|2,1:3|3:0,0:0:0:0:
432,104,117596,1,0,3:0:0:0:
436,108,117713,1,8,1:0:0:0:
472,240,117947,1,2,3:0:0:0:
352,328,118182,6,0,B|320:376|256:376|256:328|192:328|160:376,2,216.000008239746,4|2|8,0:0|0:2|1:3,0:0:0:0:
232,248,119119,1,4,0:3:0:0:
272,112,119353,1,2,3:0:0:0:
392,192,119588,1,8,0:0:0:0:
512,112,119822,1,10,3:3:0:0:
392,32,120057,6,0,B|352:-8|288:-4|288:48|224:48|224:-4|160:-8|120:32,1,288.000010986329,6|8,0:2|0:0,0:0:0:0:
176,168,120760,1,2,3:0:0:0:
96,288,120994,1,8,1:3:0:0:
40,144,121228,1,2,0:0:0:0:
176,88,121463,1,8,0:0:0:0:
232,232,121697,1,2,0:3:0:0:
316,76,121932,6,0,L|440:148,1,144.000005493164,4|0,0:0|3:0,0:0:0:0:
508,188,122283,1,0,3:0:0:0:
512,192,122400,1,8,1:0:0:0:
424,328,122635,1,2,3:0:0:0:
336,192,122869,2,0,L|212:120,1,144.000005493164,8|0,0:3|3:0,0:0:0:0:
168,188,123221,1,0,3:0:0:0:
172,192,123338,2,0,L|296:264,1,144.000005493164,8|10,0:0|3:3,0:0:0:0:
176,328,123807,6,0,P|80:291|40:192,1,216.000008239746,4|0,1:3|0:0,0:0:0:0:
72,120,124275,1,8,0:0:0:0:
188,28,124510,1,4,1:3:0:0:
188,28,124627,1,0,3:0:0:0:
188,28,124744,2,0,P|256:8|324:28,1,144.000005493164,4|0,0:2|3:0,0:0:0:0:
256,140,125213,1,8,0:0:0:0:
256,140,125330,2,0,L|256:288,1,144.000005493164,0|8,0:0|3:0,0:0:0:0:
296,352,125682,6,0,P|384:320|456:224,2,216.000008239746,4|2|8,1:0|1:3|1:3,0:0:0:0:
216,232,126619,2,0,P|128:200|56:104,1,216.000008239746,4|2,3:3|1:3,0:0:0:0:
176,24,127205,1,0,0:0:0:0:
176,24,127322,1,8,3:0:0:0:
455,104,127557,6,0,P|394:192|296:232,2,216.000008239746,8|2|4,3:3|1:3|0:3,0:0:0:0:
336,24,128494,1,8,1:3:0:0:
116,332,128963,2,0,P|256:360|396:332,1,288.000010986329,8|4,0:0|1:0,0:0:0:0:
512,192,129666,5,8,3:0:0:0:
384,128,129900,1,8,0:0:0:0:
464,256,130135,1,2,3:0:0:0:
512,112,130369,1,2,0:2:0:0:
400,204,130603,1,2,3:0:0:0:
312,320,130838,1,8,0:0:0:0:
184,256,131072,1,8,3:0:0:0:
160,112,131307,6,0,P|184:48|248:16,1,144.000005493164,4|2,1:3|3:0,0:0:0:0:
352,112,131775,2,0,P|328:176|264:208,1,144.000005493164,8|0,0:0|3:0,0:0:0:0:
68,236,132244,2,0,P|120:292|178:322,1,144.000005493164,8|2,0:3|3:2,0:0:0:0:
256,336,132596,2,0,P|360:312|440:240,1,216.000008239746,4|2,1:2|3:0,0:0:0:0:
300,92,133182,6,0,L|176:164,1,144.000005493164,4|0,0:0|3:0,0:0:0:0:
212,244,133534,1,0,3:0:0:0:
213,244,133651,2,0,L|337:172,1,144.000005493164,8|10,0:0|3:3,0:0:0:0:
392,296,134119,2,0,B|368:352|304:352|304:352|200:352,1,216.000008239746,4|8,1:3|3:0,0:0:0:0:
120,352,134588,1,8,0:0:0:0:
0,280,134822,1,8,3:0:0:0:
120,208,135057,6,0,B|144:152|208:152|208:152|312:152,1,216.000008239746,4|0,0:3|3:0,0:0:0:0:
392,120,135525,2,0,B|368:64|304:64|304:64|272:64,1,144.000005493164,8|2,0:0|3:2,0:0:0:0:
192,64,135877,1,0,3:0:0:0:
192,64,135994,1,8,0:3:0:0:
64,128,136228,1,2,3:0:0:0:
24,264,136463,1,8,0:0:0:0:
24,264,136580,2,0,B|24:324|80:352|80:352|112:368,1,145.91999821875,2|8,0:2|3:0,0:0:0:0:
456,368,137166,5,8,3:0:0:0:
492,228,137401,1,8,1:0:0:0:
356,264,137635,1,2,3:0:0:0:
256,160,137869,1,2,0:2:0:0:
156,264,138103,1,2,3:0:0:0:
56,368,138338,1,8,0:0:0:0:
20,228,138573,1,8,3:0:0:0:
120,120,138807,6,0,P|192:32|288:20,2,216.000008239746,4|2|8,0:2|0:3|1:3,0:0:0:0:
156,264,139744,1,4,1:3:0:0:
256,160,139978,1,2,0:2:0:0:
392,120,140213,1,8,0:0:0:0:
480,232,140447,1,8,3:0:0:0:
392,352,140682,6,0,B|352:392|288:388|288:336|224:336|224:388|160:392|120:352,3,288.000010986329,4|8|0|8,1:0|0:0|0:0|0:0,0:0:0:0:
72,216,142322,1,8,0:2:0:0:
192,136,142557,6,0,P|224:160|320:136,1,144.000005493164,4|0,3:3|3:0,0:0:0:0:
344,64,142908,2,0,B|320:16|272:16|272:16|240:16|240:16|192:16|168:64,1,216.000008239746,4|0,3:3|0:0,0:0:0:0:
408,128,143494,2,0,P|352:216|248:244,1,216.000008239746,2|2,1:2|3:0,0:0:0:0:
172,224,143963,2,0,P|124:176|104:104,1,144.000005493164,12|2,0:0|3:0,0:0:0:0:
476,176,144666,5,2,3:0:0:0:
476,48,144900,1,8,0:0:0:0:
356,8,145135,1,10,3:0:0:0:
276,112,145369,1,2,1:2:0:0:
356,216,145603,1,2,3:0:0:0:
316,336,145838,1,8,0:0:0:0:
196,384,146072,1,8,3:0:0:0:
80,328,146307,6,0,P|44:200|132:84,2,288.000010986329,4|8|8,3:3|0:0|3:3,0:0:0:0:
196,384,147478,1,0,3:0:0:0:
196,384,147596,2,0,P|300:352|348:260,1,216.000008239746,4|2,1:2|3:0,1:2:0:0:
224,136,148182,6,0,B|224:64|304:40|304:40|384:16,2,216.000008239746,4|2|8,3:3|0:3|3:0,0:0:0:0:
288,248,149119,2,0,B|288:320|208:344|208:344|128:368,2,216.000008239746,2|2|8,0:2|0:3|3:0,0:0:0:0:
168,112,150057,6,0,B|192:64|240:64|240:64|272:64|272:64|320:64|344:112,1,216.000008239746,4|8,3:3|3:0,0:0:0:0:
360,192,150525,1,8,0:0:0:0:
456,280,150760,1,2,3:0:0:0:
336,320,150994,2,0,B|312:376|248:376|248:376|216:376,1,144.000005493164,4|8,3:3|3:0,0:0:0:0:
176,248,151463,1,8,1:0:0:0:
176,248,151580,2,0,B|200:192|264:192|264:192|296:192,1,144.000005493164,2|8,0:2|3:0,0:0:0:0:
36,176,152166,5,2,3:0:0:0:
36,48,152400,1,8,0:0:0:0:
156,8,152635,1,10,3:0:0:0:
236,112,152869,1,2,1:2:0:0:
156,216,153103,1,2,3:0:0:0:
196,336,153338,1,8,0:0:0:0:
316,384,153572,1,8,3:0:0:0:
432,328,153807,22,0,P|464:192|432:128,2,216.000008239746,4|2|8,0:2|0:3|3:0,0:0:0:0:
320,228,154744,2,0,P|256:256|192:228,1,144.000005493164,4|2,3:0|1:3,0:0:0:0:
144,168,155096,1,2,3:2:0:0:
144,168,155213,1,8,0:0:0:0:
256,80,155447,1,8,3:0:0:0:
256,192,155682,12,2,159314,3:0:0:0:
