osu file format v14

[General]
AudioFilename: cYsmix - House With Legs 224.mp3
AudioLeadIn: 0
PreviewTime: 46932
Countdown: 1
SampleSet: Normal
StackLeniency: 0.7
Mode: 0
LetterboxInBreaks: 0
WidescreenStoryboard: 1

[Editor]
Bookmarks: 16932,31932,39432,46932,61932,76932,84432,91932,99432,106932,114432,129432,144432,155682
DistanceSpacing: 0.77
BeatDivisor: 4
GridSize: 8
TimelineZoom: 1.1

[Metadata]
Title:House With Legs
TitleUnicode:House With Legs
Artist:cYsmix
ArtistUnicode:cYsmix
Creator:D33d
Version:Easy
Source:osu!
Tags:Mapping with Rewards
BeatmapID:798291
BeatmapSetID:361785

[Difficulty]
HPDrainRate:3
CircleSize:2.5
OverallDifficulty:3
ApproachRate:3
SliderMultiplier:1.44
SliderTickRate:2

[Events]
//Background and Video events
0,0,"osu!cysmix-bgtiny.jpg",0,0
//Break Periods
2,76932,82992
//Storyboard Layer 0 (Background)
//Storyboard Layer 1 (Fail)
//Storyboard Layer 2 (Pass)
//Storyboard Layer 3 (Foreground)
//Storyboard Sound Samples

[TimingPoints]
1932,468.75,4,1,0,65,1,0
16932,-100,4,3,0,65,0,0
23260,-100,4,1,0,75,0,0
46463,-100,4,1,0,85,0,0
46932,-80,4,1,0,85,0,1
76932,-100,4,3,0,65,0,0
91814,-80,4,3,0,65,0,0
98260,-80,4,3,0,90,0,0
99432,-80,4,3,0,75,0,0
106228,-80,4,3,0,90,0,0
106932,-80,4,3,0,75,0,0
114432,-80,4,1,0,85,0,1
144432,-80,4,1,0,85,0,0

[Colours]
Combo1 : 240,215,0
Combo2 : 237,0,140
Combo3 : 0,192,245
Combo4 : 255,102,0

[HitObjects]
0,288,16932,5,4,0:0:0:0:
112,96,17869,1,2,1:2:0:0:
0,96,18338,1,8,0:0:0:0:
56,192,18807,2,0,P|184:264|288:192,1,288,4|8,3:3|0:0,0:0:0:0:
511,191,20682,6,0,P|450:65|319:16,1,288,4|2,0:0|1:3,0:0:0:0:
112,96,22557,1,4,0:0:0:0:
168,192,23025,1,8,0:0:0:0:
224,288,23494,1,4,1:3:0:0:
512,288,24432,5,4,0:0:0:0:
400,96,25369,1,2,0:2:0:0:
512,96,25838,1,8,0:2:0:0:
456,192,26307,2,0,P|328:264|224:192,1,288,4|2,0:3|0:3,0:0:0:0:
1,191,28182,6,0,P|62:65|193:16,1,288,4|2,0:3|1:3,0:0:0:0:
400,96,30057,1,4,0:3:0:0:
344,192,30525,1,8,0:0:0:0:
288,288,30994,1,4,1:2:0:0:
40,128,31932,6,0,B|40:96|40:96|40:56|72:24|112:24|112:24|256:24,1,288,4|4,0:0|0:3,0:0:0:0:
364,24,33338,1,8,0:2:0:0:
472,24,33807,2,0,B|472:56|472:56|472:96|440:128|400:128|400:128|256:128,2,288,4|4|8,0:3|0:3|1:3,0:0:0:0:
304,264,36619,5,2,0:2:0:0:
192,264,37088,1,8,0:2:0:0:
136,360,37557,2,0,B|72:360|72:360|32:360|0:328,2,144,4|8|4,0:3|0:2|0:3,0:0:0:0:
472,360,39432,6,0,B|472:328|472:328|472:288|440:256|400:256|400:256|256:256,1,288,4|4,0:0|0:3,0:0:0:0:
148,256,40838,1,8,0:2:0:0:
40,256,41307,2,0,B|40:288|40:288|40:328|72:360|112:360|112:360|256:360,2,288,4|4|8,0:3|0:3|1:3,0:0:0:0:
200,168,44119,5,2,0:2:0:0:
312,168,44588,1,8,0:2:0:0:
368,264,45057,2,0,B|432:264|432:264|472:264|504:232,1,144,4|8,3:3|0:2,0:0:0:0:
400,48,46463,1,12,0:2:0:0:
256,48,46932,6,0,B|216:112|136:88|136:56|56:32|16:96,1,270,4|10,0:0|0:3,0:0:0:0:
112,280,48338,1,8,0:0:0:0:
256,280,48807,2,0,P|349:143|512:192,1,360,4|8,0:3|0:3,0:0:0:0:
400,280,50213,1,8,0:0:0:0:
288,368,50682,1,4,0:0:0:0:
4,324,51619,5,4,0:3:0:0:
44,192,52088,1,8,0:0:0:0:
84,60,52557,2,0,B|144:16|216:24|216:88|296:88|296:24|368:16|428:60,1,360,6|6,0:2|0:0,0:0:0:0:
84,192,54432,5,4,0:0:0:0:
0,288,54900,1,8,0:0:0:0:
84,380,55369,2,0,P|201:318|212:192,2,270,8|4|8,0:3|0:3|0:0,0:0:0:0:
84,240,57244,5,4,0:2:0:0:
104,104,57713,1,8,0:0:0:0:
232,48,58182,2,0,P|304:128|512:48,1,360,4|4,0:0|1:3,0:0:0:0:
460,296,60057,37,8,0:3:0:0:
324,272,60525,1,8,0:0:0:0:
188,248,60994,1,4,0:3:0:0:
52,224,61463,1,8,0:0:0:0:
456,112,62400,21,8,0:0:0:0:
512,240,62869,1,2,0:2:0:0:
376,224,63338,1,8,0:0:0:0:
328,96,63807,2,0,P|200:16|24:96,1,360,4|8,0:3|0:3,0:0:0:0:
72,224,65213,1,8,0:0:0:0:
120,352,65682,1,4,1:0:0:0:
256,104,66619,5,2,0:3:0:0:
328,224,67088,1,8,0:0:0:0:
400,344,67557,2,0,P|467:316|512:224,2,180,4|8|8,0:3|0:0|0:3,0:0:0:0:
256,344,68963,1,8,0:0:0:0:
56,112,69900,5,8,0:0:0:0:
0,240,70369,1,2,0:2:0:0:
136,224,70838,1,8,0:0:0:0:
184,96,71307,2,0,P|312:16|488:96,1,360,4|4,0:2|0:3,0:0:0:0:
384,192,72713,1,8,0:0:0:0:
428,324,73182,6,0,B|368:368|296:360|296:296|216:296|216:360|144:368|84:324,2,360,4|8|4,0:0|0:3|0:3,0:0:0:0:
256,48,75994,1,8,0:0:0:0:
256,192,76463,1,12,0:2:0:0:
480,128,84432,6,0,P|424:276|208:344,1,396,4|4,0:3|1:2,0:0:0:0:
32,256,86307,6,0,P|88:108|304:40,1,396,4|4,0:3|1:2,0:0:0:0:
512,128,88182,6,0,B|456:220|336:184|336:128|216:100|160:192,1,396,4|4,0:0|1:2,0:0:0:0:
0,312,90057,6,0,B|56:404|176:368|176:312|296:284|352:376,1,396,4|4,0:0|1:2,0:0:0:0:
448,168,91932,5,8,1:2:0:0:
352,224,92400,1,8,1:2:0:0:
256,280,92869,1,8,1:2:0:0:
160,336,93338,1,8,1:2:0:0:
64,216,93807,5,8,1:2:0:0:
160,160,94275,1,8,1:2:0:0:
256,104,94744,1,8,1:2:0:0:
352,48,95213,1,8,1:2:0:0:
472,152,95682,6,0,P|422:225|345:271,1,180,8|8,1:2|1:2,0:0:0:0:
168,272,96619,2,0,P|88:224|40:152,1,180,8|8,1:2|1:2,0:0:0:0:
177,119,97557,6,0,P|285:151|337:119,2,180,12|2|14,1:1|1:3|1:1,0:0:0:0:
512,192,99432,5,4,0:3:0:0:
384,240,99900,1,4,0:0:0:0:
256,288,100369,2,0,L|128:240,1,135,4|4,0:3|1:2,0:0:0:0:
72,28,101307,5,4,1:3:0:0:
216,28,101775,1,8,1:2:0:0:
256,160,102244,1,8,1:3:0:0:
144,236,102713,1,12,1:2:0:0:
32,312,103182,6,0,B|88:400|208:384|128:264|320:248|192:424|384:408|304:288|424:272|480:360,1,495,4|2,1:3|1:3,0:0:0:0:
512,192,105057,5,4,1:3:0:0:
448,80,105525,1,8,1:2:0:0:
384,192,105994,1,4,1:3:0:0:
0,192,106932,5,4,0:3:0:0:
128,240,107400,1,4,0:0:0:0:
256,288,107869,2,0,L|384:240,1,135,4|4,0:3|1:2,0:0:0:0:
440,28,108807,5,4,1:3:0:0:
296,28,109275,1,8,1:2:0:0:
256,160,109744,1,8,1:3:0:0:
368,236,110213,1,12,1:2:0:0:
480,312,110682,6,0,B|424:400|304:384|384:264|192:248|320:424|128:408|208:288|88:272|32:360,1,495,4|2,1:3|1:3,0:0:0:0:
0,192,112557,5,4,1:3:0:0:
64,80,113025,1,8,1:2:0:0:
128,192,113494,1,4,1:3:0:0:
256,48,114432,6,0,B|296:112|376:88|376:56|456:32|496:96,1,270,4|10,0:0|0:3,0:0:0:0:
400,280,115838,1,8,0:0:0:0:
256,280,116307,2,0,P|163:143|0:192,1,360,4|8,0:3|0:3,0:0:0:0:
112,280,117713,1,8,0:0:0:0:
224,368,118182,1,4,0:0:0:0:
508,324,119119,5,4,0:3:0:0:
468,192,119588,1,8,0:0:0:0:
428,60,120057,2,0,B|368:16|296:24|296:88|216:88|216:24|144:16|84:60,1,360,6|6,0:2|0:0,0:0:0:0:
428,192,121932,5,4,0:0:0:0:
512,288,122400,1,8,0:0:0:0:
428,380,122869,2,0,P|311:318|300:192,2,270,8|4|8,0:3|0:3|0:0,0:0:0:0:
428,240,124744,5,4,0:2:0:0:
408,104,125213,1,8,0:0:0:0:
280,48,125682,2,0,P|208:128|0:48,1,360,4|4,0:0|1:3,0:0:0:0:
52,296,127557,37,8,0:3:0:0:
188,272,128025,1,8,0:0:0:0:
324,248,128494,1,4,0:3:0:0:
460,224,128963,1,8,0:0:0:0:
56,112,129900,21,8,0:0:0:0:
0,240,130369,1,2,0:2:0:0:
136,224,130838,1,8,0:0:0:0:
184,96,131307,2,0,P|312:16|488:96,1,360,4|8,0:3|0:3,0:0:0:0:
440,224,132713,1,8,0:0:0:0:
392,352,133182,1,4,1:0:0:0:
256,104,134119,5,2,0:3:0:0:
184,224,134588,1,8,0:0:0:0:
112,344,135057,2,0,P|45:316|0:224,2,180,4|8|8,0:3|0:0|0:3,0:0:0:0:
256,344,136463,1,8,0:0:0:0:
456,112,137400,5,8,0:0:0:0:
512,240,137869,1,2,0:2:0:0:
376,224,138338,1,8,0:0:0:0:
328,96,138807,2,0,P|200:16|24:96,1,360,4|4,0:2|0:3,0:0:0:0:
128,192,140213,1,8,0:0:0:0:
84,324,140682,6,0,B|144:368|216:360|216:296|296:296|296:360|368:368|428:324,2,360,4|8|4,0:0|0:3|0:3,0:0:0:0:
256,48,143494,1,8,0:3:0:0:
256,192,143963,1,12,0:2:0:0:
256,320,144432,6,0,L|436:320,1,180,4|8,3:3|0:0,0:0:0:0:
512,192,145369,2,0,L|331:192,1,180,2|8,0:2|0:0,0:0:0:0:
180,192,146307,2,0,P|235:56|424:64,2,360,4|8|4,3:0|3:0|3:0,0:0:0:0:
404,192,149119,5,2,0:2:0:0:
304,108,149588,1,8,0:0:0:0:
404,20,150057,2,0,B|432:20|432:20|476:20|512:56|512:100|512:100|512:128,1,180,4|8,3:3|0:0,0:0:0:0:
512,256,150994,2,0,B|512:284|512:284|512:328|476:364|432:364|432:364|404:364,1,180,8|8,3:3|0:0,0:0:0:0:
256,320,151932,6,0,L|76:320,1,180,4|8,3:3|0:0,0:0:0:0:
0,192,152869,2,0,L|180:192,1,180,2|8,1:2|0:0,0:0:0:0:
332,192,153807,2,0,P|277:56|88:64,1,360,4|4,0:2|3:0,0:0:0:0:
256,192,155682,12,2,159314,3:0:0:0:
