osu file format v14

[General]
AudioFilename: audio.mp3
AudioLeadIn: 0
PreviewTime: -1
Countdown: 0
SampleSet: None
StackLeniency: 0.7
Mode: 3
LetterboxInBreaks: 0
SpecialStyle: 0
WidescreenStoryboard: 0

[Editor]
DistanceSpacing: 0.8
BeatDivisor: 4
GridSize: 32
TimelineZoom: 1

[Metadata]
Title:Haunted House
TitleUnicode:Haunted House
Artist:cYsmix
ArtistUnicode:cYsmix
Creator:juankristal
Version:Hollow
Source:
Tags:LN guilhermeziat
BeatmapID:2024618
BeatmapSetID:967431

[Difficulty]
HPDrainRate:5
CircleSize:4
OverallDifficulty:8
ApproachRate:5
SliderMultiplier:1.4
SliderTickRate:1

[Events]
//Background and Video events
0,0,"249741.jpg",0,0
//Break Periods
//Storyboard Layer 0 (Background)
//Storyboard Layer 1 (Fail)
//Storyboard Layer 2 (Pass)
//Storyboard Layer 3 (Foreground)
//Storyboard Sound Samples

[TimingPoints]
1392,468.75,4,1,0,42,1,0

[HitObjects]
320,192,1392,128,0,1509:0:0:0:0:
320,192,1626,128,0,2095:0:0:0:0:
448,192,1860,1,0,0:0:0:0:
64,192,2095,128,0,2212:0:0:0:0:
64,192,2329,128,0,2681:0:0:0:0:
448,192,2563,1,0,0:0:0:0:
192,192,2681,128,0,3032:0:0:0:0:
320,192,2798,128,0,3032:0:0:0:0:
64,192,3032,128,0,3267:0:0:0:0:
192,192,3267,128,0,3618:0:0:0:0:
64,192,3501,1,0,0:0:0:0:
320,192,3618,128,0,3970:0:0:0:0:
448,192,3735,128,0,3970:0:0:0:0:
192,192,3970,128,0,4204:0:0:0:0:
320,192,4204,128,0,4673:0:0:0:0:
64,192,4438,128,0,4673:0:0:0:0:
192,192,4673,128,0,5142:0:0:0:0:
448,192,4907,128,0,5142:0:0:0:0:
320,192,5142,128,0,5259:0:0:0:0:
320,192,5376,128,0,5845:0:0:0:0:
64,192,5610,1,0,0:0:0:0:
448,192,5845,128,0,5962:0:0:0:0:
448,192,6079,128,0,6548:0:0:0:0:
64,192,6313,1,0,0:0:0:0:
192,192,6431,128,0,6782:0:0:0:0:
320,192,6548,1,0,0:0:0:0:
64,192,6782,128,0,7017:0:0:0:0:
320,192,7017,128,0,7485:0:0:0:0:
192,192,7251,1,0,0:0:0:0:
448,192,7485,1,0,0:0:0:0:
64,192,7720,128,0,7837:0:0:0:0:
320,192,7837,128,0,7954:0:0:0:0:
192,192,7954,128,0,8657:0:0:0:0:
320,192,8188,1,0,0:0:0:0:
448,192,8423,1,0,0:0:0:0:
64,192,8657,1,0,0:0:0:0:
320,192,8892,128,0,9009:0:0:0:0:
320,192,9126,128,0,9595:0:0:0:0:
448,192,9360,1,0,0:0:0:0:
64,192,9595,128,0,9712:0:0:0:0:
64,192,9829,128,0,10181:0:0:0:0:
448,192,10063,1,0,0:0:0:0:
192,192,10181,128,0,10532:0:0:0:0:
320,192,10298,128,0,10532:0:0:0:0:
64,192,10532,128,0,10767:0:0:0:0:
192,192,10767,128,0,11118:0:0:0:0:
64,192,11001,1,0,0:0:0:0:
320,192,11118,128,0,11470:0:0:0:0:
448,192,11235,128,0,11470:0:0:0:0:
192,192,11470,128,0,11704:0:0:0:0:
320,192,11704,128,0,12173:0:0:0:0:
64,192,11938,128,0,12173:0:0:0:0:
192,192,12173,128,0,12642:0:0:0:0:
448,192,12407,128,0,12642:0:0:0:0:
320,192,12642,128,0,12759:0:0:0:0:
320,192,12876,128,0,13345:0:0:0:0:
64,192,13110,1,0,0:0:0:0:
448,192,13345,128,0,13462:0:0:0:0:
448,192,13579,128,0,14282:0:0:0:0:
64,192,13813,1,0,0:0:0:0:
192,192,13931,128,0,14282:0:0:0:0:
320,192,14048,1,0,0:0:0:0:
64,192,14282,128,0,14517:0:0:0:0:
320,192,14517,128,0,14985:0:0:0:0:
192,192,14751,1,0,0:0:0:0:
448,192,14985,1,0,0:0:0:0:
64,192,15220,128,0,15337:0:0:0:0:
320,192,15337,128,0,15454:0:0:0:0:
192,192,15454,128,0,16157:0:0:0:0:
448,192,15688,1,0,0:0:0:0:
448,192,15923,1,0,0:0:0:0:
448,192,16157,1,0,0:0:0:0:
64,192,16392,128,0,16509:0:0:0:0:
448,192,16392,128,0,18735:0:0:0:0:
64,192,16626,128,0,16860:0:0:0:0:
192,192,16860,1,0,0:0:0:0:
320,192,17095,128,0,17212:0:0:0:0:
320,192,17329,128,0,17563:0:0:0:0:
64,192,17563,1,0,0:0:0:0:
320,192,17681,1,0,0:0:0:0:
192,192,17798,1,0,0:0:0:0:
320,192,18032,128,0,18267:0:0:0:0:
192,192,18267,128,0,18501:0:0:0:0:
320,192,18501,1,0,0:0:0:0:
192,192,18618,1,0,0:0:0:0:
64,192,18735,1,0,0:0:0:0:
192,192,18970,128,0,19204:0:0:0:0:
64,192,19204,128,0,19673:0:0:0:0:
448,192,19438,128,0,19673:0:0:0:0:
192,192,19673,128,0,20142:0:0:0:0:
320,192,19907,128,0,20142:0:0:0:0:
64,192,20142,128,0,22017:0:0:0:0:
448,192,20142,128,0,20259:0:0:0:0:
448,192,20376,128,0,20610:0:0:0:0:
320,192,20610,1,0,0:0:0:0:
192,192,20845,128,0,20962:0:0:0:0:
192,192,21079,128,0,21431:0:0:0:0:
448,192,21313,1,0,0:0:0:0:
320,192,21431,128,0,21782:0:0:0:0:
192,192,21548,1,0,0:0:0:0:
448,192,21782,128,0,22017:0:0:0:0:
320,192,22017,128,0,22485:0:0:0:0:
64,192,22251,1,0,0:0:0:0:
192,192,22485,1,0,0:0:0:0:
448,192,22720,128,0,22837:0:0:0:0:
320,192,22837,128,0,22954:0:0:0:0:
64,192,22954,128,0,23423:0:0:0:0:
192,192,23188,1,0,0:0:0:0:
320,192,23423,1,0,0:0:0:0:
448,192,23657,1,0,0:0:0:0:
192,192,23892,128,0,24009:0:0:0:0:
448,192,23892,128,0,24829:0:0:0:0:
192,192,24126,128,0,24360:0:0:0:0:
320,192,24360,1,0,0:0:0:0:
64,192,24595,128,0,24712:0:0:0:0:
64,192,24829,128,0,25063:0:0:0:0:
320,192,24829,128,0,25767:0:0:0:0:
192,192,25063,1,0,0:0:0:0:
64,192,25181,1,0,0:0:0:0:
448,192,25298,1,0,0:0:0:0:
64,192,25532,128,0,25767:0:0:0:0:
192,192,25767,128,0,26704:0:0:0:0:
448,192,25767,128,0,26001:0:0:0:0:
64,192,26001,1,0,0:0:0:0:
448,192,26118,1,0,0:0:0:0:
320,192,26235,1,0,0:0:0:0:
448,192,26470,1,0,0:0:0:0:
64,192,26704,128,0,27642:0:0:0:0:
320,192,26704,128,0,27407:0:0:0:0:
448,192,26938,128,0,27173:0:0:0:0:
192,192,27173,128,0,27407:0:0:0:0:
448,192,27407,1,0,0:0:0:0:
192,192,27642,128,0,27759:0:0:0:0:
320,192,27642,128,0,29517:0:0:0:0:
448,192,27642,128,0,28579:0:0:0:0:
192,192,27876,128,0,28110:0:0:0:0:
64,192,28345,128,0,28462:0:0:0:0:
64,192,28579,128,0,28931:0:0:0:0:
192,192,28579,128,0,31392:0:0:0:0:
448,192,28931,128,0,29282:0:0:0:0:
64,192,29282,128,0,29399:0:0:0:0:
64,192,29517,128,0,33267:0:0:0:0:
448,192,29517,128,0,30220:0:0:0:0:
320,192,30220,128,0,30337:0:0:0:0:
448,192,30337,128,0,31392:0:0:0:0:
320,192,30454,128,0,31392:0:0:0:0:
448,192,31860,1,0,0:0:0:0:
320,192,32095,1,0,0:0:0:0:
192,192,32329,128,0,35142:0:0:0:0:
320,192,32563,1,0,0:0:0:0:
448,192,32798,1,0,0:0:0:0:
320,192,33032,1,0,0:0:0:0:
320,192,33501,1,0,0:0:0:0:
448,192,33735,1,0,0:0:0:0:
320,192,33970,1,0,0:0:0:0:
64,192,34204,128,0,35142:0:0:0:0:
320,192,34438,1,0,0:0:0:0:
448,192,34673,1,0,0:0:0:0:
320,192,34907,1,0,0:0:0:0:
448,192,35142,128,0,38774:0:0:0:0:
192,192,35376,1,0,0:0:0:0:
64,192,35610,1,0,0:0:0:0:
192,192,35845,1,0,0:0:0:0:
320,192,36079,1,0,0:0:0:0:
192,192,36313,1,0,0:0:0:0:
64,192,36548,1,0,0:0:0:0:
320,192,36782,1,0,0:0:0:0:
192,192,37017,1,0,0:0:0:0:
320,192,37251,1,0,0:0:0:0:
64,192,37485,1,0,0:0:0:0:
192,192,37720,1,0,0:0:0:0:
320,192,37954,1,0,0:0:0:0:
64,192,38188,1,0,0:0:0:0:
192,192,38423,128,0,38774:0:0:0:0:
64,192,38657,1,0,0:0:0:0:
64,192,38892,1,0,0:0:0:0:
320,192,38892,128,0,39126:0:0:0:0:
192,192,39126,128,0,39243:0:0:0:0:
64,192,39243,128,0,39360:0:0:0:0:
320,192,39360,1,0,0:0:0:0:
448,192,39360,128,0,39595:0:0:0:0:
64,192,39595,1,0,0:0:0:0:
448,192,39712,128,0,39829:0:0:0:0:
192,192,39829,128,0,40005:0:0:0:0:
448,192,40005,128,0,40181:0:0:0:0:
192,192,40181,128,0,40298:0:0:0:0:
320,192,40298,1,0,0:0:0:0:
448,192,40298,128,0,40532:0:0:0:0:
64,192,40532,1,0,0:0:0:0:
448,192,40649,1,0,0:0:0:0:
320,192,40767,128,0,41001:0:0:0:0:
448,192,41001,128,0,41118:0:0:0:0:
320,192,41118,128,0,41235:0:0:0:0:
64,192,41235,128,0,41470:0:0:0:0:
192,192,41235,1,0,0:0:0:0:
320,192,41470,128,0,41704:0:0:0:0:
192,192,41704,1,0,0:0:0:0:
448,192,41821,1,0,0:0:0:0:
64,192,41938,1,0,0:0:0:0:
448,192,42056,1,0,0:0:0:0:
64,192,42173,1,0,0:0:0:0:
192,192,42173,128,0,42407:0:0:0:0:
320,192,42407,128,0,42524:0:0:0:0:
64,192,42524,128,0,42642:0:0:0:0:
448,192,42642,128,0,42876:0:0:0:0:
64,192,42876,128,0,42993:0:0:0:0:
192,192,42993,128,0,43110:0:0:0:0:
320,192,43110,128,0,43345:0:0:0:0:
448,192,43110,1,0,0:0:0:0:
64,192,43345,128,0,43462:0:0:0:0:
320,192,43462,128,0,43579:0:0:0:0:
192,192,43579,128,0,43755:0:0:0:0:
320,192,43755,128,0,43931:0:0:0:0:
192,192,43931,128,0,44048:0:0:0:0:
320,192,44048,128,0,44282:0:0:0:0:
448,192,44048,1,0,0:0:0:0:
64,192,44282,128,0,44399:0:0:0:0:
320,192,44399,128,0,44517:0:0:0:0:
448,192,44517,128,0,44751:0:0:0:0:
192,192,44751,128,0,44868:0:0:0:0:
448,192,44868,128,0,44985:0:0:0:0:
64,192,44985,128,0,45220:0:0:0:0:
192,192,44985,1,0,0:0:0:0:
448,192,45220,128,0,45454:0:0:0:0:
192,192,45454,1,0,0:0:0:0:
320,192,45571,128,0,45688:0:0:0:0:
64,192,45688,128,0,45806:0:0:0:0:
320,192,45806,128,0,45923:0:0:0:0:
64,192,45923,1,0,0:0:0:0:
192,192,45923,128,0,46157:0:0:0:0:
448,192,46157,128,0,46392:0:0:0:0:
64,192,46274,128,0,46392:0:0:0:0:
320,192,46392,128,0,46626:0:0:0:0:
192,192,46626,128,0,46860:0:0:0:0:
448,192,46743,128,0,46860:0:0:0:0:
64,192,46860,128,0,47095:0:0:0:0:
320,192,46860,1,0,0:0:0:0:
192,192,47095,128,0,47212:0:0:0:0:
64,192,47212,128,0,47329:0:0:0:0:
448,192,47329,128,0,47505:0:0:0:0:
64,192,47505,128,0,47681:0:0:0:0:
448,192,47681,128,0,48032:0:0:0:0:
64,192,47798,128,0,48032:0:0:0:0:
320,192,47798,1,0,0:0:0:0:
192,192,48032,128,0,48149:0:0:0:0:
64,192,48149,128,0,48267:0:0:0:0:
320,192,48267,128,0,48501:0:0:0:0:
64,192,48501,128,0,48618:0:0:0:0:
320,192,48618,128,0,48735:0:0:0:0:
192,192,48735,128,0,48970:0:0:0:0:
448,192,48735,1,0,0:0:0:0:
320,192,48970,128,0,49204:0:0:0:0:
64,192,49204,1,0,0:0:0:0:
192,192,49321,128,0,49556:0:0:0:0:
320,192,49438,128,0,49673:0:0:0:0:
64,192,49556,128,0,49907:0:0:0:0:
192,192,49673,1,0,0:0:0:0:
448,192,49673,128,0,49907:0:0:0:0:
320,192,49907,128,0,50142:0:0:0:0:
192,192,50024,128,0,50142:0:0:0:0:
64,192,50142,128,0,50376:0:0:0:0:
448,192,50376,128,0,50610:0:0:0:0:
192,192,50493,128,0,50962:0:0:0:0:
64,192,50610,1,0,0:0:0:0:
320,192,50610,128,0,50845:0:0:0:0:
448,192,50845,128,0,50962:0:0:0:0:
320,192,50962,128,0,51079:0:0:0:0:
192,192,51079,128,0,51255:0:0:0:0:
320,192,51255,128,0,51431:0:0:0:0:
192,192,51431,128,0,51899:0:0:0:0:
64,192,51548,1,0,0:0:0:0:
320,192,51548,128,0,51782:0:0:0:0:
448,192,51782,128,0,52017:0:0:0:0:
320,192,51899,128,0,52017:0:0:0:0:
64,192,52017,128,0,52251:0:0:0:0:
320,192,52251,128,0,52368:0:0:0:0:
64,192,52368,128,0,52485:0:0:0:0:
192,192,52485,1,0,0:0:0:0:
448,192,52485,128,0,52720:0:0:0:0:
64,192,52720,128,0,52954:0:0:0:0:
320,192,52954,128,0,53892:0:0:0:0:
192,192,53071,1,0,0:0:0:0:
64,192,53188,1,0,0:0:0:0:
448,192,53306,1,0,0:0:0:0:
64,192,53423,1,0,0:0:0:0:
192,192,53423,1,0,0:0:0:0:
192,192,53892,128,0,54243:0:0:0:0:
320,192,54243,128,0,54595:0:0:0:0:
64,192,54595,128,0,54829:0:0:0:0:
448,192,54829,128,0,55298:0:0:0:0:
64,192,55298,128,0,55767:0:0:0:0:
192,192,55298,128,0,55532:0:0:0:0:
320,192,55767,1,0,0:0:0:0:
448,192,55767,128,0,56118:0:0:0:0:
192,192,55884,128,0,56001:0:0:0:0:
64,192,56001,128,0,56118:0:0:0:0:
192,192,56118,128,0,56235:0:0:0:0:
320,192,56235,1,0,0:0:0:0:
448,192,56235,1,0,0:0:0:0:
192,192,56352,128,0,56470:0:0:0:0:
320,192,56470,128,0,56704:0:0:0:0:
192,192,56704,1,0,0:0:0:0:
320,192,56821,128,0,56938:0:0:0:0:
64,192,56938,128,0,57173:0:0:0:0:
192,192,57056,1,0,0:0:0:0:
320,192,57173,1,0,0:0:0:0:
448,192,57173,1,0,0:0:0:0:
192,192,57290,128,0,57407:0:0:0:0:
448,192,57407,128,0,57524:0:0:0:0:
192,192,57524,128,0,57642:0:0:0:0:
64,192,57642,1,0,0:0:0:0:
320,192,57759,128,0,57876:0:0:0:0:
192,192,57876,128,0,57993:0:0:0:0:
320,192,57993,128,0,58110:0:0:0:0:
64,192,58110,128,0,58345:0:0:0:0:
448,192,58110,1,0,0:0:0:0:
448,192,58345,128,0,58579:0:0:0:0:
192,192,58462,128,0,58579:0:0:0:0:
320,192,58579,128,0,58696:0:0:0:0:
448,192,58696,128,0,58813:0:0:0:0:
64,192,58813,128,0,59048:0:0:0:0:
320,192,59048,128,0,59282:0:0:0:0:
448,192,59048,128,0,59282:0:0:0:0:
64,192,59282,128,0,59517:0:0:0:0:
192,192,59282,128,0,59517:0:0:0:0:
320,192,59517,1,0,0:0:0:0:
448,192,59634,128,0,59751:0:0:0:0:
64,192,59751,128,0,59868:0:0:0:0:
448,192,59868,128,0,59985:0:0:0:0:
192,192,59985,1,0,0:0:0:0:
320,192,59985,128,0,60220:0:0:0:0:
64,192,60102,1,0,0:0:0:0:
192,192,60220,128,0,60454:0:0:0:0:
448,192,60454,1,0,0:0:0:0:
192,192,60571,128,0,60688:0:0:0:0:
320,192,60688,128,0,60923:0:0:0:0:
448,192,60806,1,0,0:0:0:0:
64,192,60923,1,0,0:0:0:0:
192,192,60923,1,0,0:0:0:0:
448,192,61040,128,0,61157:0:0:0:0:
64,192,61157,128,0,61274:0:0:0:0:
448,192,61274,128,0,61392:0:0:0:0:
192,192,61392,1,0,0:0:0:0:
64,192,61509,128,0,61626:0:0:0:0:
320,192,61626,128,0,61743:0:0:0:0:
64,192,61743,128,0,61860:0:0:0:0:
192,192,61860,128,0,62095:0:0:0:0:
448,192,61860,1,0,0:0:0:0:
448,192,62095,128,0,62329:0:0:0:0:
64,192,62212,128,0,62329:0:0:0:0:
192,192,62329,128,0,62563:0:0:0:0:
320,192,62563,128,0,62681:0:0:0:0:
448,192,62563,128,0,62681:0:0:0:0:
64,192,62798,1,0,0:0:0:0:
320,192,62798,128,0,62915:0:0:0:0:
448,192,62798,128,0,62915:0:0:0:0:
64,192,63032,128,0,63267:0:0:0:0:
448,192,63032,128,0,63267:0:0:0:0:
320,192,63267,1,0,0:0:0:0:
64,192,63384,128,0,63501:0:0:0:0:
448,192,63501,128,0,63618:0:0:0:0:
64,192,63618,128,0,63735:0:0:0:0:
192,192,63735,1,0,0:0:0:0:
320,192,63735,1,0,0:0:0:0:
448,192,63852,128,0,63970:0:0:0:0:
192,192,63970,128,0,64204:0:0:0:0:
448,192,64204,1,0,0:0:0:0:
192,192,64321,128,0,64438:0:0:0:0:
320,192,64438,128,0,64673:0:0:0:0:
448,192,64556,1,0,0:0:0:0:
64,192,64673,1,0,0:0:0:0:
192,192,64673,1,0,0:0:0:0:
448,192,64790,128,0,64907:0:0:0:0:
64,192,64907,128,0,65024:0:0:0:0:
448,192,65024,128,0,65142:0:0:0:0:
320,192,65142,1,0,0:0:0:0:
192,192,65259,128,0,65376:0:0:0:0:
448,192,65376,128,0,65493:0:0:0:0:
192,192,65493,128,0,65610:0:0:0:0:
64,192,65610,1,0,0:0:0:0:
320,192,65610,128,0,65845:0:0:0:0:
64,192,65845,128,0,66079:0:0:0:0:
192,192,65962,128,0,66079:0:0:0:0:
448,192,66079,128,0,66196:0:0:0:0:
64,192,66196,128,0,66313:0:0:0:0:
320,192,66313,128,0,66548:0:0:0:0:
64,192,66548,128,0,66782:0:0:0:0:
192,192,66548,128,0,66782:0:0:0:0:
320,192,66782,128,0,67017:0:0:0:0:
448,192,66782,128,0,67017:0:0:0:0:
64,192,67017,1,0,0:0:0:0:
320,192,67134,128,0,67251:0:0:0:0:
448,192,67251,128,0,67368:0:0:0:0:
320,192,67368,128,0,67485:0:0:0:0:
64,192,67485,128,0,67720:0:0:0:0:
192,192,67485,1,0,0:0:0:0:
320,192,67602,1,0,0:0:0:0:
192,192,67720,128,0,67954:0:0:0:0:
448,192,67954,1,0,0:0:0:0:
192,192,68071,128,0,68188:0:0:0:0:
64,192,68188,128,0,68423:0:0:0:0:
448,192,68306,1,0,0:0:0:0:
192,192,68423,1,0,0:0:0:0:
320,192,68423,1,0,0:0:0:0:
448,192,68540,128,0,68657:0:0:0:0:
192,192,68657,128,0,68774:0:0:0:0:
448,192,68774,128,0,68892:0:0:0:0:
64,192,68892,128,0,69243:0:0:0:0:
320,192,68892,128,0,69126:0:0:0:0:
192,192,69243,128,0,69360:0:0:0:0:
320,192,69360,128,0,69829:0:0:0:0:
448,192,69360,128,0,69595:0:0:0:0:
192,192,69595,128,0,69829:0:0:0:0:
64,192,69829,128,0,70181:0:0:0:0:
448,192,69829,128,0,70063:0:0:0:0:
320,192,70063,128,0,70298:0:0:0:0:
64,192,70298,128,0,70767:0:0:0:0:
192,192,70298,128,0,70532:0:0:0:0:
448,192,70298,128,0,70415:0:0:0:0:
320,192,70415,128,0,70649:0:0:0:0:
448,192,70532,128,0,70649:0:0:0:0:
192,192,70649,128,0,70767:0:0:0:0:
320,192,70767,1,0,0:0:0:0:
448,192,70767,128,0,70884:0:0:0:0:
192,192,70884,128,0,71001:0:0:0:0:
64,192,71001,128,0,71235:0:0:0:0:
320,192,71001,128,0,71118:0:0:0:0:
192,192,71118,128,0,71235:0:0:0:0:
320,192,71235,1,0,0:0:0:0:
448,192,71235,128,0,71352:0:0:0:0:
192,192,71352,128,0,71470:0:0:0:0:
64,192,71470,128,0,71587:0:0:0:0:
320,192,71470,128,0,71704:0:0:0:0:
192,192,71704,128,0,71821:0:0:0:0:
320,192,71821,128,0,71938:0:0:0:0:
64,192,71938,128,0,72173:0:0:0:0:
448,192,71938,128,0,72056:0:0:0:0:
192,192,72056,1,0,0:0:0:0:
320,192,72173,128,0,72290:0:0:0:0:
448,192,72173,1,0,0:0:0:0:
192,192,72290,128,0,72407:0:0:0:0:
64,192,72407,128,0,72524:0:0:0:0:
448,192,72407,128,0,72642:0:0:0:0:
192,192,72524,128,0,72642:0:0:0:0:
320,192,72642,128,0,72759:0:0:0:0:
448,192,72759,128,0,72876:0:0:0:0:
192,192,72876,128,0,73110:0:0:0:0:
448,192,72993,128,0,73110:0:0:0:0:
64,192,73110,128,0,73345:0:0:0:0:
448,192,73345,128,0,73579:0:0:0:0:
192,192,73462,128,0,73579:0:0:0:0:
320,192,73579,128,0,73813:0:0:0:0:
448,192,73696,128,0,73813:0:0:0:0:
64,192,73813,128,0,74048:0:0:0:0:
320,192,74048,128,0,74282:0:0:0:0:
448,192,74048,128,0,74282:0:0:0:0:
64,192,74282,128,0,74517:0:0:0:0:
192,192,74282,128,0,74517:0:0:0:0:
320,192,74517,128,0,74634:0:0:0:0:
448,192,74634,128,0,74751:0:0:0:0:
64,192,74751,128,0,74985:0:0:0:0:
192,192,74751,128,0,74868:0:0:0:0:
448,192,74868,128,0,74985:0:0:0:0:
192,192,74985,128,0,75102:0:0:0:0:
320,192,74985,128,0,75220:0:0:0:0:
64,192,75220,128,0,75337:0:0:0:0:
448,192,75220,128,0,75454:0:0:0:0:
320,192,75454,128,0,75571:0:0:0:0:
448,192,75571,128,0,75688:0:0:0:0:
192,192,75688,128,0,75806:0:0:0:0:
320,192,75688,128,0,75923:0:0:0:0:
64,192,75923,1,0,0:0:0:0:
192,192,75923,128,0,76040:0:0:0:0:
448,192,76040,128,0,76157:0:0:0:0:
64,192,76157,128,0,76274:0:0:0:0:
320,192,76157,128,0,76392:0:0:0:0:
448,192,76274,128,0,76392:0:0:0:0:
192,192,76392,128,0,76509:0:0:0:0:
64,192,76509,128,0,76626:0:0:0:0:
320,192,76626,128,0,76860:0:0:0:0:
64,192,76743,128,0,76860:0:0:0:0:
192,192,76860,1,0,0:0:0:0:
448,192,76860,128,0,77095:0:0:0:0:
320,192,77095,128,0,77329:0:0:0:0:
64,192,77212,128,0,77329:0:0:0:0:
192,192,77329,128,0,77563:0:0:0:0:
320,192,77563,128,0,77681:0:0:0:0:
448,192,77563,128,0,77681:0:0:0:0:
64,192,77798,1,0,0:0:0:0:
320,192,77798,128,0,77915:0:0:0:0:
448,192,77798,128,0,77915:0:0:0:0:
64,192,78032,128,0,78267:0:0:0:0:
192,192,78032,128,0,78267:0:0:0:0:
448,192,78267,128,0,78384:0:0:0:0:
192,192,78384,128,0,78501:0:0:0:0:
64,192,78501,128,0,78735:0:0:0:0:
320,192,78501,128,0,78618:0:0:0:0:
192,192,78618,128,0,78735:0:0:0:0:
320,192,78735,1,0,0:0:0:0:
448,192,78735,128,0,78852:0:0:0:0:
192,192,78852,128,0,78970:0:0:0:0:
64,192,78970,128,0,79087:0:0:0:0:
320,192,78970,128,0,79204:0:0:0:0:
192,192,79204,128,0,79321:0:0:0:0:
320,192,79321,128,0,79438:0:0:0:0:
64,192,79438,128,0,79673:0:0:0:0:
448,192,79438,128,0,79556:0:0:0:0:
192,192,79556,1,0,0:0:0:0:
320,192,79673,128,0,79790:0:0:0:0:
448,192,79673,1,0,0:0:0:0:
192,192,79790,128,0,79907:0:0:0:0:
64,192,79907,128,0,80024:0:0:0:0:
448,192,79907,128,0,80142:0:0:0:0:
192,192,80024,128,0,80142:0:0:0:0:
320,192,80142,128,0,80259:0:0:0:0:
448,192,80259,128,0,80376:0:0:0:0:
64,192,80376,128,0,80610:0:0:0:0:
192,192,80376,128,0,80493:0:0:0:0:
448,192,80493,128,0,80610:0:0:0:0:
192,192,80610,128,0,80845:0:0:0:0:
320,192,80610,128,0,80727:0:0:0:0:
64,192,80845,128,0,80962:0:0:0:0:
448,192,80845,128,0,81079:0:0:0:0:
320,192,80962,128,0,81079:0:0:0:0:
64,192,81079,128,0,81313:0:0:0:0:
192,192,81196,128,0,81313:0:0:0:0:
320,192,81313,128,0,81548:0:0:0:0:
448,192,81431,128,0,81548:0:0:0:0:
64,192,81548,128,0,81782:0:0:0:0:
192,192,81548,128,0,81782:0:0:0:0:
320,192,81782,128,0,82017:0:0:0:0:
448,192,81782,128,0,82017:0:0:0:0:
192,192,82017,128,0,82134:0:0:0:0:
64,192,82134,128,0,82251:0:0:0:0:
320,192,82251,128,0,82368:0:0:0:0:
448,192,82251,128,0,82485:0:0:0:0:
64,192,82368,128,0,82485:0:0:0:0:
192,192,82485,128,0,82720:0:0:0:0:
320,192,82485,128,0,82602:0:0:0:0:
64,192,82720,128,0,82954:0:0:0:0:
448,192,82720,128,0,82837:0:0:0:0:
192,192,82954,128,0,83071:0:0:0:0:
64,192,83071,128,0,83188:0:0:0:0:
192,192,83188,128,0,83423:0:0:0:0:
320,192,83188,128,0,83306:0:0:0:0:
320,192,83423,128,0,83540:0:0:0:0:
448,192,83423,1,0,0:0:0:0:
64,192,83540,128,0,83657:0:0:0:0:
192,192,83657,128,0,83892:0:0:0:0:
448,192,83657,128,0,83774:0:0:0:0:
64,192,83774,128,0,83892:0:0:0:0:
320,192,83892,128,0,84243:0:0:0:0:
448,192,83892,128,0,84126:0:0:0:0:
192,192,84009,1,0,0:0:0:0:
64,192,84126,128,0,84360:0:0:0:0:
448,192,84243,128,0,84360:0:0:0:0:
192,192,84360,128,0,84595:0:0:0:0:
320,192,84360,128,0,84477:0:0:0:0:
64,192,84477,1,0,0:0:0:0:
320,192,84595,128,0,84829:0:0:0:0:
192,192,84712,1,0,0:0:0:0:
64,192,84829,128,0,84946:0:0:0:0:
448,192,84829,128,0,85063:0:0:0:0:
320,192,84946,1,0,0:0:0:0:
64,192,85063,128,0,85298:0:0:0:0:
192,192,85063,128,0,85298:0:0:0:0:
320,192,85298,128,0,85532:0:0:0:0:
448,192,85298,128,0,85649:0:0:0:0:
64,192,85415,128,0,85649:0:0:0:0:
192,192,85532,128,0,85649:0:0:0:0:
320,192,85649,128,0,85767:0:0:0:0:
64,192,85767,1,0,0:0:0:0:
192,192,85767,1,0,0:0:0:0:
448,192,85767,128,0,86235:0:0:0:0:
320,192,86118,1,0,0:0:0:0:
64,192,86235,1,0,0:0:0:0:
192,192,86235,128,0,86587:0:0:0:0:
448,192,86352,128,0,86587:0:0:0:0:
320,192,86470,128,0,86704:0:0:0:0:
64,192,86587,128,0,86704:0:0:0:0:
192,192,86704,128,0,87056:0:0:0:0:
448,192,86704,128,0,86938:0:0:0:0:
64,192,86938,128,0,87056:0:0:0:0:
320,192,87056,128,0,87407:0:0:0:0:
64,192,87173,1,0,0:0:0:0:
192,192,87173,128,0,87290:0:0:0:0:
64,192,87407,128,0,87993:0:0:0:0:
448,192,87407,128,0,87642:0:0:0:0:
192,192,87642,128,0,88110:0:0:0:0:
320,192,87876,1,0,0:0:0:0:
64,192,88110,1,0,0:0:0:0:
448,192,88110,128,0,88227:0:0:0:0:
320,192,88227,1,0,0:0:0:0:
448,192,88345,128,0,88462:0:0:0:0:
320,192,88462,128,0,88579:0:0:0:0:
192,192,88579,128,0,88696:0:0:0:0:
320,192,88696,1,0,0:0:0:0:
192,192,88813,128,0,88931:0:0:0:0:
64,192,88931,128,0,89048:0:0:0:0:
320,192,89048,1,0,0:0:0:0:
448,192,89048,128,0,89517:0:0:0:0:
64,192,89165,128,0,89399:0:0:0:0:
192,192,89282,128,0,89399:0:0:0:0:
320,192,89399,128,0,89517:0:0:0:0:
64,192,89517,128,0,89985:0:0:0:0:
192,192,89517,1,0,0:0:0:0:
448,192,89868,1,0,0:0:0:0:
192,192,89985,1,0,0:0:0:0:
320,192,89985,128,0,90337:0:0:0:0:
448,192,90102,128,0,90337:0:0:0:0:
192,192,90220,128,0,90454:0:0:0:0:
64,192,90337,128,0,90454:0:0:0:0:
320,192,90454,128,0,90688:0:0:0:0:
448,192,90454,128,0,90806:0:0:0:0:
64,192,90688,128,0,90806:0:0:0:0:
192,192,90806,128,0,91040:0:0:0:0:
64,192,90923,1,0,0:0:0:0:
320,192,90923,128,0,91040:0:0:0:0:
64,192,91157,128,0,91860:0:0:0:0:
448,192,91157,128,0,91392:0:0:0:0:
192,192,91392,128,0,91860:0:0:0:0:
320,192,91626,128,0,91743:0:0:0:0:
320,192,91860,128,0,91977:0:0:0:0:
448,192,91860,1,0,0:0:0:0:
192,192,91977,128,0,92095:0:0:0:0:
448,192,92212,128,0,92329:0:0:0:0:
320,192,92329,128,0,92446:0:0:0:0:
448,192,92446,128,0,92563:0:0:0:0:
320,192,92563,128,0,92681:0:0:0:0:
192,192,92681,128,0,92798:0:0:0:0:
64,192,92798,128,0,92915:0:0:0:0:
448,192,92798,128,0,93149:0:0:0:0:
192,192,92915,128,0,93267:0:0:0:0:
320,192,93032,128,0,93149:0:0:0:0:
64,192,93149,128,0,93267:0:0:0:0:
448,192,93267,128,0,93735:0:0:0:0:
320,192,93618,1,0,0:0:0:0:
64,192,93735,1,0,0:0:0:0:
192,192,93735,128,0,94087:0:0:0:0:
448,192,93852,128,0,94087:0:0:0:0:
320,192,93970,128,0,94204:0:0:0:0:
64,192,94087,128,0,94204:0:0:0:0:
192,192,94204,128,0,94556:0:0:0:0:
448,192,94204,128,0,94438:0:0:0:0:
64,192,94438,128,0,94556:0:0:0:0:
320,192,94556,128,0,94907:0:0:0:0:
64,192,94673,1,0,0:0:0:0:
192,192,94673,128,0,94790:0:0:0:0:
64,192,94907,128,0,95493:0:0:0:0:
448,192,94907,128,0,95142:0:0:0:0:
192,192,95142,128,0,95610:0:0:0:0:
320,192,95376,1,0,0:0:0:0:
64,192,95610,1,0,0:0:0:0:
448,192,95610,128,0,95727:0:0:0:0:
320,192,95727,1,0,0:0:0:0:
448,192,95845,128,0,95962:0:0:0:0:
320,192,95962,128,0,96079:0:0:0:0:
192,192,96079,128,0,96196:0:0:0:0:
448,192,96196,1,0,0:0:0:0:
192,192,96313,128,0,96431:0:0:0:0:
64,192,96431,128,0,96548:0:0:0:0:
320,192,96548,1,0,0:0:0:0:
448,192,96548,128,0,97017:0:0:0:0:
64,192,96665,128,0,96899:0:0:0:0:
192,192,96782,128,0,96899:0:0:0:0:
320,192,96899,128,0,97017:0:0:0:0:
64,192,97017,128,0,97485:0:0:0:0:
192,192,97017,1,0,0:0:0:0:
448,192,97368,1,0,0:0:0:0:
192,192,97485,1,0,0:0:0:0:
320,192,97485,128,0,97837:0:0:0:0:
448,192,97602,128,0,97837:0:0:0:0:
192,192,97720,128,0,97954:0:0:0:0:
64,192,97837,128,0,97954:0:0:0:0:
320,192,97954,128,0,98188:0:0:0:0:
448,192,97954,128,0,98306:0:0:0:0:
64,192,98188,128,0,98306:0:0:0:0:
192,192,98306,128,0,98540:0:0:0:0:
64,192,98423,1,0,0:0:0:0:
320,192,98423,128,0,98540:0:0:0:0:
64,192,98657,128,0,99243:0:0:0:0:
448,192,98657,128,0,98892:0:0:0:0:
192,192,98892,128,0,99360:0:0:0:0:
320,192,99126,128,0,99243:0:0:0:0:
448,192,99243,128,0,99360:0:0:0:0:
64,192,99360,1,0,0:0:0:0:
320,192,99360,128,0,99477:0:0:0:0:
192,192,99477,128,0,99595:0:0:0:0:
448,192,99712,128,0,99829:0:0:0:0:
64,192,99829,128,0,99946:0:0:0:0:
448,192,99946,128,0,100063:0:0:0:0:
64,192,100063,128,0,100181:0:0:0:0:
192,192,100181,128,0,100298:0:0:0:0:
320,192,100298,1,0,0:0:0:0:
448,192,100298,1,0,0:0:0:0:
320,192,100767,128,0,100884:0:0:0:0:
320,192,101001,128,0,101470:0:0:0:0:
448,192,101235,1,0,0:0:0:0:
64,192,101470,128,0,101587:0:0:0:0:
64,192,101704,128,0,102056:0:0:0:0:
448,192,101938,1,0,0:0:0:0:
192,192,102056,128,0,102407:0:0:0:0:
320,192,102173,128,0,102407:0:0:0:0:
64,192,102407,128,0,102642:0:0:0:0:
192,192,102642,128,0,102993:0:0:0:0:
64,192,102876,1,0,0:0:0:0:
320,192,102993,128,0,103345:0:0:0:0:
448,192,103110,128,0,103345:0:0:0:0:
192,192,103345,128,0,103579:0:0:0:0:
320,192,103579,128,0,104048:0:0:0:0:
64,192,103813,128,0,104048:0:0:0:0:
192,192,104048,128,0,104517:0:0:0:0:
64,192,104282,128,0,104517:0:0:0:0:
448,192,104282,128,0,104399:0:0:0:0:
320,192,104517,128,0,104634:0:0:0:0:
448,192,104517,1,0,0:0:0:0:
320,192,104751,128,0,105220:0:0:0:0:
64,192,104985,1,0,0:0:0:0:
192,192,104985,1,0,0:0:0:0:
448,192,105220,128,0,105337:0:0:0:0:
192,192,105454,1,0,0:0:0:0:
448,192,105454,128,0,105923:0:0:0:0:
64,192,105688,1,0,0:0:0:0:
192,192,105806,128,0,106157:0:0:0:0:
64,192,105923,1,0,0:0:0:0:
320,192,105923,1,0,0:0:0:0:
64,192,106157,128,0,106392:0:0:0:0:
320,192,106392,128,0,106860:0:0:0:0:
448,192,106392,1,0,0:0:0:0:
192,192,106626,1,0,0:0:0:0:
64,192,106860,1,0,0:0:0:0:
448,192,106860,1,0,0:0:0:0:
64,192,107095,128,0,107212:0:0:0:0:
320,192,107212,128,0,107329:0:0:0:0:
64,192,107329,1,0,0:0:0:0:
192,192,107329,128,0,108032:0:0:0:0:
320,192,107563,1,0,0:0:0:0:
64,192,107798,1,0,0:0:0:0:
448,192,107798,1,0,0:0:0:0:
64,192,108032,128,0,108267:0:0:0:0:
320,192,108267,128,0,108384:0:0:0:0:
448,192,108267,1,0,0:0:0:0:
320,192,108501,128,0,108970:0:0:0:0:
192,192,108735,1,0,0:0:0:0:
448,192,108735,1,0,0:0:0:0:
64,192,108970,128,0,109087:0:0:0:0:
64,192,109204,128,0,109556:0:0:0:0:
192,192,109204,1,0,0:0:0:0:
448,192,109438,1,0,0:0:0:0:
192,192,109556,128,0,109907:0:0:0:0:
64,192,109673,1,0,0:0:0:0:
320,192,109673,128,0,109907:0:0:0:0:
64,192,109907,128,0,110142:0:0:0:0:
192,192,110142,128,0,110493:0:0:0:0:
320,192,110142,1,0,0:0:0:0:
64,192,110376,1,0,0:0:0:0:
320,192,110493,128,0,110845:0:0:0:0:
64,192,110610,1,0,0:0:0:0:
448,192,110610,128,0,110845:0:0:0:0:
192,192,110845,128,0,111079:0:0:0:0:
320,192,111079,128,0,111548:0:0:0:0:
448,192,111079,1,0,0:0:0:0:
64,192,111313,128,0,111548:0:0:0:0:
192,192,111548,128,0,112017:0:0:0:0:
448,192,111548,1,0,0:0:0:0:
64,192,111782,128,0,112017:0:0:0:0:
320,192,112017,128,0,112134:0:0:0:0:
448,192,112017,1,0,0:0:0:0:
320,192,112251,128,0,112720:0:0:0:0:
64,192,112485,1,0,0:0:0:0:
192,192,112485,1,0,0:0:0:0:
448,192,112720,128,0,112837:0:0:0:0:
192,192,112954,1,0,0:0:0:0:
448,192,112954,128,0,113657:0:0:0:0:
64,192,113188,1,0,0:0:0:0:
192,192,113306,128,0,113657:0:0:0:0:
64,192,113423,1,0,0:0:0:0:
320,192,113423,1,0,0:0:0:0:
64,192,113657,128,0,113892:0:0:0:0:
320,192,113892,128,0,114360:0:0:0:0:
448,192,113892,1,0,0:0:0:0:
192,192,114126,1,0,0:0:0:0:
64,192,114360,1,0,0:0:0:0:
448,192,114360,1,0,0:0:0:0:
64,192,114595,128,0,114712:0:0:0:0:
320,192,114712,128,0,114829:0:0:0:0:
64,192,114829,1,0,0:0:0:0:
192,192,114829,128,0,115532:0:0:0:0:
320,192,115063,1,0,0:0:0:0:
64,192,115298,128,0,115532:0:0:0:0:
448,192,115298,128,0,115767:0:0:0:0:
64,192,115767,1,0,0:0:0:0:
320,192,115767,128,0,116001:0:0:0:0:
192,192,116001,128,0,116118:0:0:0:0:
64,192,116118,128,0,116235:0:0:0:0:
320,192,116118,1,0,0:0:0:0:
192,192,116235,1,0,0:0:0:0:
448,192,116235,128,0,116470:0:0:0:0:
64,192,116470,1,0,0:0:0:0:
320,192,116470,1,0,0:0:0:0:
448,192,116587,128,0,116704:0:0:0:0:
64,192,116704,1,0,0:0:0:0:
192,192,116704,128,0,116880:0:0:0:0:
448,192,116880,128,0,117056:0:0:0:0:
64,192,117056,1,0,0:0:0:0:
192,192,117056,128,0,117173:0:0:0:0:
320,192,117173,1,0,0:0:0:0:
448,192,117173,128,0,117407:0:0:0:0:
64,192,117407,1,0,0:0:0:0:
192,192,117407,1,0,0:0:0:0:
320,192,117524,1,0,0:0:0:0:
192,192,117642,128,0,117876:0:0:0:0:
448,192,117642,1,0,0:0:0:0:
320,192,117876,128,0,117993:0:0:0:0:
192,192,117993,1,0,0:0:0:0:
448,192,117993,128,0,118110:0:0:0:0:
64,192,118110,128,0,118345:0:0:0:0:
320,192,118110,1,0,0:0:0:0:
192,192,118345,1,0,0:0:0:0:
448,192,118345,1,0,0:0:0:0:
64,192,118462,128,0,118579:0:0:0:0:
320,192,118579,128,0,118755:0:0:0:0:
448,192,118579,1,0,0:0:0:0:
64,192,118755,128,0,118931:0:0:0:0:
320,192,118931,128,0,119048:0:0:0:0:
448,192,118931,1,0,0:0:0:0:
64,192,119048,128,0,119165:0:0:0:0:
192,192,119048,1,0,0:0:0:0:
320,192,119165,1,0,0:0:0:0:
448,192,119165,1,0,0:0:0:0:
64,192,119282,1,0,0:0:0:0:
192,192,119282,128,0,119399:0:0:0:0:
320,192,119399,128,0,119517:0:0:0:0:
448,192,119399,1,0,0:0:0:0:
64,192,119517,128,0,119751:0:0:0:0:
192,192,119517,1,0,0:0:0:0:
320,192,119751,128,0,119868:0:0:0:0:
64,192,119868,1,0,0:0:0:0:
192,192,119868,128,0,119985:0:0:0:0:
320,192,119985,1,0,0:0:0:0:
448,192,119985,128,0,120220:0:0:0:0:
64,192,120220,1,0,0:0:0:0:
320,192,120220,128,0,120337:0:0:0:0:
448,192,120337,128,0,120454:0:0:0:0:
64,192,120454,1,0,0:0:0:0:
192,192,120454,128,0,120630:0:0:0:0:
448,192,120630,128,0,120806:0:0:0:0:
64,192,120806,1,0,0:0:0:0:
192,192,120806,128,0,121157:0:0:0:0:
320,192,120923,1,0,0:0:0:0:
448,192,120923,128,0,121157:0:0:0:0:
64,192,121157,1,0,0:0:0:0:
320,192,121157,128,0,121274:0:0:0:0:
192,192,121274,128,0,121392:0:0:0:0:
320,192,121392,1,0,0:0:0:0:
448,192,121392,128,0,121626:0:0:0:0:
192,192,121626,128,0,121743:0:0:0:0:
320,192,121743,128,0,121860:0:0:0:0:
448,192,121743,1,0,0:0:0:0:
64,192,121860,128,0,122095:0:0:0:0:
192,192,121860,1,0,0:0:0:0:
192,192,122095,128,0,122212:0:0:0:0:
448,192,122095,1,0,0:0:0:0:
64,192,122212,128,0,122329:0:0:0:0:
320,192,122329,128,0,122505:0:0:0:0:
448,192,122329,1,0,0:0:0:0:
64,192,122505,128,0,122681:0:0:0:0:
320,192,122681,128,0,122798:0:0:0:0:
448,192,122681,1,0,0:0:0:0:
64,192,122798,128,0,122915:0:0:0:0:
192,192,122798,1,0,0:0:0:0:
320,192,122915,1,0,0:0:0:0:
448,192,122915,1,0,0:0:0:0:
64,192,123032,128,0,123149:0:0:0:0:
192,192,123032,1,0,0:0:0:0:
320,192,123149,128,0,123267:0:0:0:0:
448,192,123149,1,0,0:0:0:0:
64,192,123267,1,0,0:0:0:0:
192,192,123267,128,0,123501:0:0:0:0:
320,192,123501,128,0,123735:0:0:0:0:
64,192,123618,128,0,123735:0:0:0:0:
192,192,123735,1,0,0:0:0:0:
448,192,123735,128,0,123970:0:0:0:0:
64,192,123970,128,0,124087:0:0:0:0:
448,192,124087,128,0,124204:0:0:0:0:
320,192,124204,128,0,124438:0:0:0:0:
192,192,124438,128,0,124673:0:0:0:0:
448,192,124556,128,0,124673:0:0:0:0:
64,192,124673,128,0,124907:0:0:0:0:
320,192,124673,1,0,0:0:0:0:
448,192,124907,128,0,125024:0:0:0:0:
64,192,125024,128,0,125142:0:0:0:0:
192,192,125142,128,0,125376:0:0:0:0:
448,192,125142,1,0,0:0:0:0:
320,192,125376,128,0,125610:0:0:0:0:
64,192,125493,128,0,125610:0:0:0:0:
192,192,125610,1,0,0:0:0:0:
448,192,125610,128,0,125845:0:0:0:0:
64,192,125845,128,0,125962:0:0:0:0:
448,192,125962,128,0,126079:0:0:0:0:
320,192,126079,128,0,126313:0:0:0:0:
192,192,126313,128,0,126431:0:0:0:0:
320,192,126431,1,0,0:0:0:0:
448,192,126431,128,0,126548:0:0:0:0:
64,192,126548,1,0,0:0:0:0:
192,192,126548,1,0,0:0:0:0:
320,192,126665,1,0,0:0:0:0:
448,192,126665,1,0,0:0:0:0:
64,192,126782,128,0,126899:0:0:0:0:
192,192,126782,1,0,0:0:0:0:
320,192,126899,128,0,127017:0:0:0:0:
448,192,126899,1,0,0:0:0:0:
64,192,127017,1,0,0:0:0:0:
192,192,127017,128,0,127251:0:0:0:0:
448,192,127134,1,0,0:0:0:0:
64,192,127251,1,0,0:0:0:0:
320,192,127251,128,0,127485:0:0:0:0:
448,192,127368,128,0,127485:0:0:0:0:
192,192,127485,128,0,127720:0:0:0:0:
448,192,127602,1,0,0:0:0:0:
64,192,127720,1,0,0:0:0:0:
320,192,127720,128,0,127954:0:0:0:0:
448,192,127837,128,0,127954:0:0:0:0:
64,192,127954,1,0,0:0:0:0:
192,192,127954,128,0,128188:0:0:0:0:
448,192,128071,1,0,0:0:0:0:
64,192,128188,1,0,0:0:0:0:
320,192,128188,128,0,128423:0:0:0:0:
448,192,128306,128,0,128423:0:0:0:0:
192,192,128423,128,0,128657:0:0:0:0:
448,192,128540,1,0,0:0:0:0:
64,192,128657,1,0,0:0:0:0:
320,192,128657,128,0,128892:0:0:0:0:
448,192,128774,128,0,128892:0:0:0:0:
64,192,128892,1,0,0:0:0:0:
192,192,128892,128,0,129360:0:0:0:0:
448,192,129009,1,0,0:0:0:0:
64,192,129126,128,0,129595:0:0:0:0:
320,192,129243,1,0,0:0:0:0:
448,192,129360,128,0,129829:0:0:0:0:
192,192,129477,1,0,0:0:0:0:
320,192,129595,128,0,130181:0:0:0:0:
64,192,129712,1,0,0:0:0:0:
192,192,129829,128,0,130298:0:0:0:0:
448,192,129946,1,0,0:0:0:0:
64,192,130063,128,0,130298:0:0:0:0:
320,192,130298,1,0,0:0:0:0:
448,192,130298,1,0,0:0:0:0:
64,192,130767,128,0,131235:0:0:0:0:
192,192,130767,128,0,131235:0:0:0:0:
448,192,130767,1,0,0:0:0:0:
320,192,131235,1,0,0:0:0:0:
448,192,131235,1,0,0:0:0:0:
64,192,131352,1,0,0:0:0:0:
320,192,131470,1,0,0:0:0:0:
64,192,131587,1,0,0:0:0:0:
192,192,131704,128,0,131938:0:0:0:0:
448,192,131704,128,0,131938:0:0:0:0:
320,192,131938,128,0,132056:0:0:0:0:
64,192,132173,1,0,0:0:0:0:
320,192,132173,128,0,132290:0:0:0:0:
64,192,132407,128,0,132642:0:0:0:0:
448,192,132407,128,0,132642:0:0:0:0:
192,192,132642,128,0,133110:0:0:0:0:
320,192,132642,1,0,0:0:0:0:
64,192,132876,128,0,132993:0:0:0:0:
64,192,133110,1,0,0:0:0:0:
320,192,133110,128,0,133227:0:0:0:0:
448,192,133227,128,0,133345:0:0:0:0:
320,192,133345,128,0,133462:0:0:0:0:
192,192,133462,128,0,133579:0:0:0:0:
320,192,133579,1,0,0:0:0:0:
448,192,133579,128,0,133696:0:0:0:0:
192,192,133696,128,0,133813:0:0:0:0:
448,192,133813,128,0,133931:0:0:0:0:
320,192,133931,128,0,134048:0:0:0:0:
64,192,134048,128,0,134517:0:0:0:0:
192,192,134048,128,0,134165:0:0:0:0:
448,192,134165,128,0,134399:0:0:0:0:
320,192,134282,128,0,134399:0:0:0:0:
192,192,134399,128,0,134517:0:0:0:0:
320,192,134517,128,0,134985:0:0:0:0:
448,192,134517,128,0,134985:0:0:0:0:
64,192,134985,1,0,0:0:0:0:
192,192,134985,1,0,0:0:0:0:
320,192,135102,1,0,0:0:0:0:
192,192,135220,1,0,0:0:0:0:
320,192,135337,1,0,0:0:0:0:
64,192,135454,128,0,135688:0:0:0:0:
448,192,135454,128,0,135688:0:0:0:0:
320,192,135688,128,0,135806:0:0:0:0:
320,192,135923,128,0,136040:0:0:0:0:
64,192,136157,128,0,136392:0:0:0:0:
192,192,136157,128,0,136392:0:0:0:0:
448,192,136392,128,0,136860:0:0:0:0:
320,192,136626,128,0,136743:0:0:0:0:
64,192,136743,128,0,136860:0:0:0:0:
192,192,136860,1,0,0:0:0:0:
320,192,136860,128,0,136977:0:0:0:0:
448,192,136977,128,0,137095:0:0:0:0:
64,192,137212,128,0,137329:0:0:0:0:
192,192,137329,128,0,137446:0:0:0:0:
64,192,137446,128,0,137563:0:0:0:0:
192,192,137563,128,0,137681:0:0:0:0:
320,192,137681,128,0,137798:0:0:0:0:
64,192,137798,128,0,138149:0:0:0:0:
448,192,137798,128,0,137915:0:0:0:0:
192,192,137915,128,0,138149:0:0:0:0:
320,192,138032,128,0,138267:0:0:0:0:
448,192,138149,1,0,0:0:0:0:
64,192,138267,128,0,138735:0:0:0:0:
192,192,138267,128,0,138735:0:0:0:0:
448,192,138267,1,0,0:0:0:0:
320,192,138735,1,0,0:0:0:0:
448,192,138735,1,0,0:0:0:0:
64,192,138852,1,0,0:0:0:0:
320,192,138970,1,0,0:0:0:0:
64,192,139087,1,0,0:0:0:0:
192,192,139204,128,0,139438:0:0:0:0:
448,192,139204,128,0,139438:0:0:0:0:
320,192,139438,128,0,139556:0:0:0:0:
64,192,139673,1,0,0:0:0:0:
320,192,139673,128,0,139790:0:0:0:0:
64,192,139907,128,0,140142:0:0:0:0:
448,192,139907,128,0,140142:0:0:0:0:
192,192,140142,128,0,140610:0:0:0:0:
320,192,140142,1,0,0:0:0:0:
64,192,140376,128,0,140493:0:0:0:0:
64,192,140610,1,0,0:0:0:0:
320,192,140610,128,0,140727:0:0:0:0:
448,192,140727,128,0,140845:0:0:0:0:
320,192,140845,128,0,140962:0:0:0:0:
192,192,140962,128,0,141079:0:0:0:0:
320,192,141079,1,0,0:0:0:0:
448,192,141079,128,0,141196:0:0:0:0:
192,192,141196,128,0,141313:0:0:0:0:
448,192,141313,128,0,141431:0:0:0:0:
320,192,141431,128,0,141548:0:0:0:0:
64,192,141548,128,0,142017:0:0:0:0:
192,192,141548,128,0,141665:0:0:0:0:
448,192,141665,128,0,141899:0:0:0:0:
320,192,141782,128,0,141899:0:0:0:0:
192,192,141899,128,0,142017:0:0:0:0:
320,192,142017,128,0,142485:0:0:0:0:
448,192,142017,128,0,142485:0:0:0:0:
64,192,142485,1,0,0:0:0:0:
192,192,142485,1,0,0:0:0:0:
320,192,142602,1,0,0:0:0:0:
192,192,142720,1,0,0:0:0:0:
320,192,142837,1,0,0:0:0:0:
64,192,142954,128,0,143188:0:0:0:0:
448,192,142954,128,0,143188:0:0:0:0:
320,192,143188,128,0,143306:0:0:0:0:
320,192,143423,128,0,143540:0:0:0:0:
64,192,143657,128,0,143892:0:0:0:0:
192,192,143657,128,0,143892:0:0:0:0:
448,192,143892,128,0,144360:0:0:0:0:
320,192,144126,128,0,144243:0:0:0:0:
64,192,144243,128,0,144360:0:0:0:0:
192,192,144360,1,0,0:0:0:0:
320,192,144360,128,0,144477:0:0:0:0:
448,192,144477,128,0,144595:0:0:0:0:
64,192,144712,128,0,144829:0:0:0:0:
192,192,144829,128,0,144946:0:0:0:0:
64,192,144946,128,0,145063:0:0:0:0:
192,192,145063,128,0,145181:0:0:0:0:
320,192,145181,128,0,145298:0:0:0:0:
64,192,145298,128,0,145415:0:0:0:0:
448,192,145298,128,0,145532:0:0:0:0:
192,192,145415,128,0,145649:0:0:0:0:
64,192,145532,128,0,145649:0:0:0:0:
320,192,145532,128,0,145649:0:0:0:0:
448,192,145649,1,0,0:0:0:0:
64,192,145767,128,0,146235:0:0:0:0:
320,192,145767,1,0,0:0:0:0:
448,192,145767,1,0,0:0:0:0:
192,192,146118,1,0,0:0:0:0:
320,192,146235,128,0,146587:0:0:0:0:
448,192,146235,1,0,0:0:0:0:
64,192,146352,128,0,146587:0:0:0:0:
192,192,146470,128,0,146704:0:0:0:0:
448,192,146587,128,0,146704:0:0:0:0:
64,192,146704,128,0,146938:0:0:0:0:
320,192,146704,128,0,147056:0:0:0:0:
448,192,146938,128,0,147056:0:0:0:0:
192,192,147056,128,0,147407:0:0:0:0:
320,192,147173,128,0,147290:0:0:0:0:
448,192,147173,1,0,0:0:0:0:
64,192,147407,128,0,147642:0:0:0:0:
448,192,147407,128,0,147993:0:0:0:0:
320,192,147642,128,0,148110:0:0:0:0:
192,192,147876,1,0,0:0:0:0:
64,192,148110,128,0,148227:0:0:0:0:
448,192,148110,1,0,0:0:0:0:
192,192,148227,1,0,0:0:0:0:
64,192,148345,128,0,148462:0:0:0:0:
192,192,148462,128,0,148579:0:0:0:0:
320,192,148579,128,0,148696:0:0:0:0:
192,192,148696,1,0,0:0:0:0:
320,192,148813,128,0,148931:0:0:0:0:
448,192,148931,128,0,149048:0:0:0:0:
64,192,149048,128,0,149517:0:0:0:0:
192,192,149048,1,0,0:0:0:0:
448,192,149165,128,0,149399:0:0:0:0:
320,192,149282,128,0,149399:0:0:0:0:
192,192,149399,128,0,149517:0:0:0:0:
320,192,149517,1,0,0:0:0:0:
448,192,149517,128,0,149985:0:0:0:0:
64,192,149868,1,0,0:0:0:0:
192,192,149985,128,0,150337:0:0:0:0:
320,192,149985,1,0,0:0:0:0:
64,192,150102,128,0,150337:0:0:0:0:
320,192,150220,128,0,150454:0:0:0:0:
448,192,150337,128,0,150454:0:0:0:0:
64,192,150454,128,0,150806:0:0:0:0:
192,192,150454,128,0,150688:0:0:0:0:
448,192,150688,128,0,150806:0:0:0:0:
320,192,150806,128,0,151040:0:0:0:0:
192,192,150923,128,0,151040:0:0:0:0:
448,192,150923,1,0,0:0:0:0:
64,192,151157,128,0,151392:0:0:0:0:
448,192,151157,128,0,151860:0:0:0:0:
320,192,151392,128,0,151860:0:0:0:0:
192,192,151626,128,0,151743:0:0:0:0:
64,192,151860,1,0,0:0:0:0:
192,192,151860,128,0,151977:0:0:0:0:
320,192,151977,128,0,152095:0:0:0:0:
64,192,152212,128,0,152329:0:0:0:0:
192,192,152329,128,0,152446:0:0:0:0:
64,192,152446,128,0,152563:0:0:0:0:
192,192,152563,128,0,152681:0:0:0:0:
320,192,152681,128,0,152798:0:0:0:0:
64,192,152798,128,0,153149:0:0:0:0:
448,192,152798,128,0,152915:0:0:0:0:
320,192,152915,128,0,153267:0:0:0:0:
192,192,153032,128,0,153149:0:0:0:0:
448,192,153149,128,0,153267:0:0:0:0:
64,192,153267,128,0,153735:0:0:0:0:
192,192,153618,1,0,0:0:0:0:
320,192,153735,128,0,154087:0:0:0:0:
448,192,153735,1,0,0:0:0:0:
64,192,153852,128,0,154087:0:0:0:0:
192,192,153970,128,0,154204:0:0:0:0:
448,192,154087,128,0,154204:0:0:0:0:
64,192,154204,128,0,154438:0:0:0:0:
320,192,154204,128,0,154556:0:0:0:0:
448,192,154438,128,0,154556:0:0:0:0:
192,192,154556,128,0,154907:0:0:0:0:
320,192,154673,128,0,154790:0:0:0:0:
448,192,154673,1,0,0:0:0:0:
64,192,154907,128,0,155142:0:0:0:0:
448,192,154907,128,0,155493:0:0:0:0:
320,192,155142,128,0,155610:0:0:0:0:
192,192,155376,1,0,0:0:0:0:
64,192,155610,128,0,155727:0:0:0:0:
448,192,155610,1,0,0:0:0:0:
192,192,155727,1,0,0:0:0:0:
64,192,155845,128,0,155962:0:0:0:0:
192,192,155962,128,0,156079:0:0:0:0:
320,192,156079,128,0,156196:0:0:0:0:
64,192,156196,1,0,0:0:0:0:
320,192,156313,128,0,156431:0:0:0:0:
448,192,156431,128,0,156548:0:0:0:0:
64,192,156548,128,0,157017:0:0:0:0:
192,192,156548,1,0,0:0:0:0:
448,192,156665,128,0,156899:0:0:0:0:
320,192,156782,128,0,156899:0:0:0:0:
192,192,156899,128,0,157017:0:0:0:0:
320,192,157017,1,0,0:0:0:0:
448,192,157017,128,0,157485:0:0:0:0:
64,192,157368,1,0,0:0:0:0:
192,192,157485,128,0,157837:0:0:0:0:
320,192,157485,1,0,0:0:0:0:
64,192,157602,128,0,157837:0:0:0:0:
320,192,157720,128,0,157954:0:0:0:0:
448,192,157837,128,0,157954:0:0:0:0:
64,192,157954,128,0,158306:0:0:0:0:
192,192,157954,128,0,158188:0:0:0:0:
448,192,158188,128,0,158306:0:0:0:0:
320,192,158306,128,0,158540:0:0:0:0:
192,192,158423,128,0,158540:0:0:0:0:
448,192,158423,1,0,0:0:0:0:
64,192,158657,128,0,158892:0:0:0:0:
448,192,158657,128,0,159243:0:0:0:0:
320,192,158892,128,0,159360:0:0:0:0:
64,192,159126,128,0,159243:0:0:0:0:
192,192,159243,128,0,159360:0:0:0:0:
64,192,159360,128,0,159477:0:0:0:0:
448,192,159360,1,0,0:0:0:0:
320,192,159477,128,0,159595:0:0:0:0:
192,192,159712,128,0,159829:0:0:0:0:
64,192,159829,128,0,159946:0:0:0:0:
448,192,159829,1,0,0:0:0:0:
192,192,159946,128,0,160063:0:0:0:0:
64,192,160063,128,0,160181:0:0:0:0:
320,192,160181,128,0,160298:0:0:0:0:
64,192,160298,1,0,0:0:0:0:
192,192,160298,1,0,0:0:0:0:
448,192,160298,1,0,0:0:0:0:
64,192,160767,128,0,161118:0:0:0:0:
320,192,160767,1,0,0:0:0:0:
448,192,160767,1,0,0:0:0:0:
192,192,160884,128,0,161001:0:0:0:0:
320,192,161001,128,0,161235:0:0:0:0:
192,192,161118,128,0,161235:0:0:0:0:
64,192,161235,1,0,0:0:0:0:
448,192,161235,1,0,0:0:0:0:
192,192,161352,128,0,161470:0:0:0:0:
64,192,161470,128,0,161704:0:0:0:0:
320,192,161470,128,0,161704:0:0:0:0:
448,192,161704,1,0,0:0:0:0:
64,192,161821,128,0,161938:0:0:0:0:
192,192,161938,128,0,162173:0:0:0:0:
448,192,162056,1,0,0:0:0:0:
64,192,162173,1,0,0:0:0:0:
320,192,162173,1,0,0:0:0:0:
448,192,162290,128,0,162407:0:0:0:0:
192,192,162407,128,0,162642:0:0:0:0:
448,192,162524,128,0,162642:0:0:0:0:
64,192,162642,1,0,0:0:0:0:
448,192,162759,128,0,162876:0:0:0:0:
320,192,162876,128,0,163110:0:0:0:0:
448,192,162993,128,0,163110:0:0:0:0:
64,192,163110,1,0,0:0:0:0:
192,192,163110,128,0,163345:0:0:0:0:
448,192,163345,128,0,163579:0:0:0:0:
320,192,163462,128,0,163579:0:0:0:0:
64,192,163579,1,0,0:0:0:0:
192,192,163579,128,0,163813:0:0:0:0:
448,192,163696,128,0,163813:0:0:0:0:
320,192,163813,128,0,164048:0:0:0:0:
64,192,163931,1,0,0:0:0:0:
192,192,164048,128,0,164165:0:0:0:0:
448,192,164048,128,0,164165:0:0:0:0:
64,192,164165,1,0,0:0:0:0:
192,192,164282,128,0,164517:0:0:0:0:
320,192,164282,128,0,164517:0:0:0:0:
448,192,164517,1,0,0:0:0:0:
64,192,164634,128,0,164751:0:0:0:0:
320,192,164751,128,0,164985:0:0:0:0:
64,192,164868,128,0,164985:0:0:0:0:
192,192,164985,128,0,165220:0:0:0:0:
448,192,164985,1,0,0:0:0:0:
320,192,165220,128,0,165454:0:0:0:0:
448,192,165454,1,0,0:0:0:0:
320,192,165571,128,0,165688:0:0:0:0:
192,192,165688,128,0,165923:0:0:0:0:
448,192,165806,1,0,0:0:0:0:
64,192,165923,1,0,0:0:0:0:
320,192,165923,1,0,0:0:0:0:
448,192,166040,128,0,166157:0:0:0:0:
192,192,166157,128,0,166392:0:0:0:0:
448,192,166274,128,0,166392:0:0:0:0:
64,192,166392,1,0,0:0:0:0:
448,192,166509,128,0,166626:0:0:0:0:
320,192,166626,128,0,166860:0:0:0:0:
448,192,166743,128,0,166860:0:0:0:0:
64,192,166860,1,0,0:0:0:0:
192,192,166860,128,0,167095:0:0:0:0:
320,192,167095,128,0,167329:0:0:0:0:
448,192,167212,128,0,167329:0:0:0:0:
64,192,167329,1,0,0:0:0:0:
192,192,167329,128,0,167563:0:0:0:0:
320,192,167563,128,0,167681:0:0:0:0:
448,192,167563,128,0,167681:0:0:0:0:
64,192,167681,1,0,0:0:0:0:
192,192,167798,1,0,0:0:0:0:
320,192,167798,128,0,167915:0:0:0:0:
448,192,167798,128,0,167915:0:0:0:0:
64,192,167915,1,0,0:0:0:0:
192,192,168032,128,0,168267:0:0:0:0:
320,192,168032,128,0,168267:0:0:0:0:
64,192,168267,1,0,0:0:0:0:
448,192,168267,1,0,0:0:0:0:
192,192,168384,128,0,168501:0:0:0:0:
320,192,168501,128,0,168735:0:0:0:0:
192,192,168618,128,0,168735:0:0:0:0:
64,192,168735,1,0,0:0:0:0:
448,192,168735,1,0,0:0:0:0:
192,192,168852,128,0,168970:0:0:0:0:
64,192,168970,128,0,169204:0:0:0:0:
320,192,168970,128,0,169204:0:0:0:0:
448,192,169204,1,0,0:0:0:0:
64,192,169321,128,0,169438:0:0:0:0:
192,192,169438,128,0,169673:0:0:0:0:
448,192,169556,1,0,0:0:0:0:
64,192,169673,1,0,0:0:0:0:
320,192,169673,1,0,0:0:0:0:
448,192,169790,128,0,169907:0:0:0:0:
192,192,169907,128,0,170142:0:0:0:0:
448,192,170024,128,0,170142:0:0:0:0:
64,192,170142,1,0,0:0:0:0:
448,192,170259,128,0,170376:0:0:0:0:
320,192,170376,128,0,170610:0:0:0:0:
448,192,170493,128,0,170610:0:0:0:0:
64,192,170610,1,0,0:0:0:0:
192,192,170610,128,0,170845:0:0:0:0:
448,192,170845,128,0,171079:0:0:0:0:
320,192,170962,128,0,171079:0:0:0:0:
64,192,171079,1,0,0:0:0:0:
192,192,171079,128,0,171313:0:0:0:0:
448,192,171196,128,0,171313:0:0:0:0:
320,192,171313,128,0,171548:0:0:0:0:
64,192,171431,1,0,0:0:0:0:
192,192,171548,128,0,171665:0:0:0:0:
448,192,171548,128,0,171665:0:0:0:0:
64,192,171665,1,0,0:0:0:0:
192,192,171782,128,0,172017:0:0:0:0:
320,192,171782,128,0,172017:0:0:0:0:
448,192,172017,1,0,0:0:0:0:
64,192,172134,128,0,172251:0:0:0:0:
320,192,172251,128,0,172485:0:0:0:0:
64,192,172368,128,0,172485:0:0:0:0:
192,192,172485,128,0,172720:0:0:0:0:
448,192,172485,1,0,0:0:0:0:
320,192,172720,128,0,172954:0:0:0:0:
448,192,172954,1,0,0:0:0:0:
320,192,173071,128,0,173188:0:0:0:0:
192,192,173188,128,0,173423:0:0:0:0:
448,192,173306,1,0,0:0:0:0:
64,192,173423,1,0,0:0:0:0:
320,192,173423,1,0,0:0:0:0:
448,192,173540,128,0,173657:0:0:0:0:
192,192,173657,128,0,173892:0:0:0:0:
448,192,173774,128,0,173892:0:0:0:0:
64,192,173892,128,0,174243:0:0:0:0:
320,192,173892,128,0,174126:0:0:0:0:
448,192,174009,128,0,174243:0:0:0:0:
192,192,174126,128,0,174243:0:0:0:0:
320,192,174243,128,0,174360:0:0:0:0:
192,192,174360,128,0,174595:0:0:0:0:
448,192,174360,128,0,174477:0:0:0:0:
64,192,174477,128,0,174595:0:0:0:0:
320,192,174595,128,0,174829:0:0:0:0:
448,192,174595,128,0,174712:0:0:0:0:
192,192,174712,128,0,174829:0:0:0:0:
64,192,174829,128,0,174946:0:0:0:0:
448,192,174829,128,0,174946:0:0:0:0:
320,192,174946,128,0,175063:0:0:0:0:
64,192,175063,128,0,175181:0:0:0:0:
192,192,175063,128,0,175181:0:0:0:0:
320,192,175181,128,0,175298:0:0:0:0:
192,192,175298,128,0,175415:0:0:0:0:
448,192,175298,128,0,175415:0:0:0:0:
320,192,175415,128,0,175532:0:0:0:0:
64,192,175532,128,0,175649:0:0:0:0:
320,192,175649,128,0,175767:0:0:0:0:
192,192,175767,128,0,175884:0:0:0:0:
448,192,175767,128,0,183267:0:0:0:0:
192,192,176001,128,0,176235:0:0:0:0:
64,192,176235,1,0,0:0:0:0:
320,192,176235,1,0,0:0:0:0:
64,192,176470,128,0,176587:0:0:0:0:
64,192,176704,128,0,176938:0:0:0:0:
192,192,176704,1,0,0:0:0:0:
320,192,176938,1,0,0:0:0:0:
64,192,177056,1,0,0:0:0:0:
192,192,177173,1,0,0:0:0:0:
320,192,177173,1,0,0:0:0:0:
64,192,177407,128,0,177642:0:0:0:0:
192,192,177642,128,0,177876:0:0:0:0:
320,192,177642,1,0,0:0:0:0:
64,192,177876,1,0,0:0:0:0:
192,192,177993,1,0,0:0:0:0:
64,192,178110,1,0,0:0:0:0:
320,192,178110,1,0,0:0:0:0:
192,192,178345,128,0,178579:0:0:0:0:
64,192,178579,1,0,0:0:0:0:
320,192,178579,128,0,178813:0:0:0:0:
64,192,178813,128,0,179048:0:0:0:0:
192,192,179048,128,0,179282:0:0:0:0:
320,192,179048,1,0,0:0:0:0:
320,192,179282,128,0,179517:0:0:0:0:
64,192,179517,128,0,179634:0:0:0:0:
192,192,179517,1,0,0:0:0:0:
64,192,179751,128,0,179985:0:0:0:0:
192,192,179985,1,0,0:0:0:0:
320,192,179985,1,0,0:0:0:0:
320,192,180220,128,0,180337:0:0:0:0:
192,192,180454,1,0,0:0:0:0:
320,192,180454,128,0,180806:0:0:0:0:
192,192,180806,128,0,181157:0:0:0:0:
64,192,180923,1,0,0:0:0:0:
320,192,180923,1,0,0:0:0:0:
64,192,181157,128,0,181392:0:0:0:0:
192,192,181392,128,0,181743:0:0:0:0:
320,192,181392,1,0,0:0:0:0:
64,192,181626,1,0,0:0:0:0:
64,192,181860,1,0,0:0:0:0:
192,192,181860,1,0,0:0:0:0:
320,192,182095,128,0,182212:0:0:0:0:
64,192,182212,128,0,182329:0:0:0:0:
192,192,182329,128,0,182563:0:0:0:0:
320,192,182329,1,0,0:0:0:0:
64,192,182563,1,0,0:0:0:0:
64,192,182798,1,0,0:0:0:0:
320,192,182798,1,0,0:0:0:0:
320,192,183032,128,0,183267:0:0:0:0:
64,192,183267,1,0,0:0:0:0:
192,192,183267,128,0,183384:0:0:0:0:
192,192,183501,128,0,183970:0:0:0:0:
64,192,183735,1,0,0:0:0:0:
320,192,183735,1,0,0:0:0:0:
448,192,183970,128,0,184087:0:0:0:0:
320,192,184204,1,0,0:0:0:0:
448,192,184204,128,0,184556:0:0:0:0:
64,192,184438,1,0,0:0:0:0:
320,192,184556,128,0,184907:0:0:0:0:
192,192,184673,128,0,184907:0:0:0:0:
448,192,184673,1,0,0:0:0:0:
448,192,184907,128,0,185142:0:0:0:0:
192,192,185142,1,0,0:0:0:0:
320,192,185142,128,0,185493:0:0:0:0:
448,192,185376,1,0,0:0:0:0:
192,192,185493,128,0,185845:0:0:0:0:
64,192,185610,128,0,185845:0:0:0:0:
448,192,185610,1,0,0:0:0:0:
320,192,185845,128,0,186079:0:0:0:0:
64,192,186079,1,0,0:0:0:0:
192,192,186079,128,0,186548:0:0:0:0:
448,192,186313,128,0,186548:0:0:0:0:
64,192,186548,1,0,0:0:0:0:
320,192,186548,128,0,187017:0:0:0:0:
448,192,186782,128,0,187017:0:0:0:0:
64,192,187017,1,0,0:0:0:0:
192,192,187017,128,0,187134:0:0:0:0:
192,192,187251,128,0,187720:0:0:0:0:
320,192,187485,1,0,0:0:0:0:
448,192,187485,1,0,0:0:0:0:
64,192,187720,128,0,187837:0:0:0:0:
64,192,187954,128,0,188657:0:0:0:0:
320,192,187954,1,0,0:0:0:0:
448,192,188188,1,0,0:0:0:0:
320,192,188306,128,0,188657:0:0:0:0:
192,192,188423,1,0,0:0:0:0:
448,192,188423,1,0,0:0:0:0:
192,192,188657,128,0,188892:0:0:0:0:
320,192,188892,1,0,0:0:0:0:
448,192,188892,128,0,189126:0:0:0:0:
64,192,189009,128,0,189243:0:0:0:0:
320,192,189126,128,0,189360:0:0:0:0:
448,192,189243,128,0,189477:0:0:0:0:
64,192,189360,128,0,189595:0:0:0:0:
192,192,189360,1,0,0:0:0:0:
320,192,189477,128,0,189712:0:0:0:0:
448,192,189595,128,0,189712:0:0:0:0:
64,192,189712,128,0,189829:0:0:0:0:
192,192,189829,1,0,0:0:0:0:
448,192,189829,128,0,190063:0:0:0:0:
64,192,189946,128,0,190181:0:0:0:0:
320,192,190063,128,0,190298:0:0:0:0:
448,192,190181,128,0,190415:0:0:0:0:
64,192,190298,128,0,190532:0:0:0:0:
192,192,190298,1,0,0:0:0:0:
320,192,190415,128,0,190649:0:0:0:0:
448,192,190532,128,0,190767:0:0:0:0:
64,192,190649,128,0,190767:0:0:0:0:
192,192,190767,128,0,191704:0:0:0:0:
320,192,190767,1,0,0:0:0:0:
320,192,191001,128,0,191235:0:0:0:0:
64,192,191470,1,0,0:0:0:0:
64,192,191704,128,0,191938:0:0:0:0:
320,192,191704,128,0,192642:0:0:0:0:
448,192,192056,1,0,0:0:0:0:
192,192,192173,1,0,0:0:0:0:
64,192,192407,128,0,192642:0:0:0:0:
192,192,192642,128,0,193110:0:0:0:0:
448,192,192642,128,0,192876:0:0:0:0:
320,192,192993,1,0,0:0:0:0:
64,192,193110,1,0,0:0:0:0:
448,192,193345,128,0,193579:0:0:0:0:
64,192,193579,128,0,194517:0:0:0:0:
192,192,193579,128,0,193813:0:0:0:0:
320,192,193813,128,0,194048:0:0:0:0:
448,192,194048,128,0,194282:0:0:0:0:
192,192,194282,128,0,194517:0:0:0:0:
320,192,194517,1,0,0:0:0:0:
448,192,194517,128,0,197329:0:0:0:0:
320,192,194751,128,0,194985:0:0:0:0:
64,192,195220,1,0,0:0:0:0:
64,192,195454,128,0,195806:0:0:0:0:
192,192,195806,128,0,196157:0:0:0:0:
320,192,196157,128,0,196392:0:0:0:0:
192,192,196392,128,0,196860:0:0:0:0:
320,192,197095,1,0,0:0:0:0:
192,192,197212,1,0,0:0:0:0:
64,192,197329,128,0,197798:0:0:0:0:
192,192,197563,1,0,0:0:0:0:
320,192,197798,1,0,0:0:0:0:
448,192,198032,1,0,0:0:0:0:
64,192,198267,1,0,0:0:0:0:
192,192,198267,128,0,199204:0:0:0:0:
320,192,198501,128,0,198735:0:0:0:0:
64,192,198970,1,0,0:0:0:0:
64,192,199204,128,0,199438:0:0:0:0:
320,192,199204,128,0,200142:0:0:0:0:
448,192,199556,1,0,0:0:0:0:
192,192,199673,1,0,0:0:0:0:
64,192,199907,128,0,200142:0:0:0:0:
192,192,200142,128,0,200610:0:0:0:0:
448,192,200142,128,0,200376:0:0:0:0:
320,192,200493,1,0,0:0:0:0:
64,192,200610,1,0,0:0:0:0:
448,192,200845,128,0,201079:0:0:0:0:
64,192,201079,128,0,202017:0:0:0:0:
192,192,201079,128,0,201313:0:0:0:0:
320,192,201313,128,0,201548:0:0:0:0:
448,192,201548,128,0,201782:0:0:0:0:
192,192,201782,128,0,202017:0:0:0:0:
320,192,202017,1,0,0:0:0:0:
448,192,202017,128,0,204829:0:0:0:0:
320,192,202251,128,0,202485:0:0:0:0:
64,192,202720,1,0,0:0:0:0:
64,192,202954,128,0,203306:0:0:0:0:
192,192,203306,128,0,203657:0:0:0:0:
320,192,203657,128,0,203892:0:0:0:0:
192,192,203892,128,0,204360:0:0:0:0:
320,192,204595,1,0,0:0:0:0:
192,192,204712,1,0,0:0:0:0:
64,192,204829,128,0,205298:0:0:0:0:
320,192,205063,1,0,0:0:0:0:
320,192,205298,1,0,0:0:0:0:
320,192,205532,1,0,0:0:0:0:
448,192,205767,1,0,0:0:0:0:
192,192,206001,1,0,0:0:0:0:
64,192,206235,1,0,0:0:0:0:
192,192,206470,1,0,0:0:0:0:
320,192,206704,1,0,0:0:0:0:
192,192,206938,1,0,0:0:0:0:
64,192,207173,1,0,0:0:0:0:
192,192,207407,1,0,0:0:0:0:
448,192,207642,1,0,0:0:0:0:
192,192,207876,1,0,0:0:0:0:
64,192,208110,1,0,0:0:0:0:
192,192,208345,1,0,0:0:0:0:
320,192,208579,1,0,0:0:0:0:
192,192,208813,1,0,0:0:0:0:
64,192,209048,1,0,0:0:0:0:
192,192,209282,1,0,0:0:0:0:
448,192,209517,1,0,0:0:0:0:
192,192,209751,1,0,0:0:0:0:
64,192,209985,1,0,0:0:0:0:
192,192,210220,1,0,0:0:0:0:
320,192,210454,1,0,0:0:0:0:
192,192,210688,1,0,0:0:0:0:
64,192,210923,1,0,0:0:0:0:
320,192,211157,1,0,0:0:0:0:
192,192,211392,1,0,0:0:0:0:
320,192,211626,1,0,0:0:0:0:
64,192,211860,1,0,0:0:0:0:
192,192,212095,1,0,0:0:0:0:
320,192,212329,1,0,0:0:0:0:
192,192,212563,1,0,0:0:0:0:
64,192,212798,1,0,0:0:0:0:
192,192,213032,1,0,0:0:0:0:
