osu file format v14

[General]
AudioFilename: audio.mp3
AudioLeadIn: 0
PreviewTime: -1
Countdown: 1
SampleSet: None
StackLeniency: 1
Mode: 0
LetterboxInBreaks: 0
WidescreenStoryboard: 0

[Editor]
DistanceSpacing: 0.5
BeatDivisor: 4
GridSize: 4
TimelineZoom: 1

[Metadata]
Title:Haunted House
TitleUnicode:Haunted House
Artist:cYsmix
ArtistUnicode:cYsmix
Creator:CanDyFloS
Version:where ghosts rest
Source:cYsmixsoundcloud
Tags:soundcloud
BeatmapID:1493430
BeatmapSetID:706215

[Difficulty]
HPDrainRate:8
CircleSize:3
OverallDifficulty:10
ApproachRate:10
SliderMultiplier:1.4
SliderTickRate:1

[Events]
//Background and Video events
//Break Periods
//Storyboard Layer 0 (Background)
//Storyboard Layer 1 (Fail)
//Storyboard Layer 2 (Pass)
//Storyboard Layer 3 (Foreground)
//Storyboard Sound Samples

[TimingPoints]
1386,468.75,4,2,0,100,1,0

[HitObjects]
36,132,1503,5,0,0:0:0:0:
68,200,1854,1,0,0:0:0:0:
144,148,2323,1,0,0:0:0:0:
184,220,2792,1,0,0:0:0:0:
272,168,3143,1,0,0:0:0:0:
316,224,3612,1,0,0:0:0:0:
88,184,3964,1,0,0:0:0:0:
160,100,4432,1,0,0:0:0:0:
260,140,4901,1,0,0:0:0:0:
248,200,5253,1,0,0:0:0:0:
156,200,5721,1,0,0:0:0:0:
108,104,6190,1,0,0:0:0:0:
208,88,6542,1,0,0:0:0:0:
224,184,7011,1,0,0:0:0:0:
328,92,7479,1,0,0:0:0:0:
352,192,7948,1,0,0:0:0:0:
472,80,8534,1,0,0:0:0:0:
496,192,8886,1,0,0:0:0:0:
364,208,9354,1,0,0:0:0:0:
220,128,9823,1,0,0:0:0:0:
136,68,10292,1,0,0:0:0:0:
80,152,10761,1,0,0:0:0:0:
200,192,11229,1,0,0:0:0:0:
276,160,11698,1,0,0:0:0:0:
364,152,12167,1,0,0:0:0:0:
352,208,12636,1,0,0:0:0:0:
240,216,13104,1,0,0:0:0:0:
156,136,13690,1,0,0:0:0:0:
48,128,14042,1,0,0:0:0:0:
148,228,14628,1,0,0:0:0:0:
256,180,15096,1,0,0:0:0:0:
344,168,15565,1,0,0:0:0:0:
288,224,16151,1,0,0:0:0:0:
148,168,16503,1,0,0:0:0:0:
88,96,16854,1,0,0:0:0:0:
96,216,17089,1,0,0:0:0:0:
148,168,17323,1,0,0:0:0:0:
184,144,17557,1,0,0:0:0:0:
232,184,17792,1,0,0:0:0:0:
272,220,18026,1,0,0:0:0:0:
368,176,18261,1,0,0:0:0:0:
416,156,18495,1,0,0:0:0:0:
472,168,18729,1,0,0:0:0:0:
472,212,18846,1,0,0:0:0:0:
412,232,19081,1,0,0:0:0:0:
376,232,19315,1,0,0:0:0:0:
344,228,19550,1,0,0:0:0:0:
304,200,19784,1,0,0:0:0:0:
280,152,20018,1,0,0:0:0:0:
220,120,20253,1,0,0:0:0:0:
160,104,20487,1,0,0:0:0:0:
112,124,20721,1,0,0:0:0:0:
108,168,20956,1,0,0:0:0:0:
152,208,21190,1,0,0:0:0:0:
212,220,21425,1,0,0:0:0:0:
276,224,21659,1,0,0:0:0:0:
280,248,22011,1,0,0:0:0:0:
232,252,22128,1,0,0:0:0:0:
168,224,22362,1,0,0:0:0:0:
148,184,22596,1,0,0:0:0:0:
148,136,22831,1,0,0:0:0:0:
168,108,23065,1,0,0:0:0:0:
220,96,23300,1,0,0:0:0:0:
304,108,23534,1,0,0:0:0:0:
344,136,23768,1,0,0:0:0:0:
336,168,24003,1,0,0:0:0:0:
224,176,24237,1,0,0:0:0:0:
184,188,24471,1,0,0:0:0:0:
184,212,24706,1,0,0:0:0:0:
244,168,25057,1,0,0:0:0:0:
248,128,25175,1,0,0:0:0:0:
328,380,25409,1,0,0:0:0:0:
368,176,25761,1,0,0:0:0:0:
396,240,25995,1,0,0:0:0:0:
428,132,26464,1,0,0:0:0:0:
160,120,26815,1,0,0:0:0:0:
112,84,28221,1,0,0:0:0:0:
204,232,28807,1,0,0:0:0:0:
364,120,29393,1,0,0:0:0:0:
460,216,29979,1,0,0:0:0:0:
236,188,31034,1,0,0:0:0:0:
236,132,31386,1,0,0:0:0:0:
48,224,31620,1,0,0:0:0:0:
88,128,32323,1,0,0:0:0:0:
172,232,32675,1,0,0:0:0:0:
320,140,33729,1,0,0:0:0:0:
324,248,33964,1,0,0:0:0:0:
20,108,34315,1,0,0:0:0:0:
64,228,35018,1,0,0:0:0:0:
172,128,35721,1,0,0:0:0:0:
232,268,35956,1,0,0:0:0:0:
308,156,36190,1,0,0:0:0:0:
136,192,36776,1,0,0:0:0:0:
120,256,37245,1,0,0:0:0:0:
348,232,37714,1,0,0:0:0:0:
220,104,38065,1,0,0:0:0:0:
120,152,38534,1,0,0:0:0:0:
120,256,39003,1,0,0:0:0:0:
312,144,39237,1,0,0:0:0:0:
324,212,39471,1,0,0:0:0:0:
256,232,39706,1,0,0:0:0:0:
200,184,39823,1,0,0:0:0:0:
176,152,40175,1,0,0:0:0:0:
176,116,40292,1,0,0:0:0:0:
204,84,40526,1,0,0:0:0:0:
264,88,40761,1,0,0:0:0:0:
256,176,40878,1,0,0:0:0:0:
48,184,41112,1,0,0:0:0:0:
72,112,41346,1,0,0:0:0:0:
136,224,41581,1,0,0:0:0:0:
284,120,41815,1,0,0:0:0:0:
288,188,42050,1,0,0:0:0:0:
148,56,42284,1,0,0:0:0:0:
132,200,42518,1,0,0:0:0:0:
240,64,42753,1,0,0:0:0:0:
268,196,42987,1,0,0:0:0:0:
60,44,43221,1,0,0:0:0:0:
124,64,44276,1,0,0:0:0:0:
216,184,44511,1,0,0:0:0:0:
376,80,44745,1,0,0:0:0:0:
360,168,44979,1,0,0:0:0:0:
152,88,45214,1,0,0:0:0:0:
172,136,45448,1,0,0:0:0:0:
180,96,45682,1,0,0:0:0:0:
220,100,45917,1,0,0:0:0:0:
224,128,46151,1,0,0:0:0:0:
160,128,46386,1,0,0:0:0:0:
72,80,46503,1,0,0:0:0:0:
256,148,46737,1,0,0:0:0:0:
260,128,46971,1,0,0:0:0:0:
268,128,47206,1,0,0:0:0:0:
256,140,47440,1,0,0:0:0:0:
256,140,47675,1,0,0:0:0:0:
256,140,47792,1,0,0:0:0:0:
256,136,47909,1,0,0:0:0:0:
324,128,48143,1,0,0:0:0:0:
320,136,48261,1,0,0:0:0:0:
248,152,48495,1,0,0:0:0:0:
252,112,48729,1,0,0:0:0:0:
256,128,48964,1,0,0:0:0:0:
284,148,49198,1,0,0:0:0:0:
216,148,49432,1,0,0:0:0:0:
224,104,49667,1,0,0:0:0:0:
308,136,49784,1,0,0:0:0:0:
224,152,50018,1,0,0:0:0:0:
192,64,50253,1,0,0:0:0:0:
340,116,50487,1,0,0:0:0:0:
220,176,50721,1,0,0:0:0:0:
168,84,51073,1,0,0:0:0:0:
280,96,51307,1,0,0:0:0:0:
264,176,51425,1,0,0:0:0:0:
132,160,51659,1,0,0:0:0:0:
144,140,51893,1,0,0:0:0:0:
144,100,52011,1,0,0:0:0:0:
144,100,52245,1,0,0:0:0:0:
40,120,52948,1,0,0:0:0:0:
72,144,53182,1,0,0:0:0:0:
156,176,53417,1,0,0:0:0:0:
220,160,53651,1,0,0:0:0:0:
292,156,53886,1,0,0:0:0:0:
372,204,54120,1,0,0:0:0:0:
372,224,54471,1,0,0:0:0:0:
204,216,55057,1,0,0:0:0:0:
204,132,55409,1,0,0:0:0:0:
148,192,55878,1,0,0:0:0:0:
160,156,56346,1,0,0:0:0:0:
160,156,56581,1,0,0:0:0:0:
252,160,56698,1,0,0:0:0:0:
344,188,57050,1,0,0:0:0:0:
260,148,57284,1,0,0:0:0:0:
184,160,57518,1,0,0:0:0:0:
160,204,57753,1,0,0:0:0:0:
216,128,57987,1,0,0:0:0:0:
392,112,58339,1,0,0:0:0:0:
456,196,58573,1,0,0:0:0:0:
376,240,58690,1,0,0:0:0:0:
240,252,59042,1,0,0:0:0:0:
88,84,59276,1,0,0:0:0:0:
264,12,59511,1,0,0:0:0:0:
460,128,59745,1,0,0:0:0:0:
436,172,59862,1,0,0:0:0:0:
224,256,60096,1,0,0:0:0:0:
148,96,60448,1,0,0:0:0:0:
280,204,60565,1,0,0:0:0:0:
252,256,60800,1,0,0:0:0:0:
16,336,61386,1,0,0:0:0:0:
280,72,61854,1,0,0:0:0:0:
259,81,64550,1,0,0:0:0:0:
197,239,64784,1,0,0:0:0:0:
262,92,65018,1,0,0:0:0:0:
279,260,65253,1,0,0:0:0:0:
282,141,65604,1,0,0:0:0:0:
343,207,65839,1,0,0:0:0:0:
273,144,66073,1,0,0:0:0:0:
199,165,66307,1,0,0:0:0:0:
85,250,66659,1,0,0:0:0:0:
97,86,66893,1,0,0:0:0:0:
324,168,67362,1,0,0:0:0:0:
262,325,67714,1,0,0:0:0:0:
241,298,67948,1,0,0:0:0:0:
230,303,68065,1,0,0:0:0:0:
229,303,68300,1,0,0:0:0:0:
182,279,68534,1,0,0:0:0:0:
179,254,68768,1,0,0:0:0:0:
190,212,69003,1,0,0:0:0:0:
238,204,69120,1,0,0:0:0:0:
254,197,69354,1,0,0:0:0:0:
364,197,69589,1,0,0:0:0:0:
372,226,69823,1,0,0:0:0:0:
304,142,70057,1,0,0:0:0:0:
251,161,70292,1,0,0:0:0:0:
214,169,70526,1,0,0:0:0:0:
150,116,70761,1,0,0:0:0:0:
197,105,70878,1,0,0:0:0:0:
187,135,71464,1,0,0:0:0:0:
190,134,71581,1,0,0:0:0:0:
191,134,71815,1,0,0:0:0:0:
417,84,71932,1,0,0:0:0:0:
422,89,72167,1,0,0:0:0:0:
407,111,72401,1,0,0:0:0:0:
418,97,72636,1,0,0:0:0:0:
150,197,72870,1,0,0:0:0:0:
150,197,73104,1,0,0:0:0:0:
150,197,73221,1,0,0:0:0:0:
156,193,73456,1,0,0:0:0:0:
157,192,73573,1,0,0:0:0:0:
232,46,73807,1,0,0:0:0:0:
301,77,74042,1,0,0:0:0:0:
413,143,74159,1,0,0:0:0:0:
363,220,74393,1,0,0:0:0:0:
310,273,74628,1,0,0:0:0:0:
12,345,75331,1,0,0:0:0:0:
428,53,76034,1,0,0:0:0:0:
76,337,76386,1,0,0:0:0:0:
428,103,76971,1,0,0:0:0:0:
94,364,77323,1,0,0:0:0:0:
276,35,77792,1,0,0:0:0:0:
277,300,78261,1,0,0:0:0:0:
163,27,78729,1,0,0:0:0:0:
135,138,79550,1,0,0:0:0:0:
412,41,79901,1,0,0:0:0:0:
277,312,80136,1,0,0:0:0:0:
417,142,80721,1,0,0:0:0:0:
300,106,81190,1,0,0:0:0:0:
294,126,81425,1,0,0:0:0:0:
294,126,81542,1,0,0:0:0:0:
149,175,81893,1,0,0:0:0:0:
193,73,82128,1,0,0:0:0:0:
178,170,83651,1,0,0:0:0:0:
184,259,84003,1,0,0:0:0:0:
334,228,84471,1,0,0:0:0:0:
305,152,85057,1,0,0:0:0:0:
305,152,85526,1,0,0:0:0:0:
305,152,85761,1,0,0:0:0:0:
266,153,85995,1,0,0:0:0:0:
235,154,86229,1,0,0:0:0:0:
212,174,86464,1,0,0:0:0:0:
209,204,86698,1,0,0:0:0:0:
257,222,86932,1,0,0:0:0:0:
338,199,87284,1,0,0:0:0:0:
419,210,87401,1,0,0:0:0:0:
392,247,87753,1,0,0:0:0:0:
308,235,87987,1,0,0:0:0:0:
236,199,88339,1,0,0:0:0:0:
224,130,88573,1,0,0:0:0:0:
305,113,88807,1,0,0:0:0:0:
402,132,89042,1,0,0:0:0:0:
427,191,89393,1,0,0:0:0:0:
341,176,89628,1,0,0:0:0:0:
264,181,89862,1,0,0:0:0:0:
236,210,90096,1,0,0:0:0:0:
397,255,90331,1,0,0:0:0:0:
466,210,90565,1,0,0:0:0:0:
352,76,90917,1,0,0:0:0:0:
227,81,91151,1,0,0:0:0:0:
180,181,91268,1,0,0:0:0:0:
184,222,91503,1,0,0:0:0:0:
439,280,91737,1,0,0:0:0:0:
454,160,92089,1,0,0:0:0:0:
182,54,93846,1,0,0:0:0:0:
357,70,94667,1,0,0:0:0:0:
200,153,95136,1,0,0:0:0:0:
283,140,95487,1,0,0:0:0:0:
332,171,95721,1,0,0:0:0:0:
382,188,95956,1,0,0:0:0:0:
250,246,96073,1,0,0:0:0:0:
55,183,96425,1,0,0:0:0:0:
112,117,96659,1,0,0:0:0:0:
357,198,96893,1,0,0:0:0:0:
315,283,97362,1,0,0:0:0:0:
270,159,97831,1,0,0:0:0:0:
352,233,98182,1,0,0:0:0:0:
101,155,98417,1,0,0:0:0:0:
104,131,98651,1,0,0:0:0:0:
236,81,98886,1,0,0:0:0:0:
372,97,99120,1,0,0:0:0:0:
378,108,99354,1,0,0:0:0:0:
380,150,99589,1,0,0:0:0:0:
268,162,99823,1,0,0:0:0:0:
230,177,100057,1,0,0:0:0:0:
225,184,100292,1,0,0:0:0:0:
219,184,100409,1,0,0:0:0:0:
149,163,100761,1,0,0:0:0:0:
161,123,100995,1,0,0:0:0:0:
291,118,101346,1,0,0:0:0:0:
316,183,101815,1,0,0:0:0:0:
180,206,102284,1,0,0:0:0:0:
211,101,102753,1,0,0:0:0:0:
509,182,103221,1,0,0:0:0:0:
187,263,103690,1,0,0:0:0:0:
28,142,104159,1,0,0:0:0:0:
96,213,105096,2,0,L|354:121,2,245
103,105,107792,1,0,0:0:0:0:
394,143,108261,1,0,0:0:0:0:
177,156,108729,1,0,0:0:0:0:
423,143,109198,1,0,0:0:0:0:
236,118,109667,1,0,0:0:0:0:
382,109,110136,1,0,0:0:0:0:
200,88,110604,1,0,0:0:0:0:
356,83,111190,1,0,0:0:0:0:
125,59,111659,1,0,0:0:0:0:
336,76,112128,1,0,0:0:0:0:
163,67,113182,1,0,0:0:0:0:
226,88,113417,1,0,0:0:0:0:
134,146,113768,1,0,0:0:0:0:
168,117,115761,6,0,L|350:128,3,175
196,104,119628,2,0,P|249:181|196:57,2,700
146,151,125604,2,0,L|319:144,2,140
306,143,126893,2,0,B|-166:140|-148:143,1,455
365,134,129237,1,0,0:0:0:0:
343,181,129354,1,0,0:0:0:0:
160,147,129589,1,0,0:0:0:0:
179,160,129823,1,0,0:0:0:0:
157,267,130057,1,0,0:0:0:0:
289,188,130292,1,0,0:0:0:0:
289,188,130526,1,0,0:0:0:0:
292,182,130761,1,0,0:0:0:0:
292,182,130995,1,0,0:0:0:0:
121,78,131229,1,0,0:0:0:0:
109,194,131464,1,0,0:0:0:0:
160,94,132870,1,0,0:0:0:0:
355,150,133221,1,0,0:0:0:0:
257,107,133690,1,0,0:0:0:0:
424,172,134159,1,0,0:0:0:0:
163,191,134628,1,0,0:0:0:0:
186,165,134862,1,0,0:0:0:0:
216,143,135096,1,0,0:0:0:0:
287,143,135331,1,0,0:0:0:0:
323,153,135565,1,0,0:0:0:0:
344,176,135800,1,0,0:0:0:0:
341,200,136034,1,0,0:0:0:0:
314,240,136268,1,0,0:0:0:0:
220,244,136503,1,0,0:0:0:0:
201,214,136737,1,0,0:0:0:0:
135,126,138143,1,0,0:0:0:0:
271,151,138378,1,0,0:0:0:0:
317,182,138612,1,0,0:0:0:0:
306,211,138846,1,0,0:0:0:0:
253,262,139198,1,0,0:0:0:0:
201,253,139432,1,0,0:0:0:0:
177,237,139667,1,0,0:0:0:0:
168,212,139901,1,0,0:0:0:0:
170,184,140253,1,0,0:0:0:0:
180,171,140370,1,0,0:0:0:0:
211,157,140604,1,0,0:0:0:0:
234,153,140839,1,0,0:0:0:0:
270,154,141190,1,0,0:0:0:0:
283,165,141425,1,0,0:0:0:0:
286,183,141659,1,0,0:0:0:0:
187,218,141893,1,0,0:0:0:0:
167,81,143182,1,0,0:0:0:0:
231,236,143534,1,0,0:0:0:0:
317,194,144003,1,0,0:0:0:0:
354,162,144237,1,0,0:0:0:0:
394,182,144706,1,0,0:0:0:0:
397,202,144940,1,0,0:0:0:0:
388,222,145175,1,0,0:0:0:0:
342,228,145526,1,0,0:0:0:0:
294,217,145761,1,0,0:0:0:0:
304,195,146112,1,0,0:0:0:0:
347,186,146229,1,0,0:0:0:0:
378,203,146581,1,0,0:0:0:0:
364,222,146815,1,0,0:0:0:0:
336,218,147167,1,0,0:0:0:0:
345,190,147401,1,0,0:0:0:0:
347,218,147753,1,0,0:0:0:0:
300,192,147987,1,0,0:0:0:0:
237,168,148339,1,0,0:0:0:0:
144,208,148690,1,0,0:0:0:0:
149,115,148925,1,0,0:0:0:0:
320,143,149276,1,0,0:0:0:0:
326,217,149745,1,0,0:0:0:0:
192,139,150214,1,0,0:0:0:0:
421,154,150682,1,0,0:0:0:0:
199,176,151034,1,0,0:0:0:0:
246,69,151386,1,0,0:0:0:0:
262,215,151620,1,0,0:0:0:0:
166,140,152089,1,0,0:0:0:0:
296,90,152440,1,0,0:0:0:0:
262,178,153026,1,0,0:0:0:0:
264,143,153261,1,0,0:0:0:0:
296,125,153495,1,0,0:0:0:0:
333,132,153729,1,0,0:0:0:0:
338,162,154081,1,0,0:0:0:0:
325,189,154315,1,0,0:0:0:0:
284,204,154550,1,0,0:0:0:0:
266,198,154901,1,0,0:0:0:0:
242,150,155136,1,0,0:0:0:0:
287,117,155370,1,0,0:0:0:0:
346,138,155604,1,0,0:0:0:0:
317,191,155956,1,0,0:0:0:0:
257,187,156190,1,0,0:0:0:0:
275,108,156542,1,0,0:0:0:0:
365,138,156776,1,0,0:0:0:0:
324,199,157011,1,0,0:0:0:0:
150,136,157362,1,0,0:0:0:0:
283,74,157831,1,0,0:0:0:0:
412,137,158300,1,0,0:0:0:0:
287,238,158768,1,0,0:0:0:0:
119,34,159237,1,0,0:0:0:0:
462,36,159706,1,0,0:0:0:0:
371,160,160292,1,0,0:0:0:0:
224,74,160878,1,0,0:0:0:0:
440,36,161346,1,0,0:0:0:0:
355,252,161815,1,0,0:0:0:0:
64,165,162401,1,0,0:0:0:0:
227,77,162870,1,0,0:0:0:0:
345,168,163339,1,0,0:0:0:0:
215,314,163807,1,0,0:0:0:0:
179,216,164276,1,0,0:0:0:0:
383,175,164745,1,0,0:0:0:0:
454,268,165214,1,0,0:0:0:0:
142,262,165565,1,0,0:0:0:0:
207,104,166151,1,0,0:0:0:0:
441,267,166971,1,0,0:0:0:0:
185,253,167440,1,0,0:0:0:0:
229,92,167909,1,0,0:0:0:0:
322,260,168729,1,0,0:0:0:0:
142,164,169315,1,0,0:0:0:0:
331,104,169784,1,0,0:0:0:0:
265,240,170253,1,0,0:0:0:0:
209,130,170839,1,0,0:0:0:0:
329,204,171307,1,0,0:0:0:0:
335,134,171659,1,0,0:0:0:0:
229,106,171893,1,0,0:0:0:0:
189,111,172128,1,0,0:0:0:0:
160,147,172362,1,0,0:0:0:0:
176,203,172596,1,0,0:0:0:0:
253,215,172831,1,0,0:0:0:0:
334,182,173182,1,0,0:0:0:0:
393,125,173300,1,0,0:0:0:0:
449,170,173534,1,0,0:0:0:0:
455,225,173768,1,0,0:0:0:0:
379,258,174237,1,0,0:0:0:0:
208,222,174823,1,0,0:0:0:0:
220,176,175175,1,0,0:0:0:0:
274,153,175292,1,0,0:0:0:0:
343,169,175526,1,0,0:0:0:0:
373,192,175761,1,0,0:0:0:0:
344,223,176112,1,0,0:0:0:0:
309,251,176346,1,0,0:0:0:0:
354,269,176698,1,0,0:0:0:0:
394,247,176932,1,0,0:0:0:0:
407,226,177284,1,0,0:0:0:0:
385,192,177518,1,0,0:0:0:0:
322,152,177753,1,0,0:0:0:0:
266,131,178104,1,0,0:0:0:0:
212,126,178339,1,0,0:0:0:0:
178,141,178690,1,0,0:0:0:0:
163,172,179042,1,0,0:0:0:0:
197,204,179393,1,0,0:0:0:0:
251,202,179745,1,0,0:0:0:0:
340,178,180096,1,0,0:0:0:0:
368,189,180331,1,0,0:0:0:0:
375,207,180565,1,0,0:0:0:0:
355,234,180917,1,0,0:0:0:0:
293,245,181151,1,0,0:0:0:0:
330,273,181503,1,0,0:0:0:0:
390,239,181854,1,0,0:0:0:0:
394,193,182089,1,0,0:0:0:0:
334,172,182323,1,0,0:0:0:0:
282,199,182675,1,0,0:0:0:0:
303,226,183026,1,0,0:0:0:0:
342,222,183261,1,0,0:0:0:0:
376,173,183612,1,0,0:0:0:0:
413,182,183729,1,0,0:0:0:0:
413,215,184081,1,0,0:0:0:0:
394,234,184315,1,0,0:0:0:0:
316,214,184667,1,0,0:0:0:0:
309,163,184901,1,0,0:0:0:0:
322,134,185253,1,0,0:0:0:0:
282,94,185487,1,0,0:0:0:0:
196,99,185839,1,0,0:0:0:0:
159,146,186073,1,0,0:0:0:0:
175,201,186425,1,0,0:0:0:0:
270,214,186659,1,0,0:0:0:0:
386,185,186893,1,0,0:0:0:0:
407,221,187245,1,0,0:0:0:0:
379,282,187596,1,0,0:0:0:0:
297,288,187831,1,0,0:0:0:0:
186,75,188534,1,0,0:0:0:0:
159,263,188768,1,0,0:0:0:0:
400,86,189120,1,0,0:0:0:0:
340,250,189471,1,0,0:0:0:0:
192,71,189706,1,0,0:0:0:0:
394,154,190057,1,0,0:0:0:0:
183,177,190526,1,0,0:0:0:0:
341,55,190995,1,0,0:0:0:0:
444,147,191346,1,0,0:0:0:0:
226,119,191815,1,0,0:0:0:0:
226,119,192167,1,0,0:0:0:0:
226,119,192401,1,0,0:0:0:0:
433,128,192636,1,0,0:0:0:0:
217,228,193104,1,0,0:0:0:0:
232,177,193339,1,0,0:0:0:0:
252,97,193690,1,0,0:0:0:0:
384,184,194159,1,0,0:0:0:0:
338,240,194511,1,0,0:0:0:0:
230,203,194979,1,0,0:0:0:0:
191,107,195214,1,0,0:0:0:0:
194,162,195917,1,0,0:0:0:0:
196,97,196268,1,0,0:0:0:0:
194,162,196503,1,0,0:0:0:0:
201,92,196737,1,0,0:0:0:0:
203,137,196971,1,0,0:0:0:0:
211,103,197323,1,0,0:0:0:0:
211,126,197557,1,0,0:0:0:0:
213,117,197909,1,0,0:0:0:0:
212,94,198378,1,0,0:0:0:0:
204,177,198729,1,0,0:0:0:0:
222,81,199081,1,0,0:0:0:0:
204,177,199315,1,0,0:0:0:0:
228,119,199550,1,0,0:0:0:0:
245,87,199901,1,0,0:0:0:0:
135,62,200370,1,0,0:0:0:0:
179,116,202245,1,0,0:0:0:0:
200,137,203417,1,0,0:0:0:0:
197,253,203768,1,0,0:0:0:0:
431,123,204003,1,0,0:0:0:0:
208,343,204354,1,0,0:0:0:0:
174,135,204589,1,0,0:0:0:0:
447,153,205878,1,0,0:0:0:0:
171,107,207284,1,0,0:0:0:0:
203,101,207636,1,0,0:0:0:0:
276,96,208104,1,0,0:0:0:0:
322,109,208456,1,0,0:0:0:0:
262,96,208690,1,0,0:0:0:0:
212,131,208925,1,0,0:0:0:0:
207,138,209276,1,0,0:0:0:0:
262,96,209393,1,0,0:0:0:0:
293,109,209628,1,0,0:0:0:0:
315,129,209862,1,0,0:0:0:0:
304,116,210096,1,0,0:0:0:0:
245,100,210331,1,0,0:0:0:0:
206,131,210565,1,0,0:0:0:0:
269,92,210917,1,0,0:0:0:0:
344,109,211151,1,0,0:0:0:0:
342,119,211503,1,0,0:0:0:0:
239,87,211737,1,0,0:0:0:0:
199,107,211971,1,0,0:0:0:0:
257,90,212323,1,0,0:0:0:0:
309,102,212557,1,0,0:0:0:0:
295,104,212909,1,0,0:0:0:0:
208,87,213143,1,0,0:0:0:0:
179,112,213378,1,0,0:0:0:0:
