osu file format v14

[General]
AudioFilename: audio.mp3
AudioLeadIn: 0
PreviewTime: -1
Countdown: 1
SampleSet: Soft
StackLeniency: 0.7
Mode: 0
LetterboxInBreaks: 0
WidescreenStoryboard: 0

[Editor]
Bookmarks: 15000,30000,39375,45000,60000,74062,75000,86250,90000,116250,120000,150000,165000,180000,195000,202500,206250,210000,217500,247500,262500
DistanceSpacing: 1.5
BeatDivisor: 4
GridSize: 32
TimelineZoom: 1

[Metadata]
Title:Final Destination
TitleUnicode:Final Destination
Artist:cYsmix
ArtistUnicode:cYsmix
Creator:Krameer
Version:Edge
Source:
Tags:
BeatmapID:1482859
BeatmapSetID:700422

[Difficulty]
HPDrainRate:6.4
CircleSize:4
OverallDifficulty:8
ApproachRate:9.2
SliderMultiplier:2
SliderTickRate:1

[Events]
//Background and Video events
//Break Periods
2,166605,209430
//Storyboard Layer 0 (Background)
//Storyboard Layer 1 (Fail)
//Storyboard Layer 2 (Pass)
//Storyboard Layer 3 (Foreground)
//Storyboard Sound Samples

[TimingPoints]
0,468.75,4,2,0,25,1,0
4687,-200,4,2,0,25,0,0
14531,-76.9230769230769,4,2,0,55,0,0
15000,-100,4,2,0,25,0,0
17226,-133.333333333333,4,2,0,25,0,0
17812,-100,4,2,0,25,0,0
19687,-95.2380952380952,4,2,0,25,0,0
21562,-74.0740740740741,4,2,0,65,0,0
22031,-90.9090909090909,4,2,0,25,0,0
30000,-86.9565217391304,4,2,0,40,0,0
40312,-133.333333333333,4,3,0,20,0,0
41250,-83.3333333333333,4,2,0,40,0,0
45000,-80,4,2,0,40,0,0
46171,-71.4285714285714,4,2,0,40,0,0
46875,-80,4,2,0,40,0,0
48046,-68.9655172413793,4,2,0,40,0,0
50625,-76.9230769230769,4,2,0,40,0,0
52265,-66.6666666666667,4,2,0,40,0,0
52734,-76.9230769230769,4,2,0,40,0,0
55546,-64.5161290322581,4,2,0,40,0,0
56250,-62.5,4,2,0,40,0,0
56953,-76.9230769230769,4,2,0,40,0,0
60000,-74.0740740740741,4,2,0,40,0,0
61875,-80,4,2,0,40,0,0
63750,-76.9230769230769,4,2,0,40,0,0
65625,-83.3333333333333,4,2,0,40,0,0
66562,-90.9090909090909,4,2,0,40,0,0
66796,-76.9230769230769,4,2,0,40,0,0
67500,-100,4,2,0,40,0,0
69375,-133.333333333333,4,2,0,40,0,0
71250,-133.333333333333,4,2,0,40,0,0
73125,-153.846153846153,4,2,0,40,0,0
75000,-100,4,2,0,40,0,0
82500,-100,4,3,0,60,0,0
104531,-200,4,3,0,60,0,0
105234,-133.333333333333,4,3,0,60,0,0
105703,-100,4,3,0,60,0,0
106171,-80,4,3,0,60,0,0
106640,-66.6666666666667,4,3,0,60,0,0
112734,-66.6666666666667,4,3,0,20,0,0
113554,-66.6666666666667,4,3,0,40,0,0
114492,-66.6666666666667,4,3,0,60,0,0
115312,-66.6666666666667,4,3,0,80,0,0
116250,-66.6666666666667,4,3,0,100,0,0
120000,-52.6315789473684,4,3,0,60,0,0
122812,-66.6666666666667,4,3,0,60,0,0
132187,-133.333333333333,4,3,0,60,0,0
132421,-66.6666666666667,4,3,0,60,0,0
136054,-133.333333333333,4,3,0,60,0,0
136640,-66.6666666666667,4,3,0,60,0,0
149531,-58.8235294117647,4,3,0,60,0,0
150000,-200,4,3,0,35,0,0
151875,-166.666666666667,4,2,0,35,0,0
153750,-142.857142857143,4,2,0,35,0,0
156562,-125,4,2,0,35,0,0
158437,-111.111111111111,4,2,0,35,0,0
160312,-99.9999999999999,4,2,0,35,0,0
162187,-90.9090909090909,4,2,0,35,0,0
165000,-83.3333333333333,4,2,0,35,0,0
166171,-83.3333333333333,4,2,0,35,0,0
210000,-50,4,2,0,70,0,0
210937,-45,4,2,0,100,0,0
211875,-40,4,2,0,100,0,0
212812,-35,4,2,0,100,0,0
213750,-50,4,2,0,100,0,0

[HitObjects]
61,237,4687,6,0,P|97:197|145:169,1,100,0|4,0:0|0:0,0:0:0:0:
224,152,5625,6,0,L|264:160,4,25
288,232,6562,2,0,L|248:224,4,25
438,266,7500,5,0,0:0:0:0:
373,145,7851,2,0,L|390:175,2,25
336,293,8320,6,0,P|291:317|218:307,1,125,0|4,0:0|0:0,0:0:0:0:
176,108,9375,5,0,0:0:0:0:
319,126,9726,2,0,L|288:105,2,25
435,241,10195,2,0,P|432:285|366:338,1,125
204,86,11250,5,0,0:0:0:0:
173,182,11601,2,0,L|185:216,2,25
257,322,12070,2,0,P|302:329|365:283,1,125
405,224,13125,6,0,L|408:196,4,25
58,192,14062,2,0,L|61:164,3,25
93,209,14531,6,0,L|225:125,1,129.999994049073
261,79,15000,6,0,P|314:80|370:125,1,100,0|8,0:0|0:0,0:0:0:0:
296,217,15468,2,0,P|243:216|187:171,1,100,0|8,0:0|0:0,0:0:0:0:
218,100,15937,2,0,P|271:101|327:146,1,100,0|8,0:0|0:0,0:0:0:0:
271,256,16405,2,0,P|218:255|162:210,1,100,0|8,0:0|0:0,0:0:0:0:
90,137,16875,6,0,P|132:87|177:72,1,100,4|8,0:0|0:0,0:0:0:0:
207,70,17226,2,0,L|217:34,3,37.5000014305115
191,144,17695,1,0,0:0:0:0:
182,180,17812,6,0,P|228:216|272:226,1,100
320,132,18281,2,0,P|274:96|230:86,1,100
94,137,18750,6,0,P|133:187|169:206,1,100
196,224,19101,2,0,L|252:263,1,50,0|8,0:0|0:0,0:0:0:0:
265,224,19335,2,0,L|305:267,1,50,0|4,0:0|0:0,0:0:0:0:
338,312,19570,1,0,0:0:0:0:
357,342,19687,6,0,P|412:356|458:300,1,104.999996795654
461,227,20156,2,0,P|406:213|360:269,1,104.999996795654
297,320,20625,2,0,P|247:309|224:264,1,104.999996795654
331,200,21093,2,0,P|307:155|258:144,1,104.999996795654
123,142,21562,6,0,L|257:143,1,135.000000514984
335,82,22031,6,0,P|311:127|240:139,1,110.000003356934
353,120,22500,2,0,P|312:150|242:131,1,110.000003356934
353,162,22968,2,0,P|303:172|248:125,1,110.000003356934
335,201,23437,2,0,P|285:189|255:123,1,110.000003356934
229,65,23906,1,8,0:0:0:0:
76,78,24375,5,0,0:0:0:0:
93,201,24726,1,0,0:0:0:0:
127,219,24843,1,0,0:0:0:0:
163,218,24960,1,0,0:0:0:0:
268,192,25195,2,0,P|324:148|402:197,1,165.000005035401
468,256,25781,1,8,0:0:0:0:
421,84,26250,5,0,0:0:0:0:
289,118,26601,1,0,0:0:0:0:
243,133,26718,1,0,0:0:0:0:
212,168,26835,1,0,0:0:0:0:
186,254,27070,2,0,B|184:323|123:360|73:271,1,165.000005035401
38,191,27656,1,8,0:0:0:0:
256,192,28125,12,0,29531,0:0:0:0:
149,110,30000,6,0,P|107:164|117:237,1,115.000002193451
227,108,30468,2,0,P|269:162|259:235,1,115.000002193451
121,312,30937,1,0,0:0:0:0:
279,303,31406,1,0,0:0:0:0:
325,167,31875,6,0,P|379:193|399:255,1,115.000002193451
415,336,32343,1,0,0:0:0:0:
244,268,32578,1,0,0:0:0:0:
60,220,33750,6,0,P|125:168|186:151,1,115.000002193451
331,114,34218,1,0,0:0:0:0:
259,219,34453,1,0,0:0:0:0:
411,208,35625,6,0,P|346:159|273:153,1,115.000002193451
201,114,36093,1,0,0:0:0:0:
388,48,36328,1,0,0:0:0:0:
53,255,37500,6,0,P|125:194|171:185,1,115.000002193451
315,210,37968,1,0,0:0:0:0:
259,72,38203,1,0,0:0:0:0:
79,283,39375,6,0,P|121:198|160:178,1,115.000002193451
261,109,39843,1,0,0:0:0:0:
367,213,40078,1,0,0:0:0:0:
268,269,40312,6,0,L|204:345,1,75.0000028610231,8|0,3:0|3:0,3:0:0:0:
207,262,40781,2,0,L|143:338,1,75.0000028610231,8|0,3:0|3:0,3:0:0:0:
67,138,41250,6,0,P|101:102|191:112,1,119.999996337891
241,142,41601,6,0,P|264:171|275:203,1,59.9999981689454
293,99,41835,2,0,P|316:128|332:211,1,119.999996337891
327,265,42187,1,8,3:0:0:0:
327,265,42656,1,8,3:0:0:0:
189,89,43125,6,0,P|157:122|149:148,1,59.9999981689454
145,210,43476,1,0,0:0:0:0:
323,89,44062,2,0,P|354:122|363:148,1,59.9999981689454
367,210,44413,1,0,0:0:0:0:
118,93,45000,6,0,B|187:73|187:73|256:110,2,125
338,187,45937,1,0,0:0:0:0:
230,276,46171,6,0,L|384:148,1,139.999995727539
106,279,46875,5,0,0:0:0:0:
192,205,47109,1,0,0:0:0:0:
276,129,47343,1,0,0:0:0:0:
358,53,47578,1,0,0:0:0:0:
330,174,47812,5,0,0:0:0:0:
382,310,48046,2,0,L|330:174,1,145.000004425049
99,313,48750,5,0,0:0:0:0:
192,205,48984,1,0,0:0:0:0:
302,151,49218,1,0,0:0:0:0:
415,205,49453,1,0,0:0:0:0:
117,120,50625,6,0,L|165:168,1,64.9999970245363
243,234,50976,1,0,0:0:0:0:
255,250,51093,2,0,P|358:223|373:165,1,129.999994049073
364,59,51562,6,0,L|310:105,1,64.9999970245363
249,162,51914,1,0,0:0:0:0:
285,195,52031,5,0,0:0:0:0:
259,342,52265,2,0,L|291:159,1,150.000005722046
296,72,52734,6,0,P|218:47|152:52,1,129.999994049073
110,179,53203,2,0,P|188:204|254:199,1,129.999994049073
379,189,53671,5,0,0:0:0:0:
410,147,53789,1,0,0:0:0:0:
420,94,53906,1,8,0:0:0:0:
192,68,54375,6,0,P|124:102|111:175,1,129.999994049073
90,283,54843,1,8,0:0:0:0:
323,141,55312,5,0,0:0:0:0:
281,290,55546,2,0,L|328:122,1,155.000001182556
219,125,56250,6,0,L|182:285,1,160
182,280,56718,1,0,0:0:0:0:
299,292,57187,6,0,P|360:279|417:232,1,129.999994049073
474,150,57656,1,8,0:0:0:0:
256,192,58125,12,0,59531,0:0:0:0:
393,173,60000,6,0,P|311:127|138:128,1,270.000001029968
55,245,60937,1,0,0:0:0:0:
235,177,61406,1,8,0:0:0:0:
377,77,61875,6,0,L|392:118,1,41.6666666666667
437,276,62343,1,8,0:0:0:0:
225,315,62812,2,0,P|171:246|179:210,1,125
232,82,63281,1,8,0:0:0:0:
393,58,63750,6,0,L|406:109,1,43.3333313496908
447,278,64218,1,8,0:0:0:0:
274,322,64687,6,0,P|174:316|159:278,1,129.999994049073
107,153,65156,1,8,0:0:0:0:
272,53,65625,6,0,L|252:95,1,39.9999987792969
200,215,66093,1,8,0:0:0:0:
415,121,66562,5,0,0:0:0:0:
362,239,66796,2,0,L|425:97,1,129.999994049073
128,79,67500,6,0,L|152:120,1,33.3333333333333,8|0,0:0|0:0,0:0:0:0:
205,199,67968,1,8,0:0:0:0:
338,90,68437,1,0,0:0:0:0:
348,189,68671,2,0,L|335:60,1,100
415,84,69375,6,0,L|416:117,1,25.0000009536744
420,244,69843,1,8,0:0:0:0:
208,240,70312,1,0,0:0:0:0:
264,196,70546,2,0,B|220:217|220:217|199:258,1,75.0000028610231
96,68,71250,6,0,L|133:72,1,25.0000009536744
295,90,71718,1,8,0:0:0:0:
446,47,72187,1,0,0:0:0:0:
367,197,72421,2,0,P|410:207|435:191,2,75.0000028610231
276,98,73125,6,0,L|279:135,1,21.6666656748454
110,260,73593,6,0,L|144:276,1,21.6666656748454
301,332,74062,1,0,0:0:0:0:
101,323,75000,5,0,0:0:0:0:
210,238,75468,1,0,0:0:0:0:
333,137,75937,1,0,0:0:0:0:
455,39,76406,1,0,0:0:0:0:
247,61,76875,5,0,0:0:0:0:
277,172,77343,2,0,L|291:209,1,33.3333333333333
328,312,77812,1,0,0:0:0:0:
172,311,78281,5,0,0:0:0:0:
218,193,78750,2,0,L|231:150,1,33.3333333333333
282,48,79218,1,0,0:0:0:0:
422,122,79687,5,0,0:0:0:0:
344,229,80156,1,0,0:0:0:0:
253,335,80625,2,0,L|223:357,1,33.3333333333333
399,331,81093,2,0,L|429:353,1,33.3333333333333
265,218,81562,1,0,0:0:0:0:
72,296,82500,6,0,L|107:273,1,33.3333333333333,0|0,3:0|3:0,3:0:0:0:
198,216,82968,1,0,3:0:0:0:
307,127,83437,1,0,3:0:0:0:
409,44,83906,1,0,3:0:0:0:
235,61,84375,6,0,L|229:100,1,33.3333333333333,0|0,3:0|3:0,3:0:0:0:
212,221,84843,1,0,3:0:0:0:
193,350,85312,1,0,3:0:0:0:
327,322,85781,5,0,3:0:0:0:
368,217,86250,2,0,L|382:187,1,33.3333333333333
422,82,86718,1,0,0:0:0:0:
305,55,87187,6,0,P|241:56|185:87,1,100
199,207,87656,2,0,P|263:206|319:175,1,100
373,81,88125,6,0,P|323:79|276:95,1,100
272,228,88594,2,0,P|321:229|368:213,1,100
445,145,89062,6,0,P|458:223|424:267,1,100
333,270,89531,2,0,P|320:192|354:148,1,100
400,70,90000,5,0,0:0:0:0:
293,53,90468,2,0,P|261:64|237:85,1,50
251,261,91171,2,0,P|219:272|195:293,1,50
179,300,91406,2,0,P|143:280|188:209,1,100
256,323,91875,5,0,0:0:0:0:
373,177,92343,2,0,P|381:145|357:119,1,50
339,41,92812,1,0,0:0:0:0:
380,60,93750,1,0,0:0:0:0:
154,62,94218,2,0,P|131:81|122:104,1,50
260,146,95156,5,0,0:0:0:0:
159,111,95390,1,0,0:0:0:0:
214,238,95625,1,0,0:0:0:0:
443,55,96562,1,0,0:0:0:0:
351,249,97500,1,0,0:0:0:0:
136,190,98906,5,0,0:0:0:0:
171,86,99140,1,0,0:0:0:0:
201,281,99375,1,0,0:0:0:0:
363,312,99843,5,0,0:0:0:0:
412,180,100312,1,0,0:0:0:0:
283,122,100781,1,0,0:0:0:0:
213,261,101250,1,0,0:0:0:0:
99,169,101718,6,0,P|122:103|172:77,1,100
259,161,102187,2,0,P|236:227|186:253,1,100
140,161,102656,2,0,P|163:95|213:69,1,100
300,153,103125,2,0,P|277:219|227:245,1,100
177,146,103593,2,0,P|200:80|250:54,1,100
337,138,104062,2,0,P|314:204|264:230,1,100
86,185,104531,6,0,P|137:252|154:268,1,100
242,308,105234,6,0,L|301:319,2,37.5000014305115
254,233,105703,6,0,L|324:245,2,50
264,152,106171,6,0,L|369:171,2,62.5
267,76,106640,6,0,L|352:95,2,75.0000028610231
122,58,107109,5,0,0:0:0:0:
122,58,107226,1,0,0:0:0:0:
122,58,107343,1,0,0:0:0:0:
247,82,107578,5,0,0:0:0:0:
247,82,107695,1,0,0:0:0:0:
247,82,107812,1,0,0:0:0:0:
336,161,108046,5,0,0:0:0:0:
336,161,108163,1,0,0:0:0:0:
336,161,108280,1,0,0:0:0:0:
374,276,108515,5,0,0:0:0:0:
374,276,108632,1,0,0:0:0:0:
374,276,108749,1,0,0:0:0:0:
224,338,108984,5,0,0:0:0:0:
184,331,109101,1,0,0:0:0:0:
162,298,109218,1,0,0:0:0:0:
203,216,109453,5,0,0:0:0:0:
179,182,109570,1,0,0:0:0:0:
187,143,109687,1,0,0:0:0:0:
276,134,109921,5,0,0:0:0:0:
283,94,110038,1,0,0:0:0:0:
316,72,110155,1,0,0:0:0:0:
410,53,110390,5,0,0:0:0:0:
424,111,110507,1,0,0:0:0:0:
439,167,110625,1,0,0:0:0:0:
330,136,110859,5,0,0:0:0:0:
344,194,110976,1,0,0:0:0:0:
359,250,111094,1,0,0:0:0:0:
228,198,111328,5,0,0:0:0:0:
242,256,111445,1,0,0:0:0:0:
257,312,111563,1,0,0:0:0:0:
153,339,111796,6,0,L|85:192,1,150.000005722046
196,257,112265,2,0,L|168:97,1,150.000005722046
247,197,112734,5,0,0:0:0:0:
229,163,112851,1,0,0:0:0:0:
218,127,112968,1,0,0:0:0:0:
225,90,113085,1,0,0:0:0:0:
249,60,113203,1,0,0:0:0:0:
284,47,113320,1,0,0:0:0:0:
318,60,113437,1,0,0:0:0:0:
352,88,113554,5,0,0:0:0:0:
377,124,113671,1,0,0:0:0:0:
383,168,113789,1,0,0:0:0:0:
378,212,113906,1,0,0:0:0:0:
351,248,114023,1,0,0:0:0:0:
312,270,114140,1,0,0:0:0:0:
267,274,114257,1,0,0:0:0:0:
228,250,114375,1,0,0:0:0:0:
199,205,114492,5,0,0:0:0:0:
199,152,114609,1,0,0:0:0:0:
226,107,114726,1,0,0:0:0:0:
262,69,114843,1,0,0:0:0:0:
309,47,114960,1,0,0:0:0:0:
360,57,115078,1,0,0:0:0:0:
404,84,115195,1,0,0:0:0:0:
439,122,115312,5,0,0:0:0:0:
451,180,115429,1,0,0:0:0:0:
429,235,115546,1,0,0:0:0:0:
388,279,115664,1,0,0:0:0:0:
337,311,115781,1,0,0:0:0:0:
278,323,115898,1,0,0:0:0:0:
218,322,116015,1,0,0:0:0:0:
163,298,116132,1,0,0:0:0:0:
128,248,116250,6,0,L|136:184,2,37.5000014305115
176,212,116484,2,0,L|184:148,2,37.5000014305115
226,179,116718,6,0,L|229:141,3,25.0000009536744
287,142,116953,2,0,L|290:104,3,25.0000009536744
348,113,117187,6,0,L|347:89,14,18.7500007152558
319,57,117656,6,0,P|176:72|213:203,1,300.000011444092
101,95,119062,5,0,0:0:0:0:
247,264,119296,1,0,0:0:0:0:
250,80,119531,5,0,0:0:0:0:
396,249,119765,1,0,0:0:0:0:
419,77,120000,6,0,B|394:100|394:100|394:121|394:121|374:119|374:119|377:139|377:139|360:141|360:141|364:156|364:156|344:159|344:159|347:179|347:179|306:196,1,189.999994926453
220,260,120468,2,0,P|157:290|211:227,1,189.999994926453
147,71,120937,6,0,B|174:91|174:91|194:87|194:87|196:107|196:107|215:100|215:100|221:116|221:116|235:109|235:109|241:128|241:128|260:122|260:122|285:159,1,189.999994926453
365,187,121406,2,0,P|430:212|346:215,1,189.999994926453
292,273,121757,6,0,B|257:256|257:256|245:228|245:228|211:209,1,94.9999974632264
225,279,121992,2,0,B|190:262|190:262|178:234|178:234|144:215,1,94.9999974632264
117,117,122226,2,0,B|151:134|151:134|163:161|163:161|198:181,1,94.9999974632264
288,241,122578,6,0,B|329:251|329:251|341:210|341:210|386:221,1,94.9999974632264
413,214,122812,6,0,L|363:364,1,150.000005722046
211,313,123281,5,0,0:0:0:0:
210,234,123398,2,0,L|233:200,1,37.5000014305115
262,203,123515,2,0,L|285:169,1,37.5000014305115
261,141,123632,2,0,L|284:107,1,37.5000014305115
330,71,123750,5,8,0:0:0:0:
387,137,123867,2,0,P|421:102|429:71,2,75.0000028610231
292,207,124218,2,0,B|252:229|252:229|256:242|256:242|244:242|244:242|245:255|245:255|229:255|229:255|230:270|230:270|215:269|215:269|213:284|213:284|202:291,1,150.000005722046
126,348,124687,1,8,0:0:0:0:
158,134,124921,5,0,0:0:0:0:
203,191,125039,1,0,0:0:0:0:
253,245,125156,1,0,0:0:0:0:
308,295,125390,2,0,L|329:292,5,18.7500007152558
398,301,125625,6,0,P|423:190|396:139,1,150.000005722046
375,81,126093,2,0,L|396:78,7,18.7500007152558
271,176,126562,2,0,L|292:173,7,18.7500007152558
217,276,127031,2,0,B|200:314|200:314|151:340,1,75.0000028610231
90,271,127265,2,0,B|106:232|106:232|156:207,1,75.0000028610231
217,191,127500,1,8,0:0:0:0:
266,55,127968,6,0,P|330:76|424:152,1,150.000005722046
442,180,128437,2,0,B|414:192|414:192|408:211|408:211|399:206|399:206|393:221|393:221|381:215|381:215|379:228|379:228|364:222|364:222|364:236|364:236|348:230|348:230|347:249|347:249,1,150.000005722046
272,280,128906,1,8,0:0:0:0:
153,264,129140,6,0,P|133:226|152:194,1,75.0000028610231
199,148,129375,1,8,0:0:0:0:
267,96,129492,2,0,P|286:133|268:166,1,75.0000028610231
255,246,129726,6,0,L|318:176,1,75.0000028610231
348,165,129960,2,0,P|382:175|382:229,2,75.0000028610231
301,141,130312,6,0,L|183:243,1,150.000005722046
188,233,130781,6,0,L|182:173,1,37.5000014305115
225,180,130898,2,0,L|219:120,1,37.5000014305115
258,139,131015,2,0,L|252:79,1,37.5000014305115
294,96,131132,2,0,L|288:36,1,37.5000014305115
311,48,131250,5,0,0:0:0:0:
359,40,131367,1,0,0:0:0:0:
404,67,131484,1,0,0:0:0:0:
410,112,131601,1,0,0:0:0:0:
387,186,131718,1,8,0:0:0:0:
247,195,131953,6,0,B|227:221|227:221|212:230|212:230|197:259,1,75.0000028610231
194,308,132187,6,0,L|244:321,1,37.5000014305115
314,323,132421,6,0,B|350:332|350:332|364:321|364:321|395:328,1,75.0000028610231
467,332,132656,1,8,0:0:0:0:
450,206,132890,6,0,L|417:225,4,37.5000014305115
336,265,133359,1,0,0:0:0:0:
112,82,133593,1,0,0:0:0:0:
67,168,133828,6,0,L|80:258,1,75.0000028610231
117,279,134062,6,0,P|214:280|243:215,1,150.000005722046
171,241,134531,2,0,P|247:190|276:125,1,150.000005722046
267,80,135000,2,0,P|364:23|441:186,1,300.000011444092
443,205,135585,1,0,0:0:0:0:
403,261,135703,1,0,0:0:0:0:
357,305,135820,2,0,L|290:343,1,75.0000028610231,0|8,0:0|0:0,0:0:0:0:
247,356,136054,6,0,L|166:258,1,112.500004291535
166,189,136640,6,0,P|201:223|255:219,1,75.0000028610231
290,258,136875,1,8,0:0:0:0:
316,178,136992,2,0,B|354:200|354:200|375:231,1,75.0000028610231
363,130,137226,2,0,B|401:152|401:152|422:183,1,75.0000028610231
339,306,137578,2,0,B|321:280|321:280|283:258,1,75.0000028610231
245,229,137812,6,0,P|179:311|143:284,1,150.000005722046
106,286,138281,6,0,L|96:226,1,37.5000014305115
128,232,138398,2,0,L|128:170,1,37.5000014305115
154,176,138515,2,0,L|170:122,1,37.5000014305115
187,131,138632,2,0,L|216:84,1,37.5000014305115
238,68,138750,5,0,0:0:0:0:
297,125,138867,1,0,0:0:0:0:
360,181,138984,2,0,P|393:203|405:250,1,75.0000028610231
345,284,139218,2,0,P|330:249|299:230,1,75.0000028610231
227,211,139453,1,0,0:0:0:0:
165,255,139570,2,0,L|112:318,1,75.0000028610231
347,255,139921,6,0,L|400:318,1,75.0000028610231
415,333,140156,2,0,B|472:326|458:256|414:207,1,150.000005722046
355,163,140625,6,0,L|204:75,1,150.000005722046
122,33,141093,2,0,B|126:71|126:71|140:73|140:73|136:93|136:93|155:98|155:98|151:113|151:113|165:122|165:122|165:137|165:137|179:150,1,150.000005722046
215,219,141562,2,0,L|385:125,1,150.000005722046
393,122,142031,5,0,0:0:0:0:
437,123,142148,1,0,0:0:0:0:
472,166,142265,1,0,0:0:0:0:
411,267,142500,5,0,0:0:0:0:
367,266,142617,1,0,0:0:0:0:
332,223,142734,1,0,0:0:0:0:
292,125,142968,5,0,0:0:0:0:
257,82,143085,1,0,0:0:0:0:
213,81,143202,1,0,0:0:0:0:
157,220,143437,6,0,L|217:69,1,150.000005722046
313,49,143906,2,0,P|400:61|432:137,1,150.000005722046
419,225,144375,2,0,L|440:306,2,75.0000028610231
367,133,144843,2,0,P|322:75|249:72,1,150.000005722046
197,137,145312,6,0,L|218:339,1,150.000005722046
323,301,145781,6,0,L|332:238,1,37.5000014305115
315,238,145898,2,0,L|324:175,1,37.5000014305115
350,181,146015,2,0,L|359:118,1,37.5000014305115
336,116,146132,2,0,L|345:53,1,37.5000014305115
363,56,146250,6,0,L|450:40,2,75.0000028610231
240,75,146718,5,0,0:0:0:0:
200,117,146835,1,0,0:0:0:0:
185,175,146953,1,0,0:0:0:0:
214,294,147187,1,0,0:0:0:0:
214,294,147421,2,0,L|391:340,2,150.000005722046
138,264,148125,6,0,P|90:193|104:122,1,150.000005722046
157,41,148593,1,8,0:0:0:0:
132,269,149062,6,0,L|265:105,1,150.000005722046
197,285,149531,6,0,L|322:119,1,170.000003242493
357,60,150000,6,0,P|434:66|447:101,1,100
414,174,150937,2,0,P|376:144|329:156,1,100
394,226,151875,6,0,P|370:178|349:162,1,59.9999981689454
270,193,152343,2,0,P|294:241|315:257,1,59.9999981689454
388,299,152812,2,0,P|440:237|442:186,1,119.999996337891
434,121,153750,6,0,P|413:82|374:63,1,69.9999978637696
306,121,154218,2,0,P|327:160|366:179,1,69.9999978637696
437,211,154687,2,0,P|429:286|349:311,1,139.999995727539
254,324,155625,5,0,0:0:0:0:
155,336,155860,1,0,0:0:0:0:
75,280,156094,1,0,0:0:0:0:
47,186,156328,1,0,0:0:0:0:
104,115,156562,6,0,P|171:76|244:121,1,160
317,196,157500,2,0,P|346:250|346:304,1,80
327,348,157968,1,0,0:0:0:0:
230,272,158203,1,0,0:0:0:0:
163,194,158437,6,0,P|202:119|295:127,1,179.999994506836
381,169,159375,6,0,P|435:205|449:257,1,89.9999972534181
352,314,159843,2,0,P|298:278|284:226,1,89.9999972534181
263,173,160312,6,0,P|271:117|127:91,1,200
82,123,161250,2,0,P|58:179|72:240,1,100
158,281,161718,2,0,P|182:225|168:164,1,100
183,88,162187,6,0,B|260:98|261:182,1,110.000003356934
270,53,162656,2,0,B|303:115|242:173,1,110.000003356934,8|0,0:0|0:0,0:0:0:0:
205,217,163125,2,0,P|185:274|224:311,1,110.000003356934
298,341,163593,2,0,P|356:325|365:272,1,110.000003356934
364,200,164062,6,0,P|342:112|224:72,1,220.000006713867
119,127,165000,6,0,L|279:339,1,239.999992675781
321,151,165937,1,0,0:0:0:0:
369,260,166171,6,0,L|306:116,1,119.999996337891
132,152,210000,6,0,B|258:250|258:250|264:281|264:281|287:283,1,200
169,68,210937,6,0,L|359:237,1,222.222222222222
426,80,211875,6,0,L|149:247,1,250
106,93,212812,6,0,L|389:252,1,285.714285714286
139,91,213750,6,0,L|196:199,1,100
276,120,214101,2,0,L|327:231,1,100
414,156,214453,2,0,L|387:299,1,100
297,129,214804,2,0,L|244:254,1,100
298,62,215156,2,0,L|176:248,1,200
