osu file format v14

[General]
AudioFilename: audio.mp3
AudioLeadIn: 0
PreviewTime: -1
Countdown: 1
SampleSet: Soft
StackLeniency: 0.7
Mode: 0
LetterboxInBreaks: 0
WidescreenStoryboard: 1

[Editor]
DistanceSpacing: 0.5
BeatDivisor: 4
GridSize: 4
TimelineZoom: 1

[Metadata]
Title:Escapism
TitleUnicode:Escapism
Artist:cYsmix
ArtistUnicode:cYsmix
Creator:Derr Rtee
Version:Sane
Source:Escapism album
Tags:Electronic progressive
BeatmapID:1665760
BeatmapSetID:793149

[Difficulty]
HPDrainRate:6.2
CircleSize:3
OverallDifficulty:8.5
ApproachRate:9.5
SliderMultiplier:1.4
SliderTickRate:1

[Events]
//Background and Video events
0,0,"122271.jpg",0,0
//Break Periods
2,33966,40666
2,78731,85666
//Storyboard Layer 0 (Background)
//Storyboard Layer 1 (Fail)
//Storyboard Layer 2 (Pass)
//Storyboard Layer 3 (Foreground)
//Storyboard Sound Samples

[TimingPoints]
16,468.75,4,2,0,100,1,0
9156,-100,4,2,0,100,0,0
11662,-66.6666666666667,4,2,0,100,0,0
23336,-86.9565217391304,4,2,0,100,0,0
24391,-66.6666666666667,4,2,0,100,0,0
26148,-55.5555555555556,4,2,0,100,0,0
47711,-47.6190476190476,4,2,0,100,0,0
64469,-33.3333333333333,4,2,0,100,0,0
68219,-40,4,2,0,100,0,0
91773,-45.4545454545455,4,2,0,100,0,0
95172,-40,4,2,0,100,0,0
104898,-50,4,2,0,100,0,0
108430,-40,4,2,0,100,0,0
114273,-66.6666666666667,4,2,0,100,0,0
124117,-100,4,2,0,100,0,0
127281,-40,4,2,0,100,0,0
127780,-33.3333333333333,4,2,0,100,0,0
132555,-40,4,2,0,100,0,0
138766,-33.3333333333333,4,2,0,100,0,0
140406,-40,4,2,0,50,0,0
159039,-50,4,2,0,5,0,0
159742,-66.6666666666667,4,2,0,5,0,0
160211,-100,4,2,0,5,0,0
160680,-200,4,2,0,5,0,0

[Colours]
Combo1 : 81,81,255
Combo2 : 0,0,174
Combo3 : 0,0,255
Combo4 : 45,45,255

[HitObjects]
40,92,16,6,0,B|336:56|336:56|96:184|96:184|368:140|368:140,1,840,4|0,0:0|0:0,0:0:0:0:
256,192,3297,6,0,L|256:144,2,35,10|0|0,0:0|0:0|0:0,0:0:0:0:
60,80,3766,2,0,B|88:56|120:72|112:72,1,35
192,64,4234,2,0,B|220:40|252:56|244:56,1,35,8|0,0:0|0:0,0:0:0:0:
336,56,4703,2,0,B|325:71|364:32|396:48|388:48,4,35,0|0|0|0|8,0:0|0:0|0:0|0:0|0:0,0:0:0:0:
336,56,5406,6,0,B|268:96|196:76,1,140
164,60,6344,5,2,0:0:0:0:
156,248,6812,1,0,0:0:0:0:
356,148,7281,1,2,0:0:0:0:
156,132,7750,1,0,0:0:0:0:
260,324,8219,1,2,0:0:0:0:
128,180,8687,1,0,0:0:0:0:
176,72,8922,5,2,0:0:0:0:
188,76,9156,2,2,P|240:44|340:52,1,140
317,42,9859,1,8,0:0:0:0:
318,44,10094,2,8,P|292:168|264:184,1,140,0|2,0:0|0:0,0:0:0:0:
228,180,10797,1,8,0:0:0:0:
173,187,11031,6,4,P|216:272|280:284,1,140,0|2,0:0|0:0,0:0:0:0:
400,292,11734,5,8,0:0:0:0:
328,148,11969,1,0,0:0:0:0:
216,240,12203,5,0,0:0:0:0:
120,136,12437,1,2,0:0:0:0:
256,108,12672,5,8,0:0:0:0:
368,88,12906,1,0,0:0:0:0:
256,192,13141,1,0,0:0:0:0:
128,272,13375,5,2,0:0:0:0:
256,192,13609,1,8,0:0:0:0:
368,88,13844,1,0,0:0:0:0:
368,180,14078,1,0,0:0:0:0:
372,276,14312,5,2,0:0:0:0:
256,192,14547,1,8,0:0:0:0:
140,112,14781,1,6,0:0:0:0:
256,192,15016,12,2,18531,0:0:0:0:
196,164,18766,5,2,0:0:0:0:
308,156,19000,1,0,0:0:0:0:
204,252,19235,1,10,0:0:0:0:
320,240,19469,1,0,0:0:0:0:
128,116,19703,6,0,B|156:92|236:112|224:120,1,105.000004005432
300,120,20172,2,0,B|328:96|408:116|396:124,1,105.000004005432,8|0,0:0|0:0,0:0:0:0:
128,268,20641,2,0,B|156:292|236:272|224:264,1,105.000004005432
300,264,21109,2,0,B|328:288|408:268|396:260,1,105.000004005432,8|0,0:0|0:0,0:0:0:0:
108,104,21578,5,2,0:0:0:0:
208,104,21812,1,0,0:0:0:0:
384,192,22047,1,10,0:0:0:0:
284,192,22281,1,0,0:0:0:0:
208,232,22516,2,0,L|316:152,1,105.000004005432
304,232,22984,2,0,L|196:152,1,105.000004005432,8|0,0:0|0:0,0:0:0:0:
72,120,23453,6,0,P|128:76|184:132,2,157.500006008148,0|8|0,0:0|0:0|0:0,0:0:0:0:
294,130,24508,2,0,P|240:81|182:125,1,157.500006008148,0|8,0:0|0:0,0:0:0:0:
0,72,25094,5,0,0:0:0:0:
92,192,25328,1,0,0:0:0:0:
152,56,25562,1,0,0:0:0:0:
256,184,25797,1,8,0:0:0:0:
512,72,26031,5,0,0:0:0:0:
420,192,26265,1,0,0:0:0:0:
360,56,26499,1,0,0:0:0:0:
236,160,26734,1,8,0:0:0:0:
236,160,26969,5,0,0:0:0:0:
168,272,27437,5,0,0:0:0:0:
236,160,27672,1,8,0:0:0:0:
300,76,27906,1,0,0:0:0:0:
432,264,28375,5,0,0:0:0:0:
304,220,28609,1,8,0:0:0:0:
192,168,28844,1,0,0:0:0:0:
448,164,29312,5,0,0:0:0:0:
312,180,29547,1,8,0:0:0:0:
188,192,29781,1,0,0:0:0:0:
252,84,30250,5,0,0:0:0:0:
280,144,30484,1,8,0:0:0:0:
304,200,30719,1,0,0:0:0:0:
188,192,31187,5,0,0:0:0:0:
216,156,31422,1,8,0:0:0:0:
248,120,31656,1,0,0:0:0:0:
284,196,32125,5,0,0:0:0:0:
232,192,32359,1,8,0:0:0:0:
188,192,32594,1,0,0:0:0:0:
232,132,33062,5,8,0:0:0:0:
364,104,33297,1,8,0:0:0:0:
372,116,33414,1,8,0:0:0:0:
372,116,33532,2,0,L|440:116,2,62.9999980773926,8|0|0,0:0|0:0|0:0,0:0:0:0:
200,120,41266,5,14,0:0:0:0:
256,192,41734,12,4,46891,0:0:0:0:
408,276,47359,6,0,L|420:120,1,125.999996154785
208,224,47828,6,0,L|324:104,2,125.999996154785
256,192,48531,6,0,L|256:144,2,35
136,92,48766,5,0,0:0:0:0:
436,92,49234,1,8,0:0:0:0:
436,328,49703,1,0,0:0:0:0:
280,248,49937,1,0,0:0:0:0:
132,324,50172,1,8,0:0:0:0:
152,252,50406,2,0,L|152:204,2,35
256,188,51109,5,8,0:0:0:0:
428,260,51578,2,0,L|352:164,2,73.4999977569581
84,260,52047,2,0,L|129:202,2,73.4999977569581,8|0|0,0:0|0:0|0:0,0:0:0:0:
256,28,52516,1,0,0:0:0:0:
256,188,52984,5,10,0:0:0:0:
380,320,53453,1,0,0:0:0:0:
272,320,53688,2,0,P|232:336|164:288,1,73.4999977569581
112,248,53922,1,8,0:0:0:0:
220,184,54156,1,0,0:0:0:0:
300,240,54273,1,0,0:0:0:0:
252,188,54859,5,10,0:0:0:0:
304,248,55328,2,0,P|328:208|304:164,2,73.4999977569581
208,248,55797,2,0,P|184:208|208:164,2,73.4999977569581,8|0|0,0:0|0:0|0:0,0:0:0:0:
256,88,56266,5,0,0:0:0:0:
308,116,56734,2,0,P|348:112|380:148,1,73.4999977569581,8|0,0:0|0:0,0:0:0:0:
392,212,57203,1,0,0:0:0:0:
292,208,57672,2,8,P|252:204|220:240,1,73.4999977569581,8|0,0:0|0:0,0:0:0:0:
208,304,58141,1,0,0:0:0:0:
88,180,58609,6,0,P|64:140|84:124,4,73.4999977569581,8|0|0|0|0,0:0|0:0|0:0|0:0|0:0,0:0:0:0:
256,192,59547,2,0,P|344:136|256:0,1,293.999991027832,8|0,0:0|0:0,0:0:0:0:
256,100,60250,1,0,0:0:0:0:
256,188,60484,1,8,0:0:0:0:
304,212,60719,6,0,P|324:244|440:276,1,146.999995513916
368,196,61187,1,0,0:0:0:0:
448,216,61422,1,8,0:0:0:0:
88,180,61539,2,0,P|64:140|84:124,2,73.4999977569581
120,104,61891,1,0,0:0:0:0:
192,72,62125,2,0,P|252:84|296:108,1,73.4999977569581
336,120,62359,1,0,0:0:0:0:
408,240,62945,5,8,0:0:0:0:
392,256,63062,1,8,0:0:0:0:
264,308,63531,1,8,0:0:0:0:
256,312,63766,2,0,B|124:336|48:188|116:128,1,293.999991027832
168,68,64469,2,0,P|200:44|240:64,2,73.4999977569581
168,160,64937,1,0,0:0:0:0:
304,256,65172,1,0,0:0:0:0:
328,52,65406,5,0,0:0:0:0:
264,132,65523,1,0,0:0:0:0:
380,136,65641,1,0,0:0:0:0:
96,96,66578,6,0,P|88:200|172:292,1,210.000008010865
192,104,67047,1,0,0:0:0:0:
200,112,67164,1,0,0:0:0:0:
208,120,67281,1,0,0:0:0:0:
216,128,67398,2,0,L|284:40,1,105.000004005432
344,64,67750,5,0,0:0:0:0:
424,160,67984,1,0,0:0:0:0:
420,276,68219,1,0,0:0:0:0:
352,288,68453,2,0,P|336:176|232:140,2,175
208,152,69156,1,0,0:0:0:0:
200,152,69273,2,0,P|112:184|72:312,1,175
36,104,70328,2,0,P|96:152|48:204,2,87.5
472,104,70797,2,0,P|430:114|411:152,2,87.5
256,184,71266,5,0,0:0:0:0:
256,184,71734,5,0,0:0:0:0:
172,212,72203,5,0,0:0:0:0:
244,96,72437,1,0,0:0:0:0:
320,200,72672,1,0,0:0:0:0:
144,256,72906,2,0,P|192:248|212:160,2,87.5
256,192,73609,5,0,0:0:0:0:
396,96,74079,6,0,L|392:240,1,87.5
388,300,74312,1,0,0:0:0:0:
76,96,74547,2,0,L|72:240,1,87.5
68,300,74780,1,0,0:0:0:0:
256,192,75016,1,0,0:0:0:0:
256,192,75484,5,0,0:0:0:0:
476,60,75953,6,0,P|396:80|340:124,1,87.5
296,132,76187,1,0,0:0:0:0:
284,240,76422,1,0,0:0:0:0:
148,116,76657,1,0,0:0:0:0:
148,116,76773,2,0,B|248:164|248:164|448:24,1,350
84,104,77828,6,0,L|236:152,1,87.5
280,172,78062,1,0,0:0:0:0:
64,196,78297,2,0,L|216:244,1,87.5
260,264,78531,1,0,0:0:0:0:
112,280,86266,6,0,L|116:152,2,87.5
408,296,86734,2,0,L|412:168,2,87.5,8|0|0,0:0|0:0|0:0,0:0:0:0:
108,180,87203,6,0,L|28:236,2,87.5
404,180,87672,2,0,L|484:236,2,87.5,8|0|0,0:0|0:0|0:0,0:0:0:0:
128,168,88141,6,0,L|120:56,2,87.5
404,180,88609,2,0,L|408:76,2,87.5,8|0|0,0:0|0:0|0:0,0:0:0:0:
108,204,89078,6,0,L|28:148,2,87.5
404,204,89547,2,0,L|484:148,2,87.5,8|0|0,0:0|0:0|0:0,0:0:0:0:
152,84,90015,6,0,P|100:136|152:204,1,87.5
128,232,90250,1,0,0:0:0:0:
152,380,90484,6,0,P|100:328|152:260,1,87.5,8|0,0:0|0:0,0:0:0:0:
128,232,90719,1,0,0:0:0:0:
360,84,90953,6,0,P|412:136|360:204,1,87.5
384,232,91188,1,0,0:0:0:0:
360,380,91422,6,0,P|412:328|360:260,1,87.5,8|0,0:0|0:0,0:0:0:0:
384,232,91657,1,0,0:0:0:0:
492,188,91891,6,0,B|256:52|256:52|28:196|28:196|240:372|240:372|492:188|492:188|456:168|456:168,1,1155.0000352478,8|2,0:0|0:0,0:0:0:0:
256,56,93766,5,0,0:0:0:0:
188,132,94000,1,0,0:0:0:0:
256,56,94234,1,8,0:0:0:0:
320,152,94468,5,0,0:0:0:0:
256,56,94703,1,0,0:0:0:0:
144,184,94937,1,0,0:0:0:0:
256,56,95172,1,8,0:0:0:0:
340,244,95406,6,0,B|244:276|136:184|136:184,1,175
336,60,95875,2,0,B|240:28|132:120|132:120,1,175,0|8,0:0|0:0,0:0:0:0:
268,152,96344,1,0,0:0:0:0:
199,251,96578,6,0,B|269:276|377:184|354:200,1,175
204,51,97047,2,0,B|273:28|381:120|359:102,1,175,8|0,0:0|0:0,0:0:0:0:
244,152,97516,1,0,0:0:0:0:
256,320,97984,5,2,0:0:0:0:
376,192,98219,1,0,0:0:0:0:
452,40,98453,1,2,0:0:0:0:
252,36,98687,1,0,0:0:0:0:
64,32,98922,1,0,0:0:0:0:
152,192,99156,1,2,0:0:0:0:
352,228,99391,1,2,0:0:0:0:
360,244,99625,6,0,P|336:208|356:80,1,175
151,243,100094,2,0,P|175:207|155:79,1,175
159,83,100562,2,0,P|254:50|360:96,1,175
384,164,101031,1,0,0:0:0:0:
336,312,101500,6,0,B|164:312|164:312|12:288|104:208,1,350,0|2,0:0|0:0,0:0:0:0:
164,148,102203,1,0,0:0:0:0:
328,196,102437,1,0,0:0:0:0:
160,324,102672,1,0,0:0:0:0:
156,328,102906,5,0,0:0:0:0:
124,112,103141,1,0,0:0:0:0:
392,116,103375,1,0,0:0:0:0:
152,328,103609,1,0,0:0:0:0:
432,296,103844,5,0,0:0:0:0:
96,128,104078,1,0,0:0:0:0:
392,116,104312,1,0,0:0:0:0:
152,328,104547,1,0,0:0:0:0:
432,296,104781,5,0,0:0:0:0:
472,324,105016,6,0,B|40:248|40:248|300:104|300:104|472:324|472:324|40:248|40:248|40:244|40:244,1,1400
168,176,107594,5,0,0:0:0:0:
208,104,107828,2,0,P|248:72|296:104,1,70
368,60,108062,1,0,0:0:0:0:
220,232,108297,1,0,0:0:0:0:
220,232,108531,6,0,L|224:132,2,87.5
188,296,110641,6,0,P|253:346|326:306,1,175
188,296,111109,2,0,P|253:346|326:306,1,175
436,144,111578,2,0,L|352:120,1,87.5
256,88,111813,1,0,0:0:0:0:
76,144,112047,2,0,L|160:120,1,87.5
256,88,112282,1,0,0:0:0:0:
88,264,112516,6,0,L|184:252,1,87.5
176,252,112984,2,0,L|168:160,1,87.5
168,164,113453,2,0,P|212:144|300:164,1,87.5
332,144,113922,2,0,P|388:152|444:184,1,87.5
364,272,114391,6,0,P|320:280|280:268,1,52.5000020027161,0|2,0:0|0:0,0:0:0:0:
268,264,114625,1,0,0:0:0:0:
232,244,114742,2,0,L|148:196,2,52.5000020027161
268,264,115094,1,0,0:0:0:0:
360,268,115211,1,0,0:0:0:0:
124,104,115562,5,0,0:0:0:0:
192,104,115680,1,0,0:0:0:0:
244,128,115797,2,0,L|268:252,1,105.000004005432
268,308,116148,2,0,P|232:328|192:328,2,52.5000020027161
344,260,116734,5,0,0:0:0:0:
400,128,117203,1,0,0:0:0:0:
212,120,117672,1,0,0:0:0:0:
312,276,118141,6,0,P|192:184|224:116,1,210.000008010865
248,49,119078,5,0,0:0:0:0:
312,64,119429,1,0,0:0:0:0:
340,120,119547,1,2,0:0:0:0:
280,224,119781,1,0,0:0:0:0:
276,232,120016,6,0,P|188:288|160:212,1,210.000008010865
160,76,120601,1,0,0:0:0:0:
160,76,120719,1,0,0:0:0:0:
164,80,120836,1,0,0:0:0:0:
164,80,120953,2,0,P|256:48|352:72,1,157.500006008148
384,80,121422,1,0,0:0:0:0:
416,116,121598,1,0,0:0:0:0:
444,156,121773,1,0,0:0:0:0:
448,232,121891,2,0,B|440:296|440:296|392:272|320:240,1,157.500006008148
232,204,122359,6,0,L|244:144,1,52.5000020027161
264,60,122594,1,0,0:0:0:0:
300,48,122711,1,0,0:0:0:0:
332,40,122828,1,0,0:0:0:0:
372,36,123062,1,0,0:0:0:0:
368,252,123297,2,0,L|372:24,1,210.000008010865,0|2,0:0|0:0,0:0:0:0:
96,128,124234,6,0,P|90:144|97:159,3,35
192,88,124703,1,0,0:0:0:0:
300,76,125055,6,0,P|300:58|248:24,1,70,0|2,0:0|0:0,0:0:0:0:
136,176,125641,2,0,P|120:248|180:284,1,140
256,120,126695,5,8,0:0:0:0:
252,180,126930,1,8,0:0:0:0:
249,267,127281,2,0,L|253:135,2,87.5
100,88,127984,5,0,0:0:0:0:
156,248,128336,2,0,P|124:224|116:196,2,70
252,260,128687,1,0,0:0:0:0:
352,228,128922,1,0,0:0:0:0:
412,160,129156,2,0,P|440:120|404:40,2,105.000004005432
256,188,129859,5,8,0:0:0:0:
88,88,130328,1,0,0:0:0:0:
88,88,130445,1,0,0:0:0:0:
88,88,130562,2,0,B|120:80|128:188|220:92,1,105.000004005432
76,216,130797,1,0,0:0:0:0:
76,216,130914,1,0,0:0:0:0:
76,216,131031,2,0,B|108:208|116:316|208:220,1,105.000004005432,0|4,0:0|0:0,0:0:0:0:
256,180,131266,1,0,0:0:0:0:
256,180,131734,5,8,0:0:0:0:
308,320,131969,2,0,P|372:300|380:248,1,105.000004005432
408,128,132203,1,0,0:0:0:0:
256,180,132437,1,0,0:0:0:0:
160,200,132672,2,0,P|192:112|160:16,1,175,0|2,0:0|0:0,0:0:0:0:
173,35,133023,2,0,P|125:95|173:162,1,87.5
256,192,133609,5,8,0:0:0:0:
173,35,134078,2,0,P|125:95|173:162,2,87.5
364,336,134547,2,0,P|412:276|364:209,2,87.5
252,336,135016,6,0,P|120:260|112:208,1,175
256,192,135484,1,8,0:0:0:0:
120,188,135953,1,0,0:0:0:0:
256,56,136187,1,0,0:0:0:0:
388,192,136422,1,0,0:0:0:0:
392,196,136656,1,0,0:0:0:0:
256,56,136773,1,0,0:0:0:0:
120,188,136890,1,0,0:0:0:0:
256,188,137359,5,0,0:0:0:0:
173,349,137828,2,0,P|125:289|173:222,2,87.5
364,48,138297,2,0,P|412:108|364:175,2,87.5
256,288,138766,6,0,B|360:248|360:248|188:120|188:120|292:44,1,420.000016021729,0|4,0:0|0:0,0:0:0:0:
264,64,139703,6,0,B|160:104|160:104|332:232|332:232|228:308,1,420.000016021729,0|4,0:0|0:0,0:0:0:0:
255,287,140641,6,0,B|256:216|256:216|435:287|435:287|436:168,1,350,0|4,0:0|0:0,0:0:0:0:
384,104,141578,5,0,0:0:0:0:
280,68,141812,1,0,0:0:0:0:
244,68,141930,1,0,0:0:0:0:
100,92,142047,1,0,0:0:0:0:
100,108,142164,1,0,0:0:0:0:
100,124,142281,1,0,0:0:0:0:
100,144,142398,1,0,0:0:0:0:
256,188,142516,5,0,0:0:0:0:
104,312,142750,1,0,0:0:0:0:
88,84,143219,5,0,0:0:0:0:
256,320,143687,1,0,0:0:0:0:
432,92,144156,1,0,0:0:0:0:
136,208,144625,5,0,0:0:0:0:
400,204,145094,1,0,0:0:0:0:
136,208,145562,1,0,0:0:0:0:
252,136,146031,5,0,0:0:0:0:
256,8,146500,1,0,0:0:0:0:
252,296,146969,1,0,0:0:0:0:
364,328,147437,6,0,P|400:292|400:212,1,87.5
400,100,147906,2,0,P|372:52|312:44,1,87.5
148,56,148375,2,0,P|112:92|112:172,1,87.5
112,284,148844,2,0,P|140:332|200:340,1,87.5
364,328,149312,6,0,P|400:292|400:212,1,87.5
400,100,149781,2,0,P|372:52|312:44,1,87.5
148,56,150250,2,0,P|112:92|112:172,1,87.5
112,284,150719,2,0,P|140:332|200:340,1,87.5
168,112,151422,5,0,0:0:0:0:
360,120,151891,1,0,0:0:0:0:
360,284,152359,1,0,0:0:0:0:
168,280,152828,1,0,0:0:0:0:
200,112,153297,5,0,0:0:0:0:
312,120,153766,1,0,0:0:0:0:
312,284,154234,1,0,0:0:0:0:
200,280,154703,1,0,0:0:0:0:
196,124,155172,5,0,0:0:0:0:
264,76,155641,1,0,0:0:0:0:
304,144,156109,1,0,0:0:0:0:
256,192,156578,12,4,158922,0:0:0:0:
256,184,159391,6,2,L|320:260,1,70
256,184,159859,6,2,L|292:140,1,52.5000020027161
256,184,160328,6,2,L|212:140,1,35
256,184,160797,6,2,L|236:208,1,17.5
