osu file format v14

[General]
AudioFilename: audio.mp3
AudioLeadIn: 0
PreviewTime: 86587
Countdown: 0
SampleSet: None
StackLeniency: 0.3
Mode: 0
LetterboxInBreaks: 0
WidescreenStoryboard: 0

[Editor]
Bookmarks: 3498,30498,44641,145783
DistanceSpacing: 0.9
BeatDivisor: 4
GridSize: 4
TimelineZoom: 2

[Metadata]
Title:Eden
TitleUnicode:Eden
Artist:cYsmix
ArtistUnicode:cYsmix
Creator:Gero
Version:Garden of Eden
Source:osu!
Tags:Mappers' Lounge Guild FA Featured Artist Electronic Escapism Norwegian Trance Electro Complextro Track 03 クセモノレコーズ Kusemono Records 3rd Solo Album
BeatmapID:1669808
BeatmapSetID:792241

[Difficulty]
HPDrainRate:7
CircleSize:4
OverallDifficulty:8
ApproachRate:9
SliderMultiplier:1.8
SliderTickRate:1

[Events]
//Background and Video events
0,0,"eden.jpg",0,0
//Break Periods
2,31127,44041
//Storyboard Layer 0 (Background)
//Storyboard Layer 1 (Fail)
//Storyboard Layer 2 (Pass)
//Storyboard Layer 3 (Foreground)
//Storyboard Sound Samples

[TimingPoints]
70,428.571428571429,4,3,1,50,1,0
3498,-90.9090909090909,4,3,1,65,0,0
17212,-71.4285714285714,4,3,1,70,0,0
30927,-100,4,3,1,70,0,0
44641,-100,4,3,1,60,0,0
53641,-100,4,3,1,30,0,0
54070,-100,4,3,1,40,0,0
54498,-100,4,3,1,50,0,0
54927,-100,4,3,1,60,0,0
56641,-125,4,3,1,30,0,0
56668,-125,4,3,1,20,0,0
57927,-125,4,3,1,60,0,0
58355,-66.6666666666667,4,3,1,70,0,0
84927,-66.6666666666667,4,3,1,40,0,0
85784,-1000,4,3,1,30,0,0
86212,-50,4,3,1,70,0,0
86641,-66.6666666666667,4,3,1,80,0,1
109784,-66.6666666666667,4,3,1,70,0,1
111498,-66.6666666666667,4,3,1,60,0,1
113212,-71.4285714285714,4,3,1,50,0,0
126927,-71.4285714285714,4,3,1,45,0,0
133784,-71.4285714285714,4,3,1,40,0,0
137212,-71.4285714285714,4,3,1,30,0,0
138927,-71.4285714285714,4,3,1,25,0,0
139784,-71.4285714285714,4,3,1,40,0,0
140641,-71.4285714285714,4,3,1,40,0,0
142355,-71.4285714285714,4,3,1,30,0,0
144070,-71.4285714285714,4,3,1,20,0,0
145784,-71.4285714285714,4,2,1,5,0,0

[Colours]
Combo1 : 128,0,255
Combo2 : 214,50,54
Combo3 : 167,118,97
Combo4 : 26,176,157
Combo5 : 107,192,50
Combo6 : 147,147,147
Combo7 : 240,0,0
Combo8 : 255,28,141

[HitObjects]
362,112,3498,5,4,0:0:0:0:
405,87,3605,1,0,0:0:0:0:
453,90,3712,1,0,0:0:0:0:
492,120,3820,1,0,0:0:0:0:
506,167,3927,5,8,1:0:0:0:
492,214,4034,1,0,0:0:0:0:
453,244,4141,1,0,0:0:0:0:
405,247,4248,1,0,0:0:0:0:
362,222,4355,101,4,0:0:0:0:
319,197,4462,1,0,0:0:0:0:
271,200,4570,1,0,0:0:0:0:
232,230,4677,1,0,0:0:0:0:
218,277,4784,5,8,1:0:0:0:
232,324,4891,1,2,0:0:0:0:
271,354,4998,1,2,0:0:0:0:
319,357,5105,1,2,0:0:0:0:
362,332,5212,101,4,0:0:0:0:
330,307,5320,1,0,0:0:0:0:
299,283,5427,1,0,0:0:0:0:
267,259,5534,1,0,0:0:0:0:
218,277,5641,5,8,1:0:0:0:
186,252,5748,1,0,0:0:0:0:
155,228,5855,1,0,0:0:0:0:
123,204,5962,1,0,0:0:0:0:
73,221,6070,101,4,0:0:0:0:
41,196,6177,1,0,0:0:0:0:
10,172,6284,2,0,B|4:148|4:148|10:124,1,49.5000015106202,8|0,1:0|0:0,0:0:0:0:
72,10,6498,5,8,1:0:0:0:
72,10,6605,2,0,B|78:34|78:34|72:58,1,49.5000015106202,8|0,1:0|0:0,0:0:0:0:
134,124,6820,1,8,1:0:0:0:
134,124,6927,101,4,3:0:0:0:
167,159,7034,1,0,0:0:0:0:
214,172,7141,1,0,0:0:0:0:
261,159,7248,1,0,0:0:0:0:
294,124,7355,5,8,1:0:0:0:
327,89,7462,1,0,0:0:0:0:
374,76,7570,1,0,0:0:0:0:
421,89,7677,1,0,0:0:0:0:
454,124,7784,101,4,0:0:0:0:
467,171,7891,1,0,0:0:0:0:
455,218,7998,1,0,0:0:0:0:
421,253,8105,1,0,0:0:0:0:
373,265,8212,5,8,1:0:0:0:
326,253,8320,1,2,0:0:0:0:
292,218,8427,1,2,0:0:0:0:
280,170,8534,1,2,0:0:0:0:
294,123,8641,101,4,0:0:0:0:
325,155,8748,1,0,0:0:0:0:
357,187,8855,1,0,0:0:0:0:
389,219,8962,1,0,0:0:0:0:
421,253,9070,5,8,1:0:0:0:
389,284,9177,1,0,0:0:0:0:
357,316,9284,1,0,0:0:0:0:
325,348,9391,1,0,0:0:0:0:
291,380,9498,102,0,P|267:385|243:380,1,49.5000015106202,4|0,0:0|0:0,0:0:0:0:
143,304,9712,2,0,P|167:299|191:304,1,49.5000015106202,8|0,1:0|0:0,0:0:0:0:
91,379,9927,5,8,1:0:0:0:
59,347,10034,1,8,1:0:0:0:
48,304,10141,1,8,1:0:0:0:
59,261,10248,1,8,1:0:0:0:
88,228,10355,101,4,0:0:0:0:
65,195,10462,1,0,0:0:0:0:
44,165,10570,1,0,0:0:0:0:
23,134,10677,1,0,0:0:0:0:
2,102,10784,5,8,1:0:0:0:
28,60,10891,1,0,0:0:0:0:
74,46,10998,1,0,0:0:0:0:
120,60,11105,1,0,0:0:0:0:
146,102,11212,101,4,0:0:0:0:
172,144,11320,1,0,0:0:0:0:
218,158,11427,1,0,0:0:0:0:
264,144,11534,1,0,0:0:0:0:
290,102,11641,5,8,1:0:0:0:
297,151,11748,1,2,0:0:0:0:
304,200,11855,1,2,0:0:0:0:
311,249,11962,1,2,0:0:0:0:
318,298,12070,101,4,0:0:0:0:
269,291,12177,1,0,0:0:0:0:
220,284,12284,1,0,0:0:0:0:
171,277,12391,1,0,0:0:0:0:
122,270,12498,5,8,1:0:0:0:
115,221,12605,1,0,0:0:0:0:
108,172,12712,1,0,0:0:0:0:
101,123,12820,1,0,0:0:0:0:
96,72,12927,101,4,0:0:0:0:
143,81,13034,1,0,0:0:0:0:
192,88,13141,2,0,L|199:136,1,49.5000015106202,8|0,1:0|0:0,0:0:0:0:
282,53,13355,5,8,1:0:0:0:
282,53,13462,2,0,L|289:101,1,49.5000015106202,8|0,1:0|0:0,0:0:0:0:
372,18,13677,1,8,1:0:0:0:
372,18,13784,101,4,0:0:0:0:
384,66,13891,1,0,0:0:0:0:
396,114,13998,1,0,0:0:0:0:
408,162,14105,1,0,0:0:0:0:
420,210,14212,5,8,1:0:0:0:
387,245,14320,1,0,0:0:0:0:
340,258,14427,1,0,0:0:0:0:
293,245,14534,1,0,0:0:0:0:
260,210,14641,101,4,0:0:0:0:
227,175,14748,1,0,0:0:0:0:
180,162,14855,1,0,0:0:0:0:
133,175,14962,1,0,0:0:0:0:
100,210,15070,5,8,1:0:0:0:
87,257,15177,1,2,0:0:0:0:
99,304,15284,1,2,0:0:0:0:
133,339,15391,1,2,0:0:0:0:
181,351,15498,101,4,0:0:0:0:
228,339,15605,1,0,0:0:0:0:
262,304,15712,1,0,0:0:0:0:
274,256,15820,1,0,0:0:0:0:
260,210,15927,5,8,1:0:0:0:
281,165,16034,1,0,0:0:0:0:
302,120,16141,1,0,0:0:0:0:
323,75,16248,1,0,0:0:0:0:
344,31,16355,102,0,L|295:23,1,49.5000015106202,4|0,0:0|0:0,0:0:0:0:
196,88,16570,2,0,L|147:80,1,49.5000015106202,8|0,1:0|0:0,0:0:0:0:
54,5,16784,5,8,1:0:0:0:
22,37,16891,1,8,1:0:0:0:
11,80,16998,1,8,1:0:0:0:
22,123,17105,1,8,1:0:0:0:
51,156,17212,102,0,L|15:208,1,62.9999980773926,4|0,1:0|0:0,0:0:0:0:
141,193,17427,2,0,L|105:245,1,62.9999980773926
231,230,17641,2,0,L|195:282,1,62.9999980773926,8|0,1:0|0:0,0:0:0:0:
321,267,17855,2,0,L|285:319,1,62.9999980773926
411,304,18070,5,4,0:0:0:0:
429,273,18177,1,0,0:0:0:0:
434,238,18284,1,0,0:0:0:0:
427,204,18391,1,0,0:0:0:0:
411,172,18498,101,8,1:0:0:0:
395,139,18605,1,2,0:0:0:0:
388,105,18712,1,2,0:0:0:0:
393,70,18820,1,2,0:0:0:0:
411,40,18927,6,0,B|395:36|383:26|383:26|371:36|355:40,1,62.9999980773926,4|0,0:0|0:0,0:0:0:0:
256,106,19141,2,0,B|272:102|284:92|284:92|296:102|312:106,1,62.9999980773926
411,172,19355,2,0,B|395:168|383:158|383:158|371:168|355:172,1,62.9999980773926,8|0,1:0|0:0,0:0:0:0:
256,238,19570,2,0,B|272:234|284:224|284:224|296:234|312:238,1,62.9999980773926
412,304,19784,102,0,B|384:290|384:290|356:304,1,62.9999980773926,4|0,0:0|0:0,0:0:0:0:
257,370,19998,2,0,B|285:356|285:356|313:370,1,62.9999980773926,8|0,1:0|0:0,0:0:0:0:
213,304,20212,5,8,1:0:0:0:
213,304,20320,2,0,B|185:290|185:290|157:304,1,62.9999980773926,8|0,1:0|0:0,0:0:0:0:
59,370,20534,1,8,1:0:0:0:
59,370,20641,101,4,0:0:0:0:
42,338,20748,1,0,0:0:0:0:
37,303,20855,1,0,0:0:0:0:
42,269,20962,1,0,0:0:0:0:
59,237,21070,5,8,1:0:0:0:
75,205,21177,1,0,0:0:0:0:
80,170,21284,1,0,0:0:0:0:
75,136,21391,1,0,0:0:0:0:
58,104,21498,101,4,0:0:0:0:
90,76,21605,1,0,0:0:0:0:
130,65,21712,1,0,0:0:0:0:
170,76,21820,1,0,0:0:0:0:
202,104,21927,5,8,1:0:0:0:
234,132,22034,1,2,0:0:0:0:
274,143,22141,1,2,0:0:0:0:
314,132,22248,1,2,0:0:0:0:
346,104,22355,102,0,B|378:104|378:104|402:122,1,62.9999980773926,4|0,0:0|0:0,0:0:0:0:
504,173,22570,2,0,B|472:173|472:173|448:191,1,62.9999980773926
346,242,22784,2,0,B|378:242|378:242|402:261,1,62.9999980773926,8|0,1:0|0:0,0:0:0:0:
504,311,22998,2,0,B|472:311|472:311|448:329,1,62.9999980773926
346,380,23212,6,0,B|331:352|331:352|346:324,1,62.9999980773926,4|0,0:0|0:0,0:0:0:0:
256,242,23427,2,0,B|271:270|271:270|256:298,1,62.9999980773926,8|0,1:0|0:0,0:0:0:0:
166,380,23641,101,8,1:0:0:0:
141,360,23748,1,8,1:0:0:0:
116,340,23855,1,8,1:0:0:0:
91,320,23962,1,8,1:0:0:0:
66,300,24070,6,0,P|36:291|6:300,1,62.9999980773926,4|0,0:0|0:0,0:0:0:0:
36,217,24284,2,0,P|66:208|96:217,1,62.9999980773926
66,134,24498,2,0,P|36:125|6:134,1,62.9999980773926,8|0,1:0|0:0,0:0:0:0:
36,51,24712,2,0,P|66:42|96:51,1,62.9999980773926
170,135,24927,101,4,0:0:0:0:
185,156,25034,1,0,0:0:0:0:
206,172,25141,1,0,0:0:0:0:
230,182,25248,1,0,0:0:0:0:
256,188,25355,5,8,1:0:0:0:
282,182,25462,1,2,0:0:0:0:
306,172,25570,1,2,0:0:0:0:
327,156,25677,1,2,0:0:0:0:
342,135,25784,102,0,L|310:80,1,62.9999980773926,4|0,0:0|0:0,0:0:0:0:
170,135,25998,2,0,L|202:80,1,62.9999980773926
358,210,26212,2,0,L|327:156,1,62.9999980773926,8|0,1:0|0:0,0:0:0:0:
154,210,26427,2,0,L|185:156,1,62.9999980773926
389,284,26641,6,0,B|358:290|358:290|327:284,1,62.9999980773926,4|0,0:0|0:0,0:0:0:0:
225,362,26855,2,0,B|256:356|256:356|287:362,1,62.9999980773926,8|0,1:0|0:0,0:0:0:0:
185,284,27070,101,8,1:0:0:0:
185,284,27177,2,0,B|154:290|154:290|123:284,1,62.9999980773926,8|0,1:0|0:0,0:0:0:0:
55,185,27391,1,8,1:0:0:0:
55,185,27498,6,0,L|19:133,1,62.9999980773926,4|0,0:0|0:0,0:0:0:0:
186,96,27712,2,0,L|222:148,1,62.9999980773926
76,75,27927,2,0,L|128:39,1,62.9999980773926,8|0,1:0|0:0,0:0:0:0:
165,206,28141,2,0,L|113:242,1,62.9999980773926
457,185,28355,102,0,L|493:133,1,62.9999980773926,4|0,0:0|0:0,0:0:0:0:
326,96,28570,2,0,L|290:148,1,62.9999980773926
436,75,28784,2,0,L|384:39,1,62.9999980773926,8|0,1:0|0:0,0:0:0:0:
347,206,28998,2,0,L|399:242,1,62.9999980773926
326,96,29212,5,8,1:0:0:0:
256,309,29427,1,0,0:0:0:0:
186,96,29641,101,8,1:0:0:0:
256,324,29855,1,0,0:0:0:0:
326,96,30070,5,8,1:0:0:0:
256,339,30284,1,0,0:0:0:0:
186,96,30498,101,4,0:0:0:0:
186,96,30927,5,4,1:0:0:0:
186,96,44641,5,10,0:0:0:0:
256,40,44855,2,0,B|340:8|340:8|424:40,1,180,8|8,0:0|0:0,0:0:0:0:
494,96,45498,1,10,0:0:0:0:
424,152,45712,1,8,0:0:0:0:
494,208,45927,1,10,0:0:0:0:
424,264,46141,6,0,P|383:280|342:264,1,90,8|2,0:0|0:0,0:0:0:0:
272,208,46570,2,0,B|228:208|228:208|188:185|188:185|148:208|148:208|104:208,1,180,8|8,0:0|0:0,0:0:0:0:
33,265,47212,1,10,0:0:0:0:
103,321,47427,1,0,0:0:0:0:
33,265,47641,1,10,0:0:0:0:
104,208,47855,102,0,B|117:165|117:165|104:122,1,90,8|2,0:0|0:0,0:0:0:0:
33,65,48284,2,0,B|68:65|96:44|104:19|104:19|112:44|140:65|175:65,1,180,8|8,0:0|0:0,0:0:0:0:
256,24,48927,1,2,0:0:0:0:
337,64,49141,1,8,0:0:0:0:
256,105,49355,1,2,0:0:0:0:
337,64,49570,6,0,B|355:47|355:47|395:47|395:47|413:64,1,90,8|2,0:0|0:0,0:0:0:0:
494,105,49998,2,0,B|516:192|516:192|494:279,1,180,8|8,0:0|0:0,0:0:0:0:
413,320,50641,1,2,0:0:0:0:
494,360,50855,1,8,0:0:0:0:
413,320,51070,2,0,B|390:342|390:342|387:351|387:351|381:345|381:345|379:353|379:353|356:376,1,90,10|0,0:0|0:0,0:0:0:0:
275,336,51498,101,8,0:1:0:0:
194,295,51712,1,0,0:0:0:0:
209,206,51927,1,8,0:1:0:0:
297,192,52141,1,0,0:0:0:0:
338,272,52355,5,8,0:1:0:0:
427,257,52570,1,0,0:0:0:0:
441,169,52784,1,8,0:1:0:0:
361,128,52998,1,0,0:0:0:0:
376,39,53212,101,8,0:1:0:0:
256,192,53320,12,8,56212,0:1:0:0:
376,39,56641,22,2,B|338:59|300:39|300:39|320:95|292:135|256:155|256:155|240:107|192:95|192:95|136:141|80:95,1,432,0|4,2:0|0:0,2:0:0:0:
80,95,58355,54,0,P|71:127|80:159,1,67.5000025749208,6|0,1:0|0:0,0:0:0:0:
48,240,58570,2,0,P|80:249|112:240,1,67.5000025749208
193,272,58784,1,10,1:0:0:0:
193,272,58891,2,0,P|202:240|193:208,1,67.5000025749208,2|0,0:1|0:0,0:0:0:0:
225,127,59105,1,2,0:1:0:0:
225,127,59212,6,0,P|202:65|225:3,1,135.000005149842,2|0,0:1|0:0,0:0:0:0:
412,65,59641,2,0,P|350:88|288:65,1,135.000005149842,8|0,1:0|0:0,0:0:0:0:
475,3,60070,101,10,0:0:0:0:
475,3,60177,1,10,0:0:0:0:
475,3,60284,2,0,B|496:52|496:52|480:132,1,135.000005149842,10|8,0:0|1:0,0:0:0:0:
417,194,60605,2,0,B|396:145|396:145|412:65,1,135.000005149842,10|0,0:0|0:0,0:0:0:0:
480,132,60927,2,0,B|501:181|501:181|485:261,1,135.000005149842,10|0,0:0|0:0,0:0:0:0:
422,323,61248,2,0,B|401:274|401:274|417:194,1,135.000005149842,10|0,0:0|0:0,0:0:0:0:
480,132,61570,1,10,0:0:0:0:
288,65,61784,6,0,B|274:131,1,67.5000025749208,2|0,0:1|0:0,0:0:0:0:
204,80,61998,2,0,B|190:146,1,67.5000025749208,2|0,0:1|0:0,0:0:0:0:
120,95,62212,1,10,1:0:0:0:
120,95,62320,2,0,B|106:161,1,67.5000025749208,2|0,0:1|0:0,0:0:0:0:
36,110,62534,1,2,0:1:0:0:
36,110,62641,102,0,L|9:242,1,135.000005149842,2|0,0:1|0:0,0:0:0:0:
193,272,63070,1,10,1:0:0:0:
193,272,63177,1,2,0:1:0:0:
193,272,63284,2,0,B|179:338,1,67.5000025749208,2|0,0:1|0:0,0:0:0:0:
264,316,63498,5,10,0:0:0:0:
264,316,63605,1,10,0:0:0:0:
264,316,63712,2,0,B|319:316|319:316|327:320|327:320|335:324|335:324|396:324,1,135.000005149842,10|8,0:0|1:0,0:0:0:0:
472,372,64034,2,0,B|500:324|472:276|472:276|496:252,1,135.000005149842,10|0,0:0|0:0,0:0:0:0:
425,208,64355,2,0,B|370:208|370:208|362:204|362:204|354:200|354:200|292:200,1,135.000005149842,10|0,0:0|0:0,0:0:0:0:
217,152,64677,2,0,B|189:200|217:248|217:248|193:272,1,135.000005149842,10|0,0:0|0:0,0:0:0:0:
264,316,64998,1,10,0:0:0:0:
96,360,65212,102,0,P|64:351|32:360,1,67.5000025749208,2|0,0:1|0:0,0:0:0:0:
0,276,65427,2,0,P|32:267|64:276,1,67.5000025749208
96,192,65641,1,10,1:0:0:0:
96,192,65748,2,0,P|64:183|32:192,1,67.5000025749208,2|0,0:1|0:0,0:0:0:0:
0,108,65962,1,2,0:1:0:0:
0,108,66070,6,0,B|22:83|32:49|32:49|42:83|64:108,1,135.000005149842,2|0,0:1|0:0,0:0:0:0:
208,8,66498,2,0,B|186:33|176:67|176:67|166:33|144:8,1,135.000005149842,8|0,1:0|0:0,0:0:0:0:
288,108,66927,101,10,0:0:0:0:
288,108,67034,1,10,0:0:0:0:
288,108,67141,2,0,B|288:163|288:163|292:171|292:171|284:171|284:171|288:179|288:179|288:234,1,135.000005149842,10|8,0:0|1:0,0:0:0:0:
225,293,67462,2,0,B|280:293|280:293|288:297|288:297|288:289|288:289|296:293|296:293|351:293,1,135.000005149842,10|0,0:0|0:0,0:0:0:0:
410,356,67784,2,0,B|410:301|410:301|414:293|414:293|406:293|406:293|410:285|410:285|410:230,1,135.000005149842,10|0,0:0|0:0,0:0:0:0:
473,171,68105,2,0,B|418:171|418:171|410:167|410:167|410:175|410:175|402:171|402:171|347:171,1,135.000005149842,10|0,0:0|0:0,0:0:0:0:
288,108,68427,1,10,0:0:0:0:
165,230,68641,6,0,B|133:240|133:240|101:230,1,67.5000025749208,2|0,0:1|0:0,0:0:0:0:
0,164,68855,2,0,B|32:154|32:154|64:164,1,67.5000025749208,2|0,0:1|0:0,0:0:0:0:
165,98,69070,1,10,1:0:0:0:
165,98,69177,2,0,B|133:108|133:108|101:98,1,67.5000025749208,2|0,0:1|0:0,0:0:0:0:
0,32,69391,1,2,0:1:0:0:
1,32,69498,102,0,B|67:18|67:18|133:32,1,135.000005149842,2|0,0:1|0:0,0:0:0:0:
288,108,69927,1,10,1:0:0:0:
288,108,70034,1,2,0:1:0:0:
288,108,70141,2,0,L|354:122,1,67.5000025749208,2|0,0:1|0:0,0:0:0:0:
417,62,70355,5,10,0:0:0:0:
417,62,70462,1,10,0:0:0:0:
417,62,70570,2,0,P|442:123|417:184,1,135.000005149842,10|8,0:0|1:0,0:0:0:0:
480,244,70891,2,0,B|417:268|417:268|354:244,1,135.000005149842,10|0,0:0|0:0,0:0:0:0:
291,304,71212,2,0,P|266:243|291:182,1,135.000005149842,10|0,0:0|0:0,0:0:0:0:
228,122,71534,2,0,B|291:98|291:98|354:122,1,135.000005149842,10|0,0:0|0:0,0:0:0:0:
417,183,71855,1,10,0:0:0:0:
291,304,72070,102,0,B|228:328,1,67.5000025749208,6|0,1:0|0:0,0:0:0:0:
165,266,72284,1,8,0:0:0:0:
149,272,72391,1,8,0:0:0:0:
133,278,72498,1,10,1:0:0:0:
117,284,72605,2,0,B|93:221,1,67.5000025749208,2|0,0:1|0:0,0:0:0:0:
155,158,72820,1,2,0:1:0:0:
155,158,72927,6,0,B|106:31,1,135.000005149842,2|0,0:1|0:0,0:0:0:0:
256,124,73355,2,0,B|207:251,1,135.000005149842,8|0,1:0|0:0,0:0:0:0:
357,158,73784,101,10,0:0:0:0:
357,158,73891,1,10,0:0:0:0:
357,158,73998,2,0,B|377:126|409:118|409:118|441:126|461:158,1,135.000005149842,10|8,0:0|1:0,0:0:0:0:
409,230,74320,2,0,B|366:265|366:265|363:273|363:273|358:267|358:267|354:275|354:275|312:310,1,135.000005149842,10|0,0:0|0:0,0:0:0:0:
272,236,74641,2,0,B|240:236|240:236|208:251|208:251|176:236|176:236|144:236,1,135.000005149842,10|0,0:0|0:0,0:0:0:0:
102,311,74962,2,0,B|59:275|59:275|56:267|56:267|51:273|51:273|47:265|47:265|5:230,1,135.000005149842,10|0,0:0|0:0,0:0:0:0:
47,155,75284,1,10,0:0:0:0:
152,15,75498,6,0,P|184:5|216:15,1,67.5000025749208,2|0,0:1|0:0,0:0:0:0:
320,88,75712,2,0,P|288:78|256:88,1,67.5000025749208,2|0,0:1|0:0,0:0:0:0:
152,161,75927,1,10,1:0:0:0:
152,161,76034,2,0,P|184:151|216:161,1,67.5000025749208,2|0,0:1|0:0,0:0:0:0:
320,234,76248,1,2,0:1:0:0:
320,234,76355,102,0,B|288:175|288:175|256:234,1,135.000005149842,2|0,0:1|0:0,0:0:0:0:
404,328,76784,1,10,1:0:0:0:
404,328,76891,1,2,0:1:0:0:
404,328,76998,2,0,L|436:269,1,67.5000025749208,2|0,0:1|0:0,0:0:0:0:
480,192,77212,5,10,0:0:0:0:
480,192,77320,1,10,0:0:0:0:
480,192,77427,2,0,B|488:152|456:124|424:124|424:124|390:124,1,135.000005149842,10|8,0:0|1:0,0:0:0:0:
316,76,77748,2,0,B|256:45|256:45|196:76,1,135.000005149842,10|0,0:0|0:0,0:0:0:0:
121,124,78070,2,0,B|88:124|88:124|56:124|24:152|32:192,1,135.000005149842,10|0,0:0|0:0,0:0:0:0:
76,269,78391,2,0,B|88:301|124:313|124:313|160:301|172:269,1,135.000005149842,10|0,0:0|0:0,0:0:0:0:
215,192,78712,1,10,0:0:0:0:
316,76,78927,102,0,L|377:48,1,67.5000025749208,2|0,0:1|0:0,0:0:0:0:
391,124,79141,2,0,L|452:150,1,67.5000025749208
452,233,79355,1,10,1:0:0:0:
452,233,79462,2,0,L|391:260,1,67.5000025749208,2|0,0:1|0:0,0:0:0:0:
377,336,79677,1,2,0:1:0:0:
377,336,79784,6,0,L|256:277,1,135.000005149842,2|0,0:1|0:0,0:0:0:0:
256,107,80212,2,0,L|377:48,1,135.000005149842,8|0,1:0|0:0,0:0:0:0:
512,192,80641,101,10,0:0:0:0:
492,192,80748,1,10,0:0:0:0:
472,192,80855,2,0,B|417:192|417:192|409:196|409:196|409:188|409:188|401:192|401:192|346:192,1,135.000005149842,2|0,0:0|0:0,0:0:0:0:
256,192,81177,2,0,B|201:192|201:192|193:196|193:196|193:188|193:188|185:192|185:192|130:192,1,135.000005149842,10|0,0:0|0:0,0:0:0:0:
72,256,81498,2,0,B|50:192|50:192|72:128,1,135.000005149842,10|0,0:0|0:0,0:0:0:0:
130,64,81820,2,0,B|152:128|152:128|130:192,1,135.000005149842,10|0,0:0|0:0,0:0:0:0:
190,256,82141,1,10,0:0:0:0:
256,107,82355,6,0,B|234:43,1,67.5000025749208,2|0,0:1|0:0,0:0:0:0:
332,80,82570,2,0,B|310:16,1,67.5000025749208,2|0,0:1|0:0,0:0:0:0:
408,107,82784,1,10,1:0:0:0:
408,107,82891,2,0,B|386:171,1,67.5000025749208,2|0,0:1|0:0,0:0:0:0:
484,134,83105,1,2,0:1:0:0:
484,134,83212,102,0,B|470:175|470:175|484:265,1,135.000005149842,2|0,0:1|0:0,0:0:0:0:
352,380,83641,1,10,1:0:0:0:
352,380,83748,1,2,0:1:0:0:
352,380,83855,2,0,B|374:316,1,67.5000025749208,2|0,0:1|0:0,0:0:0:0:
276,353,84070,5,2,0:0:0:0:
250,340,84177,1,2,0:0:0:0:
221,336,84284,1,10,0:0:0:0:
191,341,84391,1,2,0:0:0:0:
164,353,84498,101,8,1:0:0:0:
137,365,84605,1,10,0:0:0:0:
107,370,84712,1,2,0:0:0:0:
78,366,84820,1,2,0:0:0:0:
52,353,84927,6,0,P|43:321|52:289,3,67.5000025749208,4|2|2|0,0:0|0:0|0:0|0:0,0:0:0:0:
112,224,85355,2,0,P|121:192|112:160,3,67.5000025749208,4|2|2|0,0:0|0:0|0:0|0:0,0:0:0:0:
52,95,85784,38,0,L|43:86,1,13.5,2|0,0:2|0:0,0:0:0:0:
111,30,86212,6,0,L|174:93,1,90,2|0,1:0|1:0,0:0:0:0:
236,26,86427,2,0,L|299:89,1,90,2|0,1:0|1:0,0:0:0:0:
463,192,86641,6,0,P|400:172|337:192,1,135.000005149842,4|2,1:0|1:2,0:0:0:0:
256,224,86962,1,0,0:0:0:0:
256,224,87070,2,0,P|224:233|192:224,1,67.5000025749208,8|0,0:2|0:0,0:0:0:0:
152,304,87284,1,2,1:2:0:0:
112,224,87391,1,0,0:0:0:0:
72,304,87498,6,0,L|37:361,1,67.5000025749208,4|0,0:0|0:0,0:0:0:0:
152,304,87712,2,0,L|186:361,1,67.5000025749208,2|0,1:2|0:0,0:0:0:0:
67,166,87927,2,0,L|32:223,1,67.5000025749208,8|0,0:2|0:0,0:0:0:0:
157,166,88141,2,0,L|191:223,1,67.5000025749208,2|0,1:2|0:0,0:0:0:0:
72,28,88355,2,0,L|37:85,1,67.5000025749208,4|0,0:0|0:0,0:0:0:0:
152,28,88570,2,0,L|186:85,1,67.5000025749208,2|0,1:2|0:0,0:0:0:0:
256,166,88784,101,8,0:2:0:0:
300,194,88891,1,0,0:0:0:0:
348,194,88998,1,2,1:2:0:0:
392,166,89105,1,8,0:2:0:0:
324,52,89212,6,0,B|314:84|314:84|324:116,1,67.5000025749208,4|0,0:0|0:0,0:0:0:0:
464,198,89427,2,0,B|474:166|474:166|464:134,1,67.5000025749208,2|0,1:2|0:0,0:0:0:0:
324,280,89641,101,8,0:2:0:0:
303,299,89748,1,0,0:0:0:0:
285,321,89855,1,2,1:2:0:0:
266,342,89962,1,0,0:0:0:0:
204,258,90070,5,4,0:0:0:0:
148,210,90177,1,0,0:0:0:0:
76,210,90284,1,2,1:2:0:0:
20,258,90391,1,0,0:0:0:0:
32,298,90498,101,8,0:2:0:0:
64,261,90605,1,0,0:0:0:0:
112,247,90712,1,2,1:2:0:0:
160,261,90820,1,0,0:0:0:0:
192,298,90927,6,0,B|208:250|208:250|192:167,1,135.000005149842,4|2,0:0|1:2,0:0:0:0:
192,36,91248,2,0,B|176:84|176:84|191:166,1,135.000005149842
256,57,91570,2,0,L|192:36,1,67.5000025749208,2|0,1:2|0:0,0:0:0:0:
36,52,91784,101,4,0:0:0:0:
36,52,91891,1,0,0:0:0:0:
36,52,91998,2,0,L|99:73,1,67.5000025749208,2|0,1:2|0:0,0:0:0:0:
191,167,92212,5,8,0:2:0:0:
214,201,92320,1,0,0:0:0:0:
223,243,92427,1,2,1:2:0:0:
214,285,92534,1,8,0:2:0:0:
191,319,92641,102,0,P|131:346|71:319,1,135.000005149842,4|2,0:0|1:2,0:0:0:0:
11,243,92962,2,0,P|71:270|131:243,1,135.000005149842
191,167,93284,2,0,L|126:145,1,67.5000025749208,2|0,1:2|0:0,0:0:0:0:
251,90,93498,5,4,0:0:0:0:
303,34,93605,1,0,0:0:0:0:
383,34,93712,1,2,1:2:0:0:
435,90,93820,1,0,0:0:0:0:
435,118,93927,101,8,0:2:0:0:
383,62,94034,1,0,0:0:0:0:
303,62,94141,1,2,1:2:0:0:
251,118,94248,1,0,0:0:0:0:
343,193,94355,6,0,B|367:219|367:219|367:283|367:283|343:309,1,135.000005149842,4|2,0:0|1:2,0:0:0:0:
407,369,94677,1,0,0:0:0:0:
471,309,94784,2,0,B|407:288|407:288|343:309,1,135.000005149842,8|2,0:2|1:2,0:0:0:0:
279,369,95105,1,0,0:0:0:0:
215,309,95212,102,0,P|183:300|151:309,1,67.5000025749208,4|0,0:0|0:0,0:0:0:0:
17,251,95427,2,0,P|49:260|81:251,1,67.5000025749208,10|0,1:2|0:0,0:0:0:0:
215,193,95641,2,0,P|183:184|151:193,1,67.5000025749208,8|0,0:2|0:0,0:0:0:0:
17,135,95855,2,0,P|49:144|81:135,1,67.5000025749208,2|0,1:2|0:0,0:0:0:0:
215,77,96070,5,4,0:0:0:0:
256,64,96177,1,0,0:0:0:0:
297,51,96284,1,2,1:2:0:0:
338,38,96391,1,0,0:0:0:0:
379,25,96498,102,0,B|354:76|354:76|355:85|355:85|355:94|355:94|329:149,1,135.000005149842,8|2,0:2|1:2,0:0:0:0:
408,192,96820,1,0,0:0:0:0:
486,234,96927,2,0,B|460:288|460:288|460:297|460:297|461:306|461:306|436:358,1,135.000005149842,4|2,0:0|1:2,0:0:0:0:
358,316,97248,1,0,0:0:0:0:
280,274,97355,2,0,L|251:335,1,67.5000025749208,8|0,0:2|0:0,0:0:0:0:
202,232,97570,2,0,L|173:293,1,67.5000025749208,2|0,1:2|0:0,0:0:0:0:
112,196,97784,5,4,0:0:0:0:
92,240,97891,1,0,0:0:0:0:
96,200,97998,1,2,1:2:0:0:
76,244,98105,1,0,0:0:0:0:
80,204,98212,2,0,L|109:143,1,67.5000025749208,8|0,0:2|0:0,0:0:0:0:
256,104,98427,101,2,1:2:0:0:
236,148,98534,1,0,0:0:0:0:
240,108,98641,1,4,0:0:0:0:
220,152,98748,1,0,0:0:0:0:
224,112,98855,2,0,L|253:51,1,67.5000025749208,2|0,1:2|0:0,0:0:0:0:
400,12,99070,6,0,B|371:73|371:73|400:204,1,202.500007724762,8|0,0:2|0:0,0:0:0:0:
400,204,99498,102,0,B|371:265,1,67.5000025749208,4|0,1:0|0:0,0:0:0:0:
226,205,99712,2,0,B|255:144,1,67.5000025749208,2|0,1:2|0:0,0:0:0:0:
458,264,99927,2,0,B|429:325,1,67.5000025749208,8|0,0:2|0:0,0:0:0:0:
284,265,100141,2,0,B|313:204,1,67.5000025749208,2|0,1:2|0:0,0:0:0:0:
429,143,100355,6,0,B|400:204,1,67.5000025749208,4|0,0:0|0:0,0:0:0:0:
255,144,100570,2,0,B|284:83,1,67.5000025749208,2|0,1:2|0:0,0:0:0:0:
487,203,100784,2,0,B|458:264,1,67.5000025749208,8|0,0:2|0:0,0:0:0:0:
313,204,100998,2,0,B|342:143,1,67.5000025749208,2|0,1:2|0:0,0:0:0:0:
458,83,101212,101,4,0:0:0:0:
448,103,101320,1,0,0:0:0:0:
438,123,101427,1,2,1:2:0:0:
429,143,101534,1,0,0:0:0:0:
342,142,101641,5,8,0:2:0:0:
332,162,101748,1,0,0:0:0:0:
322,182,101855,1,2,1:2:0:0:
313,202,101962,1,0,0:0:0:0:
371,264,102070,101,4,0:0:0:0:
361,284,102177,1,0,0:0:0:0:
351,304,102284,1,10,1:2:0:0:
342,324,102391,1,0,0:0:0:0:
255,324,102498,5,8,0:2:0:0:
245,344,102605,1,0,0:0:0:0:
235,364,102712,1,2,1:2:0:0:
226,384,102820,1,8,0:2:0:0:
168,325,102927,102,0,P|136:316|104:325,1,67.5000025749208,4|0,0:0|0:0,0:0:0:0:
32,245,103141,2,0,P|64:236|96:245,1,67.5000025749208,2|0,1:2|0:0,0:0:0:0:
168,165,103355,2,0,P|136:156|104:165,1,67.5000025749208,8|0,0:2|0:0,0:0:0:0:
32,85,103570,2,0,P|64:76|96:85,1,67.5000025749208,2|0,1:2|0:0,0:0:0:0:
240,85,103784,6,0,P|208:94|176:85,1,67.5000025749208,4|0,0:0|0:0,0:0:0:0:
104,165,103998,2,0,P|136:174|168:165,1,67.5000025749208,2|0,1:2|0:0,0:0:0:0:
240,245,104212,2,0,P|208:254|176:245,1,67.5000025749208,8|0,0:2|0:0,0:0:0:0:
104,325,104427,2,0,P|136:334|168:325,1,67.5000025749208,2|0,1:2|0:0,0:0:0:0:
312,324,104641,102,0,P|280:315|248:324,1,67.5000025749208,4|0,0:0|0:0,0:0:0:0:
176,244,104855,2,0,P|208:235|240:244,1,67.5000025749208,2|0,1:2|0:0,0:0:0:0:
312,164,105070,2,0,P|280:155|248:164,1,67.5000025749208,8|0,0:2|0:0,0:0:0:0:
176,84,105284,2,0,P|208:75|240:84,1,67.5000025749208,2|0,1:2|0:0,0:0:0:0:
384,84,105498,6,0,B|352:95|352:95|320:84,1,67.5000025749208,4|0,0:0|0:0,0:0:0:0:
248,164,105712,2,0,B|280:175|280:175|312:164,1,67.5000025749208,10|0,1:2|0:0,0:0:0:0:
384,244,105927,1,8,0:2:0:0:
384,244,106034,2,0,B|352:255|352:255|320:244,1,67.5000025749208,8|2,0:2|1:2,0:0:0:0:
392,164,106248,1,8,0:2:0:0:
392,164,106355,101,4,0:0:0:0:
420,172,106462,1,0,0:0:0:0:
443,190,106570,1,2,1:2:0:0:
458,215,106677,1,0,0:0:0:0:
464,244,106784,5,8,0:2:0:0:
458,273,106891,1,0,0:0:0:0:
443,298,106998,1,2,1:2:0:0:
420,316,107105,1,0,0:0:0:0:
392,324,107212,101,4,0:0:0:0:
358,312,107320,1,0,0:0:0:0:
324,301,107427,1,2,1:2:0:0:
290,289,107534,1,0,0:0:0:0:
256,276,107641,5,8,0:2:0:0:
222,289,107748,1,0,0:0:0:0:
188,301,107855,1,2,1:2:0:0:
154,312,107962,1,0,0:0:0:0:
120,324,108070,101,4,0:0:0:0:
92,316,108177,1,0,0:0:0:0:
69,298,108284,1,2,1:2:0:0:
54,273,108391,1,0,0:0:0:0:
48,244,108498,5,8,0:2:0:0:
54,215,108605,1,0,0:0:0:0:
69,190,108712,1,2,1:2:0:0:
92,172,108820,1,0,0:0:0:0:
120,164,108927,102,0,B|156:164|156:164|178:141,1,67.5000025749208,4|0,0:0|0:0,0:0:0:0:
287,67,109141,2,0,B|256:54|256:54|225:67,1,67.5000025749208,10|0,1:2|0:0,0:0:0:0:
333,141,109355,1,8,0:2:0:0:
333,141,109462,2,0,B|356:164|356:164|392:164,1,67.5000025749208,8|2,0:2|1:2,0:0:0:0:
287,216,109677,1,8,0:2:0:0:
287,216,109784,6,0,P|256:205|225:216,1,67.5000025749208,4|0,0:0|0:0,0:0:0:0:
333,291,109998,2,0,P|364:280|395:291,1,67.5000025749208,2|0,1:2|0:0,0:0:0:0:
287,366,110212,2,0,P|256:355|225:366,1,67.5000025749208,8|0,0:2|0:0,0:0:0:0:
116,290,110427,2,0,P|147:279|178:290,1,67.5000025749208,2|0,1:2|0:0,0:0:0:0:
287,216,110641,102,0,P|256:227|225:216,1,67.5000025749208,4|0,0:0|0:0,0:0:0:0:
333,141,110855,2,0,P|364:152|395:141,1,67.5000025749208,2|0,1:2|0:0,0:0:0:0:
287,66,111070,2,0,P|256:77|225:66,1,67.5000025749208,8|0,0:2|0:0,0:0:0:0:
116,142,111284,2,0,P|147:153|178:142,1,67.5000025749208,2|0,1:2|0:0,0:0:0:0:
70,66,111498,6,0,L|22:113,1,67.5000025749208,4|0,0:0|0:0,0:0:0:0:
22,265,111712,2,0,L|70:218,1,67.5000025749208,2|0,1:2|0:0,0:0:0:0:
76,76,111927,102,0,L|28:123,1,67.5000025749208,8|0,0:2|0:0,0:0:0:0:
28,275,112141,2,0,L|76:228,1,67.5000025749208,2|0,1:2|0:0,0:0:0:0:
82,86,112355,6,0,L|34:133,1,67.5000025749208,4|0,0:0|0:0,0:0:0:0:
34,285,112570,2,0,L|82:238,1,67.5000025749208,10|0,1:2|0:0,0:0:0:0:
178,141,112784,1,8,0:2:0:0:
178,141,112891,2,0,L|225:189,1,67.5000025749208,8|2,0:2|1:2,0:0:0:0:
322,285,113105,1,8,0:2:0:0:
322,285,113212,6,0,B|358:248|358:248|361:239|361:239|367:245|367:245|370:236|370:236|404:202,1,125.999996154785,4|2,1:0|0:0,0:0:0:0:
456,268,113534,1,0,0:0:0:0:
508,203,113641,2,0,B|515:172|515:172|508:141,1,62.9999980773926,8|0,1:0|0:0,0:0:0:0:
456,76,113855,2,0,B|425:69|425:69|394:76,1,62.9999980773926,2|0,0:0|0:0,0:0:0:0:
190,99,114070,6,0,B|154:136|154:136|151:145|151:145|145:139|145:139|142:148|142:148|108:182,1,125.999996154785,4|2,0:0|0:0,0:0:0:0:
56,116,114391,1,0,0:0:0:0:
4,181,114498,2,0,B|-3:212|-3:212|4:243,1,62.9999980773926,8|0,1:0|0:0,0:0:0:0:
56,308,114712,2,0,B|87:315|87:315|118:308,1,62.9999980773926,2|0,0:0|0:0,0:0:0:0:
322,285,114927,101,4,0:0:0:0:
342,261,115034,1,0,0:0:0:0:
362,237,115141,1,2,0:0:0:0:
385,216,115248,1,0,0:0:0:0:
404,192,115355,5,8,1:0:0:0:
384,168,115462,1,0,0:0:0:0:
364,144,115570,1,2,0:0:0:0:
341,123,115677,1,0,0:0:0:0:
322,99,115784,101,4,0:0:0:0:
302,123,115891,1,0,0:0:0:0:
282,147,115998,1,10,0:1:0:0:
259,168,116105,1,0,0:0:0:0:
240,192,116212,5,10,1:0:0:0:
260,216,116320,1,10,0:1:0:0:
280,240,116427,1,2,0:0:0:0:
303,261,116534,1,10,0:1:0:0:
322,285,116641,102,0,B|297:311|297:311|271:319|271:319|263:345|263:345|238:370,1,125.999996154785,4|2,0:0|0:0,0:0:0:0:
190,303,116962,1,0,0:0:0:0:
142,369,117070,2,0,B|112:379|112:379|82:369,1,62.9999980773926,8|0,1:0|0:0,0:0:0:0:
34,303,117284,2,0,B|24:273|24:273|34:243,1,62.9999980773926,2|0,0:0|0:0,0:0:0:0:
190,99,117498,6,0,B|215:73|215:73|241:65|241:65|249:39|249:39|274:14,1,125.999996154785,4|2,0:0|0:0,0:0:0:0:
322,81,117820,1,0,0:0:0:0:
370,15,117927,2,0,B|400:5|400:5|430:15,1,62.9999980773926,8|0,1:0|0:0,0:0:0:0:
478,81,118141,2,0,B|488:111|488:111|478:141,1,62.9999980773926,2|0,0:0|0:0,0:0:0:0:
322,285,118355,102,0,B|288:297|280:328|280:328|249:336|237:369,1,125.999996154785,4|2,0:0|0:0,0:0:0:0:
190,303,118677,1,0,0:0:0:0:
142,369,118784,2,0,P|112:377|82:369,1,62.9999980773926,8|0,1:0|0:0,0:0:0:0:
34,303,118998,2,0,P|26:273|34:243,1,62.9999980773926,2|0,0:0|0:0,0:0:0:0:
190,99,119212,6,0,B|223:86|231:55|231:55|262:47|274:14,1,125.999996154785,4|10,0:0|0:1,0:0:0:0:
322,81,119534,1,0,0:0:0:0:
275,149,119641,1,10,1:0:0:0:
275,149,119748,2,0,B|319:193,1,62.9999980773926,10|2,0:1|0:0,0:0:0:0:
272,261,119962,1,10,0:1:0:0:
272,261,120070,102,0,B|361:350,1,125.999996154785,4|2,0:0|0:0,0:0:0:0:
418,292,120391,1,0,0:0:0:0:
475,351,120498,2,0,B|498:292,1,62.9999980773926,8|0,1:0|0:0,0:0:0:0:
441,133,120712,2,0,B|418:192,1,62.9999980773926,2|0,0:0|0:0,0:0:0:0:
240,123,120927,6,0,B|151:34,1,125.999996154785,4|2,0:0|0:0,0:0:0:0:
94,92,121248,1,0,0:0:0:0:
37,33,121355,2,0,B|13:91,1,62.9999980773926,8|0,1:0|0:0,0:0:0:0:
70,250,121570,2,0,B|94:192,1,62.9999980773926,2|0,0:0|0:0,0:0:0:0:
272,260,121784,102,0,B|332:280|332:280|392:260,1,125.999996154785,4|2,0:0|0:0,0:0:0:0:
440,192,122105,1,0,0:0:0:0:
489,261,122212,2,0,B|533:305,1,62.9999980773926,8|0,1:0|0:0,0:0:0:0:
391,260,122427,2,0,B|346:215,1,62.9999980773926,2|0,0:0|0:0,0:0:0:0:
240,124,122641,6,0,B|196:80,1,62.9999980773926,4|0,0:0|0:0,0:0:0:0:
53,34,122855,2,0,B|98:79,1,62.9999980773926,10|0,0:1|0:0,0:0:0:0:
191,192,123070,1,10,1:0:0:0:
191,192,123177,2,0,B|147:148,1,62.9999980773926,10|2,0:1|0:0,0:0:0:0:
4,102,123391,1,10,0:1:0:0:
4,102,123498,102,0,B|36:134|36:134|36:214,1,125.999996154785,4|2,0:0|0:0,0:0:0:0:
36,296,123820,1,0,0:0:0:0:
93,353,123927,2,0,B|105:363|105:363|137:363|137:363|149:353,1,62.9999980773926,8|0,1:0|0:0,0:0:0:0:
206,296,124141,2,0,B|218:286|218:286|250:286|250:286|262:296,1,62.9999980773926,2|0,0:0|0:0,0:0:0:0:
508,282,124355,6,0,B|476:250|476:250|476:170,1,125.999996154785,4|2,0:0|0:0,0:0:0:0:
476,88,124677,1,0,0:0:0:0:
419,31,124784,2,0,B|407:21|407:21|375:21|375:21|363:31,1,62.9999980773926,8|0,1:0|0:0,0:0:0:0:
306,88,124998,2,0,B|294:98|294:98|262:98|262:98|250:88,1,62.9999980773926,2|0,0:0|0:0,0:0:0:0:
53,34,125212,101,4,0:0:0:0:
70,66,125320,1,0,0:0:0:0:
75,101,125427,1,2,0:0:0:0:
70,135,125534,1,0,0:0:0:0:
53,167,125641,5,8,1:0:0:0:
37,199,125748,1,0,0:0:0:0:
32,234,125855,1,2,0:0:0:0:
37,268,125962,1,0,0:0:0:0:
54,300,126070,102,0,B|70:296|82:286|82:286|94:296|110:300,1,62.9999980773926,4|0,0:0|0:0,0:0:0:0:
209,366,126284,2,0,B|193:362|181:352|181:352|169:362|153:366,1,62.9999980773926,10|0,0:1|0:0,0:0:0:0:
252,300,126498,1,10,1:0:0:0:
252,300,126605,2,0,B|268:296|280:286|280:286|292:296|308:300,1,62.9999980773926,10|2,0:1|0:0,0:0:0:0:
407,366,126820,1,10,0:1:0:0:
407,366,126927,86,0,L|451:321,1,62.9999980773926,4|0,1:0|0:0,0:0:0:0:
352,255,127141,2,0,L|307:299,1,62.9999980773926,2|0,1:2|0:0,0:0:0:0:
207,233,127355,2,0,L|251:188,1,62.9999980773926,8|0,0:2|0:0,0:0:0:0:
152,122,127570,2,0,L|107:166,1,62.9999980773926,2|0,1:2|0:0,0:0:0:0:
352,255,127784,6,0,L|396:210,1,62.9999980773926,4|0,0:0|0:0,0:0:0:0:
297,144,127998,2,0,L|252:188,1,62.9999980773926,2|0,1:2|0:0,0:0:0:0:
152,122,128212,2,0,L|196:77,1,62.9999980773926,8|0,0:2|0:0,0:0:0:0:
97,11,128427,2,0,L|52:55,1,62.9999980773926,2|0,1:2|0:0,0:0:0:0:
297,144,128641,101,4,0:0:0:0:
321,120,128748,1,0,0:0:0:0:
345,96,128855,1,2,1:2:0:0:
369,72,128962,1,0,0:0:0:0:
393,48,129070,5,8,0:2:0:0:
420,86,129177,1,0,0:0:0:0:
429,132,129284,1,2,1:2:0:0:
420,178,129391,1,0,0:0:0:0:
393,216,129498,101,4,0:0:0:0:
366,254,129605,1,0,0:0:0:0:
357,300,129712,1,10,1:2:0:0:
366,346,129820,1,0,0:0:0:0:
393,384,129927,5,8,0:2:0:0:
417,360,130034,1,8,0:2:0:0:
441,336,130141,1,2,1:2:0:0:
465,312,130248,1,8,0:2:0:0:
489,288,130355,102,0,P|497:258|489:228,1,62.9999980773926,4|0,0:0|0:0,0:0:0:0:
297,144,130570,2,0,P|289:174|297:204,1,62.9999980773926,2|0,1:2|0:0,0:0:0:0:
372,80,130784,2,0,L|317:49,1,62.9999980773926,8|0,0:2|0:0,0:0:0:0:
197,49,130998,2,0,L|142:18,1,62.9999980773926,2|0,1:2|0:0,0:0:0:0:
23,96,131212,6,0,P|15:126|23:156,1,62.9999980773926,4|0,0:0|0:0,0:0:0:0:
215,240,131427,2,0,P|223:210|215:180,1,62.9999980773926,2|0,1:2|0:0,0:0:0:0:
140,304,131641,2,0,L|195:335,1,62.9999980773926,8|0,0:2|0:0,0:0:0:0:
315,335,131855,2,0,L|370:366,1,62.9999980773926,2|0,1:2|0:0,0:0:0:0:
489,288,132070,102,0,B|496:257|496:257|489:226,1,62.9999980773926,4|0,0:0|0:0,0:0:0:0:
372,80,132284,2,0,B|365:111|365:111|372:142,1,62.9999980773926,2|0,1:2|0:0,0:0:0:0:
472,280,132498,6,0,B|479:249|479:249|472:218,1,62.9999980773926,8|0,0:2|0:0,0:0:0:0:
355,72,132712,2,0,B|348:103|348:103|355:134,1,62.9999980773926,2|0,1:2|0:0,0:0:0:0:
455,272,132927,102,0,B|462:241|462:241|455:210,1,62.9999980773926,4|0,0:0|0:0,0:0:0:0:
338,64,133141,2,0,B|331:95|331:95|338:126,1,62.9999980773926,10|0,1:2|0:0,0:0:0:0:
438,264,133355,5,8,0:2:0:0:
407,240,133462,1,8,0:2:0:0:
370,231,133570,1,10,1:2:0:0:
333,239,133677,1,8,0:2:0:0:
302,264,133784,102,0,P|310:294|302:324,1,62.9999980773926,4|0,0:0|0:0,0:0:0:0:
94,324,133998,2,0,P|86:294|94:264,1,62.9999980773926,2|0,1:2|0:0,0:0:0:0:
228,360,134212,2,0,P|198:368|168:360,1,62.9999980773926,8|0,0:2|0:0,0:0:0:0:
168,228,134427,2,0,P|198:220|228:228,1,62.9999980773926,2|0,1:2|0:0,0:0:0:0:
94,192,134641,6,0,P|86:162|94:132,1,62.9999980773926,4|0,0:0|0:0,0:0:0:0:
302,132,134855,2,0,P|310:162|302:192,1,62.9999980773926,2|0,1:2|0:0,0:0:0:0:
168,96,135070,2,0,P|198:88|228:96,1,62.9999980773926,8|0,0:2|0:0,0:0:0:0:
228,228,135284,2,0,P|198:236|168:228,1,62.9999980773926,2|0,1:2|0:0,0:0:0:0:
228,96,135498,101,4,0:0:0:0:
252,76,135605,1,0,0:0:0:0:
276,56,135712,1,2,1:2:0:0:
300,36,135820,1,0,0:0:0:0:
324,16,135927,6,0,B|355:23|355:23|386:16,1,62.9999980773926,8|0,0:2|0:0,0:0:0:0:
504,89,136141,2,0,B|473:82|473:82|442:89,1,62.9999980773926,2|0,1:2|0:0,0:0:0:0:
324,162,136355,2,0,B|355:169|355:169|386:162,1,62.9999980773926,4|0,0:0|0:0,0:0:0:0:
504,235,136570,2,0,B|473:228|473:228|442:235,1,62.9999980773926,10|0,1:2|0:0,0:0:0:0:
302,348,136784,101,8,0:2:0:0:
285,322,136891,1,8,0:2:0:0:
256,312,136998,1,10,1:2:0:0:
227,322,137105,1,8,0:2:0:0:
210,348,137212,6,0,L|172:297,3,62.9999980773926,4|0|2|0,0:0|0:0|1:2|0:0,0:0:0:0:
302,348,137641,2,0,L|339:297,3,62.9999980773926,8|0|2|0,0:2|0:0|1:2|0:0,0:0:0:0:
173,207,138070,102,0,L|135:156,3,62.9999980773926,4|0|2|0,0:0|0:0|1:2|0:0,0:0:0:0:
339,207,138498,2,0,L|376:156,3,62.9999980773926,8|0|2|0,0:2|0:0|1:2|0:0,0:0:0:0:
136,66,138927,21,4,0:0:0:0:
161,44,139034,1,0,0:0:0:0:
191,28,139141,1,0,0:0:0:0:
223,19,139248,1,0,0:0:0:0:
256,16,139355,5,4,0:0:0:0:
289,19,139462,1,0,0:0:0:0:
321,28,139570,1,0,0:0:0:0:
350,44,139677,1,0,0:0:0:0:
376,66,139784,102,0,L|413:15,1,62.9999980773926,10|2,0:1|0:0,0:0:0:0:
485,162,139998,2,0,L|448:111,1,62.9999980773926,10|10,0:1|0:1,0:0:0:0:
339,207,140212,5,10,0:1:0:0:
339,207,140320,2,0,L|376:156,1,62.9999980773926,10|2,0:1|0:0,0:0:0:0:
485,252,140534,1,10,0:1:0:0:
485,252,140641,101,4,0:0:0:0:
256,192,140748,12,0,145784,0:0:0:0:
