osu file format v14

[General]
AudioFilename: audio.mp3
AudioLeadIn: 0
PreviewTime: 86587
Countdown: 0
SampleSet: None
StackLeniency: 0.5
Mode: 0
LetterboxInBreaks: 0
WidescreenStoryboard: 0

[Editor]
Bookmarks: 3498,30927,44641,145783
DistanceSpacing: 0.8
BeatDivisor: 4
GridSize: 4
TimelineZoom: 2

[Metadata]
Title:Eden
TitleUnicode:Eden
Artist:cYsmix
ArtistUnicode:cYsmix
Creator:Gero
Version:Easy
Source:osu!
Tags:Mappers' Lounge Guild FA Featured Artist Electronic Escapism Norwegian Trance Electro Complextro Track 03 クセモノレコーズ Kusemono Records 3rd Solo Album
BeatmapID:1661767
BeatmapSetID:792241

[Difficulty]
HPDrainRate:2
CircleSize:3
OverallDifficulty:2
ApproachRate:3
SliderMultiplier:1.2
SliderTickRate:1

[Events]
//Background and Video events
0,0,"eden.jpg",0,0
//Break Periods
2,31127,43201
//Storyboard Layer 0 (Background)
//Storyboard Layer 1 (Fail)
//Storyboard Layer 2 (Pass)
//Storyboard Layer 3 (Foreground)
//Storyboard Sound Samples

[TimingPoints]
70,428.571428571429,4,3,1,50,1,0
3498,-100,4,3,1,65,0,0
17212,-100,4,3,1,70,0,0
30927,-100,4,3,1,70,0,0
44641,-100,4,3,1,60,0,0
53641,-100,4,3,1,30,0,0
54070,-100,4,3,1,40,0,0
54498,-100,4,3,1,50,0,0
54927,-100,4,3,1,60,0,0
56641,-100,4,3,1,30,0,0
56668,-100,4,3,1,20,0,0
57927,-100,4,3,1,60,0,0
58355,-100,4,3,1,70,0,0
84927,-100,4,3,1,40,0,0
85784,-100,4,3,1,30,0,0
86212,-100,4,3,1,70,0,0
86641,-100,4,3,1,80,0,1
109784,-100,4,3,1,70,0,1
111498,-100,4,3,1,60,0,1
113212,-100,4,3,1,50,0,0
126927,-100,4,3,1,45,0,0
133784,-100,4,3,1,40,0,0
137212,-100,4,3,1,30,0,0
138927,-100,4,3,1,25,0,0
139784,-100,4,3,1,40,0,0
140641,-100,4,3,1,40,0,0
142355,-100,4,3,1,30,0,0
144070,-100,4,3,1,20,0,0
145784,-100,4,2,1,5,0,0

[Colours]
Combo1 : 128,0,255
Combo2 : 214,50,54
Combo3 : 167,118,97
Combo4 : 26,176,157
Combo5 : 107,192,50
Combo6 : 147,147,147
Combo7 : 240,0,0
Combo8 : 255,28,141

[HitObjects]
388,192,3498,5,4,0:0:0:0:
305,144,3927,2,0,B|260:108|256:38|256:38|252:108|207:144,1,240,8|8,1:0|1:0,0:0:0:0:
124,192,5212,1,4,0:0:0:0:
207,240,5641,2,0,B|252:276|256:346|256:346|260:276|305:240,1,240,8|8,1:0|1:0,0:0:0:0:
388,192,6927,5,4,3:0:0:0:
471,144,7355,2,0,B|488:88|444:28|384:28|384:28|311:28,1,240,8|8,1:0|1:0,0:0:0:0:
256,108,8641,1,4,0:0:0:0:
200,28,9070,2,0,B|128:28|128:28|68:28|24:88|41:144,1,240,8|8,1:0|1:0,0:0:0:0:
124,192,10355,101,4,0:0:0:0:
41,240,10784,2,0,B|24:296|68:356|128:356|128:356|200:356,1,240,8|8,1:0|1:0,0:0:0:0:
256,276,12070,1,4,0:0:0:0:
311,356,12498,2,0,B|384:356|384:356|444:356|488:296|471:240,1,240,8|8,1:0|1:0,0:0:0:0:
388,192,13784,6,0,P|358:142|306:113,1,120,4|8,0:0|1:0,0:0:0:0:
206,112,14641,2,0,P|154:141|124:192,1,120,4|8,0:0|1:0,0:0:0:0:
208,239,15498,2,0,B|189:296|189:296|208:353,1,120,4|8,0:0|1:0,0:0:0:0:
304,353,16355,2,0,B|323:296|323:296|304:239,1,120,4|8,0:0|1:0,0:0:0:0:
388,192,17212,102,0,P|256:89|124:192,1,360,4|8,1:0|1:0,0:0:0:0:
208,239,18927,2,0,B|158:300|158:300|256:276|256:276|354:300|354:300|304:239,1,360,4|8,0:0|1:0,0:0:0:0:
388,192,20641,6,0,B|444:192|504:166|504:50|448:20|388:20|388:20|309:20,1,360,4|8,0:0|1:0,0:0:0:0:
202,20,22355,2,0,B|124:20|124:20|64:20|8:50|8:166|68:192|124:192,1,360,4|8,0:0|1:0,0:0:0:0:
208,239,24070,102,0,B|224:264|256:272|256:272|288:264|304:239,2,120,4|8|4,0:0|1:0|0:0,0:0:0:0:
124,192,25355,1,8,1:0:0:0:
208,145,25784,2,0,B|224:120|256:112|256:112|288:120|304:145,2,120,4|8|4,0:0|1:0|0:0,0:0:0:0:
124,192,27070,1,8,1:0:0:0:
208,239,27498,6,0,B|320:284|320:284|440:284,1,240,4|4,0:0|0:0,0:0:0:0:
468,192,28784,1,8,1:0:0:0:
440,100,29212,2,0,B|320:100|320:100|208:145,1,240,8|8,1:0|1:0,0:0:0:0:
124,192,30498,1,4,0:0:0:0:
40,145,30927,101,4,1:0:0:0:
40,145,44641,22,0,B|40:77|104:54|104:54|168:77|168:145,1,240,10|10,0:0|0:0,0:0:0:0:
104,217,45927,1,10,0:0:0:0:
168,289,46355,2,0,P|224:308|280:289,1,120,2|10,0:0|0:0,0:0:0:0:
344,217,47212,2,0,L|418:122,1,120,10|10,0:0|0:0,0:0:0:0:
354,50,48070,6,0,B|313:98|313:98|199:98|199:98|158:50,1,240,2|2,0:0|0:0,0:0:0:0:
93,122,49355,1,2,0:0:0:0:
158,195,49784,2,0,B|158:235|175:251|175:251|158:267|158:307,2,120,2|10|2,0:0|0:0|0:0,0:0:0:0:
223,123,51070,1,10,0:0:0:0:
288,51,51498,102,0,B|408:51|408:51|486:141,1,240,8|8,0:1|0:1,0:0:0:0:
486,242,52784,1,8,0:1:0:0:
400,192,53212,1,8,0:1:0:0:
256,192,53320,12,0,56641,2:0:0:0:
156,32,58355,86,0,B|120:95|152:143|156:147|160:151|192:199|156:262,1,240,6|2,1:0|0:1,0:0:0:0:
78,204,59641,1,8,1:0:0:0:
0,262,60070,2,0,B|156:352|156:352|312:262,1,360,10|8,0:0|1:0,0:0:0:0:
356,352,61784,6,0,B|392:289|360:241|356:237|352:233|320:185|356:122,1,240,2|2,0:1|0:1,0:0:0:0:
434,180,63070,1,10,1:0:0:0:
512,122,63498,2,0,B|356:32|356:32|200:122,1,360,10|8,0:0|1:0,0:0:0:0:
156,32,65212,102,0,B|93:69|93:69|12:120|32:212,1,240,2|2,0:1|0:1,0:0:0:0:
76,301,66498,1,8,1:0:0:0:
121,211,66927,2,0,B|192:248|256:188|256:141|256:141|256:188|320:248|391:212,1,360,10|8,0:0|1:0,0:0:0:0:
436,301,68641,6,0,B|463:197|463:197|469:190|469:190|461:188|461:188|467:182|467:182|495:78,1,240,2|2,0:1|0:1,0:0:0:0:
427,10,69927,1,10,1:0:0:0:
359,79,70355,2,0,B|320:116|320:116|256:99|256:99|192:116|192:116|153:79,1,240,10|10,0:0|0:0,0:0:0:0:
85,10,71641,1,8,1:0:0:0:
16,78,72070,102,0,B|44:182|44:182|50:188|50:188|42:190|42:190|48:197|48:197|76:301,1,240,6|2,1:0|0:1,0:0:0:0:
143,369,73355,1,8,1:0:0:0:
210,302,73784,2,0,B|210:263|210:263|210:222|256:203|256:203|302:222|302:263|302:263|302:302,1,240,10|10,0:0|0:0,0:0:0:0:
369,369,75070,1,8,1:0:0:0:
436,302,75498,6,0,P|455:246|436:190,1,120,2|10,0:1|1:0,0:0:0:0:
369,123,76355,2,0,P|350:67|369:11,1,120,2|10,0:1|1:0,0:0:0:0:
448,67,77212,2,0,L|208:67,1,240,10|10,0:0|0:0,0:0:0:0:
124,24,78498,1,8,1:0:0:0:
40,67,78927,102,0,L|124:151,1,120,2|10,0:1|1:0,0:0:0:0:
40,194,79784,2,0,L|124:278,1,120,2|8,0:1|1:0,0:0:0:0:
40,321,80641,2,0,B|125:279|125:279|196:252|256:316,1,240,10|10,0:0|0:0,0:0:0:0:
336,368,81927,1,8,1:0:0:0:
416,314,82355,6,0,P|447:264|500:239,1,120,2|10,0:1|1:0,0:0:0:0:
500,144,83212,2,0,P|447:119|416:69,1,120,2|10,0:1|1:0,0:0:0:0:
336,16,84070,1,2,0:0:0:0:
256,192,84927,1,4,0:0:0:0:
336,368,85784,37,2,0:2:0:0:
336,368,86641,22,0,B|351:348|351:348|421:348|421:348|436:368,2,120,4|8|4,1:0|0:2|0:0,0:0:0:0:
256,312,87927,1,8,0:2:0:0:
176,368,88355,2,0,B|161:348|161:348|91:348|91:348|76:368,2,120,4|8|4,0:0|0:2|0:0,0:0:0:0:
256,312,89641,1,8,0:2:0:0:
176,256,90070,6,0,B|236:232|256:172|256:172|276:232|336:256,1,240,4|4,0:0|0:0,0:0:0:0:
416,200,91355,1,8,0:2:0:0:
336,144,91784,2,0,B|320:80|256:63|256:63|192:80|176:144,1,240,4|4,0:0|0:0,0:0:0:0:
96,200,93070,1,8,0:2:0:0:
176,260,93498,102,0,B|140:300|164:364|220:364|220:364|292:364|292:364|348:364|372:300|336:260,1,360,4|8,0:0|0:2,0:0:0:0:
416,200,95212,2,0,B|368:164|368:164|308:164,1,120,4|8,0:0|0:2,0:0:0:0:
308,67,96070,2,0,B|256:37|256:37|204:67,1,120,4|8,0:0|0:2,0:0:0:0:
204,164,96927,2,0,B|144:164|144:164|96:200,1,120,4|8,0:0|0:2,0:0:0:0:
176,260,97784,6,0,P|256:295|336:260,2,180,4|2|8,0:0|1:2|0:2,0:0:0:0:
96,200,99498,102,0,P|264:185|304:21,1,360,4|8,1:0|0:2,0:0:0:0:
207,21,101212,2,0,P|247:185|415:200,1,360,4|8,0:0|0:2,0:0:0:0:
480,128,102927,6,0,L|319:306,1,240,4|4,0:0|0:0,0:0:0:0:
256,236,104212,1,8,0:2:0:0:
192,306,104641,2,0,L|32:128,1,240,4|4,0:0|0:0,0:0:0:0:
99,60,105927,1,8,0:2:0:0:
166,128,106355,102,0,B|216:132|248:100|256:65|256:65|264:100|296:132|346:128,1,240,4|4,0:0|0:0,0:0:0:0:
416,192,107641,1,8,0:2:0:0:
346,256,108070,2,0,B|296:252|264:284|256:319|256:319|248:284|216:252|166:256,1,240,4|4,0:0|0:0,0:0:0:0:
96,192,109355,1,8,0:2:0:0:
166,128,109784,6,0,B|166:67|166:67|137:15,2,120,4|8|4,0:0|0:2|0:0,0:0:0:0:
256,160,111070,1,8,0:2:0:0:
346,128,111498,2,0,B|346:67|346:67|374:15,2,120,4|8|4,0:0|0:2|0:0,0:0:0:0:
416,192,112784,1,8,0:2:0:0:
346,256,113212,6,0,B|328:299|328:299|321:305|321:305|329:308|329:308|322:314|322:314|304:357,1,120,4|8,1:0|1:0,0:0:0:0:
207,357,114070,2,0,B|189:314|189:314|182:308|182:308|190:305|190:305|183:299|183:299|166:256,1,120,4|8,0:0|1:0,0:0:0:0:
96,192,114927,2,0,B|256:109|256:109|416:192,1,360,4|10,0:0|1:0,0:0:0:0:
485,127,116641,6,0,P|428:28|313:28,1,240,4|4,0:0|0:0,0:0:0:0:
256,104,117927,1,8,1:0:0:0:
198,28,118355,2,0,P|83:28|26:127,1,240,4|4,0:0|0:0,0:0:0:0:
96,192,119641,1,10,1:0:0:0:
26,256,120070,102,0,P|83:355|198:355,1,240,4|4,0:0|0:0,0:0:0:0:
256,280,121355,1,8,1:0:0:0:
313,355,121784,2,0,P|428:355|485:256,1,240,4|4,0:0|0:0,0:0:0:0:
416,192,123070,1,10,1:0:0:0:
485,127,123498,6,0,B|460:100|416:84|372:100|347:127|347:127|300:56,1,240,4|4,0:0|0:0,0:0:0:0:
256,140,124784,1,8,1:0:0:0:
212,56,125212,2,0,B|164:127|164:127|140:100|96:84|52:100|27:127,1,240,4|4,0:0|0:0,0:0:0:0:
96,192,126498,1,10,1:0:0:0:
165,257,126927,70,0,B|232:308|320:248|320:184|256:148|192:184|192:248|280:308|347:257,1,360,4|8,1:0|0:2,0:0:0:0:
416,322,128641,2,0,B|354:376|354:376|158:376|158:376|96:322,1,360,4|8,0:0|0:2,0:0:0:0:
27,257,130355,6,0,B|67:227|71:182|55:150|55:150|84:172|129:176|164:141,1,240,4|4,0:0|0:0,0:0:0:0:
256,108,131641,1,8,0:2:0:0:
347,141,132070,2,0,B|382:176|427:172|456:150|456:150|440:182|444:227|485:257,1,240,4|4,0:0|0:0,0:0:0:0:
416,322,133355,1,8,0:2:0:0:
347,257,133784,102,0,P|256:323|165:257,1,240,4|4,0:0|0:0,0:0:0:0:
96,192,135070,1,8,0:2:0:0:
165,127,135498,2,0,P|256:61|347:127,1,240,4|4,0:0|0:0,0:0:0:0:
416,192,136784,1,8,0:2:0:0:
347,257,137212,6,0,B|304:272|304:324|304:324|304:358,1,120,4|8,0:0|0:2,0:0:0:0:
208,358,138070,2,0,B|208:324|208:324|208:272|165:257,1,120,4|8,0:0|0:2,0:0:0:0:
96,192,138927,6,0,B|104:96|240:90|256:192|256:192|272:90|408:96|416:192,1,480,4|4,0:0|0:0,0:0:0:0:
256,192,140748,12,0,145784,0:0:0:0:
