osu file format v14

[General]
AudioFilename: audio.mp3
AudioLeadIn: 0
PreviewTime: 86587
Countdown: 0
SampleSet: None
StackLeniency: 0.5
Mode: 0
LetterboxInBreaks: 0
WidescreenStoryboard: 1

[Editor]
Bookmarks: 3498,30927,44641,145783
DistanceSpacing: 1.1
BeatDivisor: 4
GridSize: 4
TimelineZoom: 2

[Metadata]
Title:Eden
TitleUnicode:Eden
Artist:cYsmix
ArtistUnicode:cYsmix
Creator:Gero
Version:Hard
Source:osu!
Tags:Mappers' Lounge Guild FA Featured Artist Electronic Escapism Norwegian Trance Electro Complextro Track 03 クセモノレコーズ Kusemono Records 3rd Solo Album
BeatmapID:1661768
BeatmapSetID:792241

[Difficulty]
HPDrainRate:6
CircleSize:4
OverallDifficulty:7
ApproachRate:8
SliderMultiplier:1.6
SliderTickRate:2

[Events]
//Background and Video events
0,0,"eden.jpg",0,0
//Break Periods
2,31127,43891
//Storyboard Layer 0 (Background)
//Storyboard Layer 1 (Fail)
//Storyboard Layer 2 (Pass)
//Storyboard Layer 3 (Foreground)
//Storyboard Sound Samples

[TimingPoints]
70,428.571428571429,4,3,1,50,1,0
3498,-100,4,3,1,65,0,0
17212,-100,4,3,1,70,0,0
30927,-100,4,3,1,70,0,0
44641,-100,4,3,1,60,0,0
53641,-100,4,3,1,30,0,0
54070,-100,4,3,1,40,0,0
54498,-100,4,3,1,50,0,0
54927,-100,4,3,1,60,0,0
56641,-125,4,3,1,30,0,0
56668,-125,4,3,1,20,0,0
57927,-125,4,3,1,60,0,0
58355,-83.3333333333333,4,3,1,70,0,0
84927,-83.3333333333333,4,3,1,40,0,0
85784,-83.3333333333333,4,3,1,30,0,0
86212,-83.3333333333333,4,3,1,70,0,0
86641,-83.3333333333333,4,3,1,80,0,1
109784,-83.3333333333333,4,3,1,70,0,1
111498,-83.3333333333333,4,3,1,60,0,1
113212,-83.3333333333333,4,3,1,50,0,0
126927,-83.3333333333333,4,3,1,45,0,0
133784,-83.3333333333333,4,3,1,40,0,0
137212,-83.3333333333333,4,3,1,30,0,0
138927,-83.3333333333333,4,3,1,25,0,0
139784,-83.3333333333333,4,3,1,40,0,0
140641,-83.3333333333333,4,3,1,40,0,0
142355,-83.3333333333333,4,3,1,30,0,0
144070,-83.3333333333333,4,3,1,20,0,0
145784,-83.3333333333333,4,2,1,5,0,0

[Colours]
Combo1 : 128,0,255
Combo2 : 214,50,54
Combo3 : 167,118,97
Combo4 : 26,176,157
Combo5 : 107,192,50
Combo6 : 147,147,147
Combo7 : 240,0,0
Combo8 : 255,28,141

[HitObjects]
212,116,3498,5,4,0:0:0:0:
212,116,3605,1,0,0:0:0:0:
212,116,3712,1,0,0:0:0:0:
124,116,3927,1,8,1:0:0:0:
80,192,4141,1,0,0:0:0:0:
124,268,4355,5,4,0:0:0:0:
124,268,4462,1,0,0:0:0:0:
124,268,4570,1,0,0:0:0:0:
212,268,4784,1,8,1:0:0:0:
256,192,4998,1,2,0:0:0:0:
300,116,5212,101,4,0:0:0:0:
300,116,5320,1,0,0:0:0:0:
300,116,5427,1,0,0:0:0:0:
388,116,5641,1,8,1:0:0:0:
432,192,5855,1,0,0:0:0:0:
388,268,6070,5,4,0:0:0:0:
388,268,6177,1,0,0:0:0:0:
388,268,6284,1,8,1:0:0:0:
300,268,6498,1,8,1:0:0:0:
300,268,6605,1,8,1:0:0:0:
256,192,6820,101,8,1:0:0:0:
256,192,6927,2,0,P|200:173|144:192,1,120,4|0,3:0|0:0,0:0:0:0:
122,229,7355,2,0,P|135:192|122:155,1,80,8|0,1:0|0:0,0:0:0:0:
40,192,7784,2,0,P|27:229|40:266,1,80,4|0,0:0|0:0,0:0:0:0:
122,303,8212,1,8,1:0:0:0:
127,306,8320,1,2,0:0:0:0:
132,309,8427,1,2,0:0:0:0:
214,346,8641,6,0,L|256:278,1,80,4|0,0:0|0:0,0:0:0:0:
339,314,9070,2,0,L|381:246,1,80,8|0,1:0|0:0,0:0:0:0:
452,192,9498,1,4,0:0:0:0:
382,138,9712,1,8,1:0:0:0:
311,192,9927,1,8,1:0:0:0:
305,192,10034,1,8,1:0:0:0:
299,192,10141,1,8,1:0:0:0:
293,192,10248,1,8,1:0:0:0:
287,192,10355,102,0,B|271:180|271:180|231:180|231:180|215:192,1,80,4|0,0:0|0:0,0:0:0:0:
184,108,10784,2,0,B|168:120|168:120|128:120|128:120|112:108,1,80,8|0,1:0|0:0,0:0:0:0:
81,192,11212,2,0,B|65:180|65:180|25:180|25:180|9:192,1,80,4|0,0:0|0:0,0:0:0:0:
45,272,11641,1,8,1:0:0:0:
45,278,11748,1,2,0:0:0:0:
45,284,11855,1,2,0:0:0:0:
81,364,12070,6,0,B|104:364|104:364|140:364|164:324|148:296,1,120,4|0,0:0|0:0,0:0:0:0:
184,267,12498,2,0,B|204:267|220:252|220:252|236:267|256:267,1,80,8|0,1:0|0:0,0:0:0:0:
300,192,12927,1,4,0:0:0:0:
256,117,13141,1,8,1:0:0:0:
300,42,13355,1,8,1:0:0:0:
300,42,13462,1,8,1:0:0:0:
344,117,13677,101,8,1:0:0:0:
344,117,13784,2,0,B|384:117|384:117|413:145,1,80,4|0,0:0|0:0,0:0:0:0:
501,145,14212,1,8,1:0:0:0:
501,239,14427,1,0,0:0:0:0:
413,238,14641,2,0,B|384:267|384:267|344:267,1,80,4|0,0:0|0:0,0:0:0:0:
300,342,15070,1,8,1:0:0:0:
300,342,15177,1,2,0:0:0:0:
300,342,15284,1,2,0:0:0:0:
256,267,15498,6,0,P|219:254|182:267,1,80,4|0,0:0|0:0,0:0:0:0:
103,229,15927,2,0,P|90:192|103:155,1,80,8|0,1:0|0:0,0:0:0:0:
182,116,16355,2,0,P|219:129|256:116,1,80,4|8,0:0|1:0,0:0:0:0:
300,42,16784,1,8,1:0:0:0:
305,45,16891,1,8,1:0:0:0:
310,48,16998,1,8,1:0:0:0:
315,51,17105,1,8,1:0:0:0:
320,54,17212,102,0,B|357:39|357:39|394:54,1,80,4|0,1:0|0:0,0:0:0:0:
475,17,17641,2,0,B|490:54|490:54|475:91,1,80,8|0,1:0|0:0,0:0:0:0:
512,172,18070,2,0,B|475:187|475:187|438:172,1,80,4|0,0:0|0:0,0:0:0:0:
357,209,18498,1,8,1:0:0:0:
357,209,18712,1,2,0:0:0:0:
276,247,18927,6,0,B|239:262|239:262|202:247,1,80,4|0,0:0|0:0,0:0:0:0:
121,284,19355,2,0,B|106:247|106:247|121:210,1,80,8|0,1:0|0:0,0:0:0:0:
84,129,19784,2,0,B|121:114|121:114|158:129,1,80,4|8,0:0|1:0,0:0:0:0:
239,92,20212,1,8,1:0:0:0:
239,92,20320,1,8,1:0:0:0:
320,54,20534,101,8,1:0:0:0:
320,54,20641,1,4,0:0:0:0:
401,92,20855,1,0,0:0:0:0:
320,130,21070,1,8,1:0:0:0:
239,92,21284,2,0,B|220:130|236:178|260:198|260:198|256:242,1,160,0|0,0:0|0:0,0:0:0:0:
175,280,21927,1,8,1:0:0:0:
94,242,22141,1,2,0:0:0:0:
13,280,22355,6,0,B|5:319|5:319|13:358,1,80,4|0,0:0|0:0,0:0:0:0:
94,242,22784,2,0,B|102:203|102:203|94:164,1,80,8|0,1:0|0:0,0:0:0:0:
13,126,23212,1,4,0:0:0:0:
94,88,23427,1,8,1:0:0:0:
175,126,23641,1,8,1:0:0:0:
180,129,23748,1,8,1:0:0:0:
185,132,23855,1,8,1:0:0:0:
190,135,23962,1,8,1:0:0:0:
195,138,24070,102,0,B|220:128|246:138|246:138|274:138,1,80,4|0,0:0|0:0,0:0:0:0:
348,188,24498,1,8,1:0:0:0:
348,188,24712,1,0,0:0:0:0:
274,246,24927,2,0,B|246:246|246:246|220:256|195:246,1,80,4|0,0:0|0:0,0:0:0:0:
124,192,25355,1,8,1:0:0:0:
124,192,25570,1,2,0:0:0:0:
195,138,25784,6,0,L|167:63,1,80,4|0,0:0|0:0,0:0:0:0:
96,117,26212,2,0,L|124:192,1,80,8|0,1:0|0:0,0:0:0:0:
53,246,26641,1,4,0:0:0:0:
124,300,26855,1,8,1:0:0:0:
195,354,27070,1,8,1:0:0:0:
195,354,27177,1,8,1:0:0:0:
266,300,27391,101,8,1:0:0:0:
266,300,27498,2,0,P|303:287|340:300,1,80,4|0,0:0|0:0,0:0:0:0:
411,354,27927,1,8,1:0:0:0:
484,304,28141,2,0,B|463:268|486:227|486:227|439:226|419:191,1,160,0|0,0:0|0:0,0:0:0:0:
337,133,28784,1,8,1:0:0:0:
256,192,28998,1,0,0:0:0:0:
175,251,29212,5,8,1:0:0:0:
256,192,29427,1,0,0:0:0:0:
225,97,29641,1,8,1:0:0:0:
125,97,29855,1,0,0:0:0:0:
95,191,30070,1,8,1:0:0:0:
175,250,30284,1,0,0:0:0:0:
256,191,30498,101,4,0:0:0:0:
256,191,30927,5,4,1:0:0:0:
256,192,44641,5,10,0:0:0:0:
186,138,44855,2,0,P|256:105|326:138,1,160,8|8,0:0|0:0,0:0:0:0:
396,192,45498,1,10,0:0:0:0:
326,246,45712,1,8,0:0:0:0:
396,192,45927,1,10,0:0:0:0:
466,246,46141,6,0,B|474:285|474:285|466:324,1,80,8|2,0:0|0:0,0:0:0:0:
396,378,46570,2,0,B|332:332|332:332|250:332,1,160,8|8,0:0|0:0,0:0:0:0:
172,376,47212,1,10,0:0:0:0:
94,332,47427,1,0,0:0:0:0:
172,288,47641,1,10,0:0:0:0:
94,244,47855,102,0,P|83:206|94:168,1,80,8|2,0:0|0:0,0:0:0:0:
172,124,48284,2,0,B|224:124|248:84|248:84|324:84,1,160,8|8,0:0|0:0,0:0:0:0:
380,21,48927,1,2,0:0:0:0:
442,84,49141,1,8,0:0:0:0:
380,147,49355,1,2,0:0:0:0:
442,84,49570,6,0,L|532:84,1,80,8|2,0:0|0:0,0:0:0:0:
380,147,49998,2,0,B|309:147|309:147|301:151|301:151|293:155|293:155|221:155,1,160,8|8,0:0|0:0,0:0:0:0:
144,192,50641,1,2,0:0:0:0:
221,229,50855,1,8,0:0:0:0:
143,266,51070,2,0,B|135:305|135:305|143:344,1,80,10|0,0:0|0:0,0:0:0:0:
55,344,51498,102,0,B|63:305|63:305|55:266,1,80,8|0,0:1|0:0,0:0:0:0:
4,192,51927,1,8,0:1:0:0:
4,192,52141,1,0,0:0:0:0:
55,118,52355,2,0,B|63:79|63:79|55:40,1,80,8|0,0:1|0:0,0:0:0:0:
143,40,52784,2,0,B|135:79|135:79|143:118,1,80,8|0,0:1|0:0,0:0:0:0:
221,155,53212,5,8,0:1:0:0:
256,192,53320,12,8,56212,0:1:0:0:
256,40,56641,6,2,B|216:72|216:116|216:116|188:164|140:164|111:116|140:68|188:68|216:116|216:116|216:160|256:192,1,384,0|4,2:0|0:0,2:0:0:0:
256,192,58355,54,0,L|352:192,1,95.9999970703126,6|0,1:0|0:0,0:0:0:0:
408,112,58784,1,10,1:0:0:0:
408,112,58891,1,2,0:1:0:0:
460,192,59105,1,2,0:1:0:0:
460,192,59212,2,0,B|500:224|509:272|509:272|500:320|460:352,1,191.999994140625,2|8,0:1|1:0,0:0:0:0:
408,272,59855,1,0,0:0:0:0:
356,352,60070,5,10,0:0:0:0:
356,352,60177,1,10,0:0:0:0:
356,352,60284,2,0,B|297:352|297:352|289:356|289:356|289:348|289:348|281:352|281:352|222:352,1,143.999995605469,10|10,0:0|0:0,0:0:0:0:
173,352,60712,1,0,0:0:0:0:
121,272,60927,102,0,B|101:239|117:207|121:203|125:199|141:167|121:134,1,143.999995605469,10|10,0:0|0:0,0:0:0:0:
87,100,61355,1,8,1:0:0:0:
155,31,61570,1,10,0:0:0:0:
223,100,61784,6,0,B|271:100|271:100|304:133,1,95.9999970703126,2|2,0:1|0:1,0:0:0:0:
380,192,62212,1,10,1:0:0:0:
380,192,62320,1,2,0:1:0:0:
304,250,62534,1,2,0:1:0:0:
304,250,62641,2,0,B|271:284|271:284|223:284,1,95.9999970703126,2|0,0:1|0:0,0:0:0:0:
188,192,63070,1,10,1:0:0:0:
188,192,63177,1,2,0:1:0:0:
188,192,63284,1,2,0:1:0:0:
223,100,63498,101,10,0:0:0:0:
223,100,63605,1,10,0:0:0:0:
223,100,63712,2,0,B|176:77|128:110|128:110|85:110,1,143.999995605469,10|10,0:0|0:0,0:0:0:0:
50,144,64141,1,0,0:0:0:0:
50,240,64355,2,0,B|91:281|91:281|100:284|100:284|94:290|94:290|103:293|103:293|144:334,1,143.999995605469,10|10,0:0|0:0,0:0:0:0:
179,369,64784,1,8,1:0:0:0:
256,312,64998,1,10,0:0:0:0:
333,255,65212,6,0,P|379:243|425:255,1,95.9999970703126,2|0,0:1|0:0,0:0:0:0:
496,192,65641,1,10,1:0:0:0:
496,192,65748,1,2,0:1:0:0:
424,129,65962,1,2,0:1:0:0:
424,129,66070,2,0,B|380:101|336:125|332:129|328:133|284:157|240:129,1,191.999994140625,2|8,0:1|1:0,0:0:0:0:
172,61,66712,1,0,0:0:0:0:
104,130,66927,101,10,0:0:0:0:
104,130,67034,1,10,0:0:0:0:
104,130,67141,2,0,B|76:164|76:164|76:220|76:220|104:254,1,143.999995605469,10|10,0:0|0:0,0:0:0:0:
138,288,67570,1,0,0:0:0:0:
205,220,67784,2,0,B|238:228|256:267|256:267|274:228|307:220,1,143.999995605469,10|10,0:0|0:0,0:0:0:0:
344,192,68212,1,8,1:0:0:0:
428,144,68427,1,10,0:0:0:0:
344,96,68641,5,2,0:1:0:0:
428,144,68855,1,2,0:1:0:0:
512,96,69070,1,10,1:0:0:0:
512,96,69177,1,2,0:1:0:0:
428,48,69391,1,2,0:1:0:0:
428,48,69498,2,0,L|344:96,1,95.9999970703126,2|0,0:1|0:0,0:0:0:0:
256,56,69927,1,10,1:0:0:0:
256,56,70034,1,2,0:1:0:0:
256,56,70141,1,2,0:1:0:0:
168,96,70355,101,10,0:0:0:0:
168,96,70462,1,10,0:0:0:0:
168,96,70570,2,0,B|168:159|168:159|164:167|164:167|160:175|160:175|160:238,1,143.999995605469,10|10,0:0|0:0,0:0:0:0:
126,272,70998,1,0,0:0:0:0:
193,339,71212,2,0,B|256:304|256:304|319:339,1,143.999995605469,10|10,0:0|0:0,0:0:0:0:
353,373,71641,1,8,1:0:0:0:
443,339,71855,1,10,0:0:0:0:
477,248,72070,6,0,B|392:201,1,95.9999970703126,6|8,1:0|0:0,0:0:0:0:
427,110,72498,1,10,1:0:0:0:
427,110,72605,1,2,0:1:0:0:
393,18,72820,1,2,0:1:0:0:
393,18,72927,2,0,B|327:18|327:18|261:18|226:83,1,191.999994140625,2|8,0:1|1:0,0:0:0:0:
158,150,73570,1,0,0:0:0:0:
226,217,73784,101,10,0:0:0:0:
226,217,73891,1,10,0:0:0:0:
226,217,73998,2,0,P|290:245|354:217,1,143.999995605469,10|10,0:0|0:0,0:0:0:0:
396,192,74427,1,0,0:0:0:0:
463,125,74641,2,0,B|489:192|489:192|463:259,1,143.999995605469,10|10,0:0|0:0,0:0:0:0:
422,283,75070,1,8,1:0:0:0:
489,350,75284,1,10,0:0:0:0:
422,283,75498,5,2,0:1:0:0:
355,350,75712,1,2,0:1:0:0:
288,283,75927,1,10,1:0:0:0:
288,283,76034,1,2,0:1:0:0:
355,216,76248,1,2,0:1:0:0:
355,216,76355,2,0,B|355:169|355:169|331:126,1,95.9999970703126,2|0,0:1|0:0,0:0:0:0:
256,64,76784,1,10,1:0:0:0:
256,64,76891,1,2,0:1:0:0:
256,64,76998,1,2,0:1:0:0:
180,126,77212,101,10,0:0:0:0:
180,126,77320,1,10,0:0:0:0:
180,126,77427,2,0,B|153:98|153:98|87:98|87:98|60:126,1,143.999995605469,10|10,0:0|0:0,0:0:0:0:
25,160,77855,1,0,0:0:0:0:
60,249,78070,2,0,B|93:269|125:253|129:249|133:245|165:229|198:249,1,143.999995605469,10|10,0:0|0:0,0:0:0:0:
232,283,78498,1,8,1:0:0:0:
299,350,78712,1,10,0:0:0:0:
366,283,78927,6,0,B|413:273|413:273|460:283,1,95.9999970703126,2|0,0:1|0:0,0:0:0:0:
484,192,79355,1,10,1:0:0:0:
484,192,79462,1,2,0:1:0:0:
460,101,79677,1,2,0:1:0:0:
460,101,79784,2,0,B|413:111|413:111|366:101,1,95.9999970703126,2|0,0:1|0:0,0:0:0:0:
342,192,80212,2,0,B|295:182|295:182|248:192,1,95.9999970703126,8|0,1:0|0:0,0:0:0:0:
224,101,80641,101,10,0:0:0:0:
224,101,80748,1,10,0:0:0:0:
224,101,80855,2,0,B|83:130,1,143.999995605469,2|10,0:0|0:0,0:0:0:0:
52,168,81284,1,0,0:0:0:0:
0,248,81498,2,0,B|20:300|68:300|68:300|120:300,1,143.999995605469,10|10,0:0|0:0,0:0:0:0:
151,337,81927,1,8,1:0:0:0:
208,260,82141,1,10,0:0:0:0:
304,260,82355,6,0,P|316:214|304:168,1,95.9999970703126,2|2,0:1|0:1,0:0:0:0:
256,84,82784,1,10,1:0:0:0:
256,84,82891,1,2,0:1:0:0:
208,168,83105,1,2,0:1:0:0:
208,168,83212,2,0,P|196:214|208:260,1,95.9999970703126,2|0,0:1|0:0,0:0:0:0:
256,344,83641,1,10,1:0:0:0:
256,344,83748,1,2,0:1:0:0:
256,344,83855,1,2,0:1:0:0:
304,260,84070,101,2,0:0:0:0:
304,260,84177,1,2,0:0:0:0:
304,260,84284,2,0,B|372:236|372:236|440:260,2,143.999995605469,10|10|4,0:0|0:0|0:0,0:0:0:0:
256,344,85141,1,2,0:0:0:0:
208,260,85355,1,4,0:0:0:0:
256,176,85570,1,2,0:0:0:0:
304,260,85784,53,2,0:2:0:0:
304,260,86212,6,0,L|349:244,3,47.9999985351563,2|0|2|0,1:0|1:0|1:0|1:0,0:0:0:0:
396,228,86641,5,4,1:0:0:0:
484,192,86855,1,2,1:2:0:0:
484,192,86962,1,0,0:0:0:0:
484,192,87070,2,0,P|512:128|484:64,1,143.999995605469,8|0,0:2|0:0,0:0:0:0:
449,29,87498,2,0,B|403:15|403:15|357:29,1,95.9999970703126,4|2,0:0|1:2,0:0:0:0:
302,107,87927,2,0,B|256:121|256:121|210:107,1,95.9999970703126,8|2,0:2|1:2,0:0:0:0:
155,185,88355,5,4,0:0:0:0:
210,262,88570,1,2,1:2:0:0:
155,339,88784,2,0,L|107:339,3,47.9999985351563,8|0|2|8,0:2|0:0|1:2|0:2,0:0:0:0:
91,384,89212,2,0,P|106:339|91:294,1,95.9999970703126,4|2,0:0|1:2,0:0:0:0:
146,217,89641,2,0,L|194:217,3,47.9999985351563,8|0|2|0,0:2|0:0|1:2|0:0,0:0:0:0:
210,262,90070,102,0,L|258:262,3,47.9999985351563,4|0|2|0,0:0|0:0|1:2|0:0,0:0:0:0:
274,307,90498,2,0,L|322:307,3,47.9999985351563,8|0|2|0,0:2|0:0|1:2|0:0,0:0:0:0:
338,352,90927,2,0,P|404:376|470:352,2,143.999995605469,4|0|2,0:0|0:0|1:2,0:0:0:0:
404,283,91784,6,0,B|436:192|436:192|404:101,1,191.999994140625,4|8,0:0|0:2,0:0:0:0:
338,32,92427,1,2,1:2:0:0:
338,32,92534,1,8,0:2:0:0:
338,32,92641,2,0,P|404:8|470:32,2,143.999995605469,4|0|2,0:0|0:0|1:2,0:0:0:0:
404,101,93498,102,0,L|420:146,3,47.9999985351563,4|0|2|0,0:0|0:0|1:2|0:0,0:0:0:0:
404,192,93927,2,0,L|420:237,3,47.9999985351563,8|0|2|0,0:2|0:0|1:2|0:0,0:0:0:0:
404,283,94355,2,0,B|363:307|352:360|352:360|341:307|300:283,1,191.999994140625,4|8,0:0|0:2,0:0:0:0:
256,196,94998,1,2,1:2:0:0:
212,282,95212,6,0,L|180:372,1,95.9999970703126,4|10,0:0|1:2,0:0:0:0:
300,282,95641,2,0,L|331:372,1,95.9999970703126,8|2,0:2|1:2,0:0:0:0:
256,196,96070,2,0,L|256:140,3,47.9999985351563,4|0|2|0,0:0|0:0|1:2|0:0,0:0:0:0:
212,124,96498,2,0,B|256:143|256:143|300:124,1,95.9999970703126,8|2,0:2|1:2,0:0:0:0:
344,40,96927,102,0,P|256:7|168:40,1,191.999994140625,4|8,0:0|0:2,0:0:0:0:
124,124,97570,1,2,1:2:0:0:
168,208,97784,2,0,L|134:241,4,47.9999985351563,4|0|2|0|8,0:0|0:0|1:2|0:0|0:2,0:0:0:0:
212,292,98427,2,0,L|178:325,4,47.9999985351563,2|0|4|0|2,1:2|0:0|0:0|0:0|1:2,0:0:0:0:
256,208,99070,5,8,0:2:0:0:
256,208,99498,102,0,B|304:208|304:208|337:241,1,95.9999970703126,4|2,1:0|1:2,0:0:0:0:
420,192,99927,2,0,B|436:180|436:180|436:124|436:124|420:112,1,95.9999970703126,8|2,0:2|1:2,0:0:0:0:
337,62,100355,2,0,B|303:95|303:95|255:95,1,95.9999970703126,4|2,0:0|1:2,0:0:0:0:
180,152,100784,1,8,0:2:0:0:
256,208,100998,1,2,1:2:0:0:
180,152,101212,6,0,L|141:181,3,47.9999985351563,4|0|2|0,0:0|0:0|1:2|0:0,0:0:0:0:
108,215,101641,2,0,L|78:176,3,47.9999985351563,8|0|2|0,0:2|0:0|1:2|0:0,0:0:0:0:
45,143,102070,2,0,L|83:113,3,47.9999985351563,4|0|10|0,0:0|0:0|1:2|0:0,0:0:0:0:
117,80,102498,2,0,L|146:118,3,47.9999985351563,8|0|2|8,0:2|0:0|1:2|0:2,0:0:0:0:
180,152,102927,102,0,B|256:94|256:94|332:152,1,191.999994140625,4|8,0:0|0:2,0:0:0:0:
420,192,103570,1,2,1:2:0:0:
332,232,103784,2,0,B|256:290|256:290|180:232,1,191.999994140625,4|8,0:0|0:2,0:0:0:0:
92,192,104427,1,2,1:2:0:0:
180,152,104641,6,0,L|180:344,1,191.999994140625,4|8,0:0|0:2,0:0:0:0:
256,290,105284,1,2,1:2:0:0:
332,344,105498,2,0,L|421:308,1,95.9999970703126,4|10,0:0|1:2,0:0:0:0:
344,248,105927,1,8,0:2:0:0:
344,248,106034,1,8,0:2:0:0:
256,206,106248,101,8,0:2:0:0:
256,206,106355,2,0,B|169:206|169:206|161:210|161:210|153:214|153:214|65:214,1,191.999994140625,4|8,0:0|0:2,0:0:0:0:
4,140,106998,1,2,1:2:0:0:
65,66,107212,2,0,B|111:52|111:52|157:66,2,95.9999970703126,4|2|8,0:0|1:2|0:2,0:0:0:0:
4,140,107855,1,2,1:2:0:0:
65,214,108070,6,0,P|151:251|191:336,1,191.999994140625,4|8,0:0|0:2,0:0:0:0:
256,264,108712,1,2,1:2:0:0:
320,336,108927,2,0,P|333:290|360:251,1,95.9999970703126,4|10,0:0|1:2,0:0:0:0:
436,192,109355,1,8,0:2:0:0:
436,192,109462,1,8,0:2:0:0:
360,132,109677,101,8,0:2:0:0:
360,132,109784,2,0,B|416:104|392:24|336:24|336:24|296:24,1,191.999994140625,4|8,0:0|0:2,0:0:0:0:
256,112,110427,1,2,1:2:0:0:
216,24,110641,2,0,B|176:24|176:24|120:24|96:104|152:132,1,191.999994140625,4|8,0:0|0:2,0:0:0:0:
76,192,111284,1,2,1:2:0:0:
151,250,111498,6,0,L|208:327,1,95.9999970703126,4|2,0:0|1:2,0:0:0:0:
360,250,111927,2,0,L|303:327,1,95.9999970703126,8|2,0:2|1:2,0:0:0:0:
256,244,112355,2,0,L|256:148,1,95.9999970703126,4|10,0:0|1:2,0:0:0:0:
304,64,112784,1,8,0:2:0:0:
304,64,112891,1,8,0:2:0:0:
208,64,113105,5,8,0:2:0:0:
208,64,113212,2,0,B|208:16|208:16|304:16|304:16|304:64,1,191.999994140625,4|8,1:0|1:0,0:0:0:0:
352,148,113855,1,2,0:0:0:0:
304,232,114070,2,0,P|316:278|304:324,1,95.9999970703126,4|2,0:0|0:0,0:0:0:0:
207,323,114498,2,0,P|195:277|207:231,1,95.9999970703126,8|2,1:0|0:0,0:0:0:0:
160,148,114927,6,0,B|164:124|164:124|160:100,3,47.9999985351563,4|0|2|0,0:0|0:0|0:0|0:0,0:0:0:0:
114,84,115355,2,0,B|90:80|90:80|66:84,3,47.9999985351563,8|0|2|0,1:0|0:0|0:0|0:0,0:0:0:0:
20,100,115784,2,0,B|16:124|16:124|20:148,3,47.9999985351563,4|0|10|0,0:0|0:0|0:1|0:0,0:0:0:0:
66,164,116212,2,0,B|90:168|90:168|114:164,3,47.9999985351563,10|10|2|10,1:0|0:1|0:0|0:1,0:0:0:0:
160,148,116641,102,0,B|209:158|235:209|211:251|211:251|182:300,1,191.999994140625,4|8,0:0|1:0,0:0:0:0:
256,360,117284,1,2,0:0:0:0:
329,300,117498,2,0,B|300:251|300:251|276:209|302:158|352:148,1,191.999994140625,4|8,0:0|1:0,0:0:0:0:
424,84,118141,1,2,0:0:0:0:
351,20,118355,6,0,B|256:34|256:34|161:20,1,191.999994140625,4|8,0:0|1:0,0:0:0:0:
88,84,118998,1,2,0:0:0:0:
160,148,119212,1,4,0:0:0:0:
88,212,119427,1,10,0:1:0:0:
16,148,119641,1,10,1:0:0:0:
16,148,119748,1,10,0:1:0:0:
88,84,119962,101,10,0:1:0:0:
88,84,120070,2,0,B|132:48|188:48|232:84|232:84|268:84,1,191.999994140625,4|8,0:0|1:0,0:0:0:0:
351,37,120712,1,2,0:0:0:0:
435,84,120927,2,0,B|459:152|459:152|435:269,1,191.999994140625,4|8,0:0|1:0,0:0:0:0:
350,316,121570,1,2,0:0:0:0:
266,269,121784,6,0,B|281:223,3,47.9999985351563,4|0|2|0,0:0|0:0|0:0|0:0,0:0:0:0:
244,192,122212,2,0,B|259:146,3,47.9999985351563,8|0|2|0,1:0|0:0|0:0|0:0,0:0:0:0:
222,115,122641,1,4,0:0:0:0:
148,56,122855,1,10,0:1:0:0:
74,115,123070,1,10,1:0:0:0:
74,115,123177,1,10,0:1:0:0:
148,174,123391,101,10,0:1:0:0:
148,174,123498,2,0,B|176:218|152:262|148:266|144:270|120:314|148:358,1,191.999994140625,4|8,0:0|1:0,0:0:0:0:
256,358,124141,1,2,0:0:0:0:
364,357,124355,2,0,B|392:313|368:269|364:265|360:261|336:217|364:173,1,191.999994140625,4|8,0:0|1:0,0:0:0:0:
438,115,124998,1,2,0:0:0:0:
364,56,125212,6,0,L|330:89,2,47.9999985351563,4|0|2,0:0|0:0|0:0,0:0:0:0:
438,115,125641,2,0,L|471:81,2,47.9999985351563,8|0|2,1:0|0:0|0:0,0:0:0:0:
364,174,126070,1,4,0:0:0:0:
438,233,126284,1,10,0:1:0:0:
364,292,126498,1,10,1:0:0:0:
364,292,126605,1,10,0:1:0:0:
290,233,126820,69,10,0:1:0:0:
290,233,126927,2,0,B|264:233|264:233|244:242|244:242|224:233|224:233|198:233,1,95.9999970703126,4|2,1:0|1:2,0:0:0:0:
101,233,127355,2,0,B|76:192|76:192|101:151,1,95.9999970703126,8|2,0:2|1:2,0:0:0:0:
198,151,127784,2,0,B|224:151|224:151|244:142|244:142|264:151|264:151|290:151,1,95.9999970703126,4|2,0:0|1:2,0:0:0:0:
386,151,128212,2,0,B|411:192|411:192|386:233,1,95.9999970703126,8|2,0:2|1:2,0:0:0:0:
290,233,128641,6,0,B|265:274,3,47.9999985351563,4|0|2|0,0:0|0:0|1:2|0:0,0:0:0:0:
236,312,129070,2,0,B|195:287,3,47.9999985351563,8|0|2|0,0:2|0:0|1:2|0:0,0:0:0:0:
157,258,129498,2,0,B|182:217,3,47.9999985351563,4|0|10|0,0:0|0:0|1:2|0:0,0:0:0:0:
211,179,129927,2,0,B|252:204,3,47.9999985351563,8|8|2|8,0:2|0:2|1:2|0:2,0:0:0:0:
290,233,130355,102,0,B|386:233|386:233|472:280,1,191.999994140625,4|8,0:0|0:2,0:0:0:0:
508,192,130998,1,2,1:2:0:0:
470,104,131212,2,0,B|386:151|386:151|290:151,1,191.999994140625,4|8,0:0|0:2,0:0:0:0:
204,192,131855,1,2,1:2:0:0:
118,151,132070,6,0,B|80:188|33:192|33:192|80:196|118:233,1,191.999994140625,4|8,0:0|0:2,0:0:0:0:
204,192,132712,1,2,1:2:0:0:
290,233,132927,1,4,0:0:0:0:
376,192,133141,1,10,1:2:0:0:
290,151,133355,1,8,0:2:0:0:
290,151,133462,1,8,0:2:0:0:
204,192,133677,101,8,0:2:0:0:
204,192,133784,2,0,B|148:192|118:233|118:282|118:282|118:333,1,191.999994140625,4|8,0:0|0:2,0:0:0:0:
36,284,134427,1,2,1:2:0:0:
118,333,134641,2,0,L|210:359,1,95.9999970703126,4|2,0:0|1:2,0:0:0:0:
302,359,135070,2,0,L|394:333,1,95.9999970703126,8|2,0:2|1:2,0:0:0:0:
476,284,135498,6,0,B|476:200|476:200|468:180|468:180|468:93,1,191.999994140625,4|8,0:0|0:2,0:0:0:0:
394,33,136141,1,2,1:2:0:0:
320,94,136355,1,4,0:0:0:0:
394,155,136570,1,10,1:2:0:0:
320,216,136784,1,8,0:2:0:0:
320,216,136891,1,8,0:2:0:0:
246,155,137105,101,8,0:2:0:0:
246,155,137212,2,0,B|202:127|158:151|154:155|150:159|106:183|62:155,1,191.999994140625,4|8,0:0|0:2,0:0:0:0:
0,80,137855,1,2,1:2:0:0:
62,5,138070,2,0,B|122:80|122:80|62:155,1,191.999994140625,4|8,0:0|0:2,0:0:0:0:
124,230,138712,1,2,1:2:0:0:
62,305,138927,22,0,B|2:230|2:230|62:155,1,191.999994140625,4|4,0:0|0:0,0:0:0:0:
124,230,139570,1,0,0:0:0:0:
186,155,139784,1,10,0:1:0:0:
186,155,139891,1,2,0:0:0:0:
186,155,139998,1,10,0:1:0:0:
248,230,140212,5,10,0:1:0:0:
248,230,140320,1,10,0:1:0:0:
186,305,140534,1,10,0:1:0:0:
186,305,140641,1,4,0:0:0:0:
256,192,140748,12,0,145784,0:0:0:0:
