osu file format v14

[General]
AudioFilename: audio.mp3
AudioLeadIn: 0
PreviewTime:42930
Countdown: 0
SampleSet: Normal
StackLeniency: 0.7
Mode: 1
LetterboxInBreaks: 0
WidescreenStoryboard: 1

[Editor]
Bookmarks: 8752,13895,15609,22466,25895,29323,36180,43037,49895,56752,63609,70394,70466,77323,84180,91037,98752
DistanceSpacing: 1.6
BeatDivisor: 4
GridSize: 32
TimelineZoom: 1.1

[Metadata]
Title:Dovregubben's Hall (Cut Ver.)
TitleUnicode:Dovregubben's Hall (Cut Ver.)
Artist:cYsmix
ArtistUnicode:cYsmix
Creator:Shmiklak
Version:Tachi's Muzukashii
Source:osu!
Tags:marvollo m_a_r_v_o_l_l_o Tachibana_ nozdormu iredi featured artist fa mappers' guild dance in the of mountain king Edvard Edward Grieg instrumental electronic classical remix Peer Gynt Op. 23 mpg edm electro house
BeatmapID:4479836
BeatmapSetID:1203041

[Difficulty]
HPDrainRate:6
CircleSize:0
OverallDifficulty:5
ApproachRate:9
SliderMultiplier:1.4
SliderTickRate:1

[Events]
//Background and Video events
0,0,"bg.jpg",0,50
//Break Periods
2,43237,49295
//Storyboard Layer 0 (Background)
//Storyboard Layer 1 (Fail)
//Storyboard Layer 2 (Pass)
//Storyboard Layer 3 (Foreground)
//Storyboard Layer 4 (Overlay)
//Storyboard Sound Samples

[TimingPoints]
1895,428.571428571429,4,1,0,75,1,0
8752,-100,4,1,0,75,0,0
13680,-100,4,1,0,60,0,0
15609,-100,4,1,0,75,0,0
22466,-100,4,1,0,75,0,0
29323,-100,4,1,0,75,0,0
49895,-100,4,1,0,60,0,0
56752,-100,4,1,0,75,0,1
70359,-100,4,1,0,75,0,1
70466,-100,4,1,0,75,0,1
83323,-100,4,1,0,75,0,1
83752,-100,4,1,0,75,0,1
84180,-100,4,1,0,75,0,0

[HitObjects]
256,192,1466,5,8,0:0:0:0:
256,192,1895,1,0,0:0:0:0:
256,192,2323,1,8,0:0:0:0:
256,192,2752,1,8,0:0:0:0:
256,192,2966,1,8,0:0:0:0:
256,192,3180,1,0,0:0:0:0:
256,192,3930,1,8,0:0:0:0:
256,192,4037,1,0,0:0:0:0:
256,192,4466,1,0,0:0:0:0:
256,192,4680,1,0,0:0:0:0:
256,192,4895,1,8,0:0:0:0:
256,192,5323,1,0,0:0:0:0:
256,192,5752,1,8,0:0:0:0:
256,192,6180,1,0,0:0:0:0:
256,192,6395,1,8,0:0:0:0:
256,192,6609,1,0,0:0:0:0:
256,192,7359,1,8,0:0:0:0:
256,192,7466,1,0,0:0:0:0:
256,192,7895,1,8,0:0:0:0:
256,192,8109,1,0,0:0:0:0:
256,192,8323,1,0,0:0:0:0:
256,192,8752,1,8,0:0:0:0:
256,192,9180,1,0,0:0:0:0:
256,192,9609,1,8,0:0:0:0:
256,192,9823,1,8,0:0:0:0:
256,192,10037,1,0,0:0:0:0:
256,192,10145,1,0,0:0:0:0:
256,192,10252,1,0,0:0:0:0:
256,192,10466,1,8,0:0:0:0:
256,192,10680,1,8,0:0:0:0:
256,192,10895,1,0,0:0:0:0:
256,192,11323,1,8,0:0:0:0:
256,192,11537,1,8,0:0:0:0:
256,192,11752,1,0,0:0:0:0:
256,192,11859,1,0,0:0:0:0:
256,192,11966,1,0,0:0:0:0:
256,192,12180,1,0,0:0:0:0:
256,192,12395,1,8,0:0:0:0:
256,192,12609,1,0,0:0:0:0:
256,192,13037,1,8,0:0:0:0:
256,192,13145,1,8,0:0:0:0:
256,192,13252,1,8,0:0:0:0:
256,192,13466,1,8,0:0:0:0:
256,192,13680,1,0,0:0:0:0:
256,192,13895,1,0,0:0:0:0:
256,192,14323,1,8,0:0:0:0:
256,192,14752,1,0,0:0:0:0:
256,192,14966,1,8,0:0:0:0:
256,192,15180,1,0,0:0:0:0:
256,192,15395,1,8,0:0:0:0:
256,192,15609,1,4,0:0:0:0:
256,192,16037,1,8,0:0:0:0:
256,192,16466,1,0,0:0:0:0:
256,192,16680,1,0,0:0:0:0:
256,192,16787,1,0,0:0:0:0:
256,192,16895,1,0,0:0:0:0:
256,192,17323,1,0,0:0:0:0:
256,192,17752,1,8,0:0:0:0:
256,192,18180,1,0,0:0:0:0:
256,192,18395,1,8,0:0:0:0:
256,192,18502,1,8,0:0:0:0:
256,192,18609,1,8,0:0:0:0:
256,192,19037,1,0,0:0:0:0:
256,192,19466,1,0,0:0:0:0:
256,192,19895,1,8,0:0:0:0:
256,192,20109,1,0,0:0:0:0:
256,192,20216,1,0,0:0:0:0:
256,192,20323,1,0,0:0:0:0:
256,192,20752,1,8,0:0:0:0:
256,192,20966,1,0,0:0:0:0:
256,192,21180,1,0,0:0:0:0:
256,192,21287,1,8,0:0:0:0:
256,192,21609,1,0,0:0:0:0:
256,192,21823,1,8,0:0:0:0:
256,192,21930,1,8,0:0:0:0:
256,192,22037,1,8,0:0:0:0:
256,192,22466,1,0,0:0:0:0:
256,192,22895,1,8,0:0:0:0:
256,192,23323,1,0,0:0:0:0:
256,192,23537,1,8,0:0:0:0:
256,192,23645,1,8,0:0:0:0:
256,192,23752,1,8,0:0:0:0:
256,192,24180,1,0,0:0:0:0:
256,192,24395,1,8,0:0:0:0:
256,192,24609,1,0,0:0:0:0:
256,192,25037,1,8,0:0:0:0:
256,192,25145,1,8,0:0:0:0:
256,192,25252,1,8,0:0:0:0:
256,192,25466,1,0,0:0:0:0:
256,192,25895,1,0,0:0:0:0:
256,192,26323,1,8,0:0:0:0:
256,192,26752,1,0,0:0:0:0:
256,192,26966,1,8,0:0:0:0:
256,192,27073,1,8,0:0:0:0:
256,192,27180,1,8,0:0:0:0:
256,192,27609,1,0,0:0:0:0:
256,192,27823,1,8,0:0:0:0:
256,192,28037,1,0,0:0:0:0:
256,192,28145,1,8,0:0:0:0:
256,192,28466,1,8,0:0:0:0:
256,192,28573,1,8,0:0:0:0:
256,192,28680,1,8,0:0:0:0:
256,192,28895,1,0,0:0:0:0:
256,192,29323,1,12,0:0:0:0:
256,192,29537,1,0,0:0:0:0:
256,192,29752,1,0,0:0:0:0:
256,192,30180,1,0,0:0:0:0:
256,192,30395,1,8,0:0:0:0:
256,192,30502,1,8,0:0:0:0:
256,192,30609,1,8,0:0:0:0:
256,192,31037,1,8,0:0:0:0:
256,192,31252,1,0,0:0:0:0:
256,192,31359,1,0,0:0:0:0:
256,192,31466,1,0,0:0:0:0:
256,192,31895,1,0,0:0:0:0:
256,192,32109,1,8,0:0:0:0:
256,192,32216,1,8,0:0:0:0:
256,192,32323,1,8,0:0:0:0:
256,192,32752,1,0,0:0:0:0:
256,192,32966,1,8,0:0:0:0:
256,192,33180,1,0,0:0:0:0:
256,192,33609,1,8,0:0:0:0:
256,192,33823,1,0,0:0:0:0:
256,192,33930,1,0,0:0:0:0:
256,192,34037,1,0,0:0:0:0:
256,192,34466,1,8,0:0:0:0:
256,192,34680,1,0,0:0:0:0:
256,192,34895,1,8,0:0:0:0:
256,192,35002,1,0,0:0:0:0:
256,192,35537,1,8,0:0:0:0:
256,192,35645,1,8,0:0:0:0:
256,192,35752,1,8,0:0:0:0:
256,192,35966,1,0,0:0:0:0:
256,192,36180,1,8,0:0:0:0:
256,192,36394,1,8,0:0:0:0:
256,192,36609,1,0,0:0:0:0:
256,192,37037,1,0,0:0:0:0:
256,192,37252,1,8,0:0:0:0:
256,192,37359,1,8,0:0:0:0:
256,192,37466,1,8,0:0:0:0:
256,192,37894,1,8,0:0:0:0:
256,192,38109,1,0,0:0:0:0:
256,192,38216,1,0,0:0:0:0:
256,192,38323,1,0,0:0:0:0:
256,192,38752,1,0,0:0:0:0:
256,192,38966,1,8,0:0:0:0:
256,192,39073,1,8,0:0:0:0:
256,192,39180,1,8,0:0:0:0:
256,192,39609,1,0,0:0:0:0:
256,192,39823,1,8,0:0:0:0:
256,192,40037,1,8,0:0:0:0:
256,192,40466,1,0,0:0:0:0:
256,192,40680,1,8,0:0:0:0:
256,192,40787,1,8,0:0:0:0:
256,192,40895,1,8,0:0:0:0:
256,192,41323,1,8,0:0:0:0:
256,192,41537,1,0,0:0:0:0:
256,192,41752,1,8,0:0:0:0:
256,192,41966,1,8,0:0:0:0:
256,192,42180,1,0,0:0:0:0:
256,192,42609,1,8,0:0:0:0:
256,192,43037,1,0,0:0:0:0:
256,192,49895,5,0,0:0:0:0:
256,192,50109,1,8,0:0:0:0:
256,192,50323,1,0,0:0:0:0:
256,192,50752,1,8,0:0:0:0:
256,192,50859,1,8,0:0:0:0:
256,192,50966,1,8,0:0:0:0:
256,192,51180,1,8,0:0:0:0:
256,192,51609,1,0,0:0:0:0:
256,192,51930,1,8,0:0:0:0:
256,192,52037,1,0,0:0:0:0:
256,192,52466,1,0,0:0:0:0:
256,192,52573,1,0,0:0:0:0:
256,192,52680,1,0,0:0:0:0:
256,192,52895,1,8,0:0:0:0:
256,192,53323,1,0,0:0:0:0:
256,192,53537,1,8,0:0:0:0:
256,192,53752,1,0,0:0:0:0:
256,192,54180,1,0,0:0:0:0:
256,192,54287,1,0,0:0:0:0:
256,192,54395,1,0,0:0:0:0:
256,192,54609,1,8,0:0:0:0:
256,192,55037,1,0,0:0:0:0:
256,192,55466,1,0,0:0:0:0:
256,192,55895,1,8,0:0:0:0:
256,192,56109,1,8,0:0:0:0:
256,192,56323,1,0,0:0:0:0:
256,192,56537,1,8,0:0:0:0:
256,192,56752,1,4,0:0:0:0:
256,192,56966,1,8,0:0:0:0:
256,192,57073,1,8,0:0:0:0:
256,192,57180,1,8,0:0:0:0:
256,192,57395,1,0,0:0:0:0:
256,192,57609,1,8,0:0:0:0:
256,192,57716,1,8,0:0:0:0:
256,192,57823,1,8,0:0:0:0:
256,192,58037,1,8,0:0:0:0:
256,192,58466,1,0,0:0:0:0:
256,192,58573,1,0,0:0:0:0:
256,192,58680,1,0,0:0:0:0:
256,192,58895,1,8,0:0:0:0:
256,192,59323,1,8,0:0:0:0:
256,192,59430,1,8,0:0:0:0:
256,192,59537,1,8,0:0:0:0:
256,192,59752,1,0,0:0:0:0:
256,192,60180,1,8,0:0:0:0:
256,192,60395,1,0,0:0:0:0:
256,192,60502,1,0,0:0:0:0:
256,192,60609,1,0,0:0:0:0:
256,192,60823,1,8,0:0:0:0:
256,192,61037,1,8,0:0:0:0:
256,192,61145,1,8,0:0:0:0:
256,192,61252,1,8,0:0:0:0:
256,192,61466,1,0,0:0:0:0:
256,192,61895,1,0,0:0:0:0:
256,192,62109,1,8,0:0:0:0:
256,192,62323,1,0,0:0:0:0:
256,192,62537,1,8,0:0:0:0:
256,192,62752,1,8,0:0:0:0:
256,192,63609,1,8,0:0:0:0:
256,192,63823,1,0,0:0:0:0:
256,192,63930,1,0,0:0:0:0:
256,192,64037,1,0,0:0:0:0:
256,192,64252,1,8,0:0:0:0:
256,192,64466,1,8,0:0:0:0:
256,192,64573,1,8,0:0:0:0:
256,192,64680,1,8,0:0:0:0:
256,192,64894,1,0,0:0:0:0:
256,192,65323,1,0,0:0:0:0:
256,192,65430,1,0,0:0:0:0:
256,192,65537,1,0,0:0:0:0:
256,192,65752,1,8,0:0:0:0:
256,192,66180,1,8,0:0:0:0:
256,192,66287,1,8,0:0:0:0:
256,192,66394,1,8,0:0:0:0:
256,192,66609,1,0,0:0:0:0:
256,192,67037,1,8,0:0:0:0:
256,192,67252,1,8,0:0:0:0:
256,192,67359,1,8,0:0:0:0:
256,192,67466,1,8,0:0:0:0:
256,192,67680,1,0,0:0:0:0:
256,192,67894,1,0,0:0:0:0:
256,192,68002,1,0,0:0:0:0:
256,192,68109,1,0,0:0:0:0:
256,192,68323,1,8,0:0:0:0:
256,192,68752,1,0,0:0:0:0:
256,192,68966,1,8,0:0:0:0:
256,192,69180,1,0,0:0:0:0:
256,192,69395,1,8,0:0:0:0:
256,192,69609,1,8,0:0:0:0:
256,192,70466,1,12,0:0:0:0:
256,192,70680,1,0,0:0:0:0:
256,192,70787,1,0,0:0:0:0:
256,192,70894,1,0,0:0:0:0:
256,192,71109,1,8,0:0:0:0:
256,192,71323,1,0,0:0:0:0:
256,192,71430,1,0,0:0:0:0:
256,192,71537,1,0,0:0:0:0:
256,192,71752,1,8,0:0:0:0:
256,192,72180,1,8,0:0:0:0:
256,192,72287,1,8,0:0:0:0:
256,192,72394,1,8,0:0:0:0:
256,192,72609,1,0,0:0:0:0:
256,192,73037,1,0,0:0:0:0:
256,192,73144,1,0,0:0:0:0:
256,192,73251,1,0,0:0:0:0:
256,192,73466,1,8,0:0:0:0:
256,192,73894,1,0,0:0:0:0:
256,192,74109,1,8,0:0:0:0:
256,192,74216,1,8,0:0:0:0:
256,192,74323,1,8,0:0:0:0:
256,192,74537,1,8,0:0:0:0:
256,192,74751,1,0,0:0:0:0:
256,192,74859,1,0,0:0:0:0:
256,192,74966,1,0,0:0:0:0:
256,192,75180,1,0,0:0:0:0:
256,192,75395,1,8,0:0:0:0:
256,192,75502,1,8,0:0:0:0:
256,192,75609,1,8,0:0:0:0:
256,192,75823,1,8,0:0:0:0:
256,192,76037,1,0,0:0:0:0:
256,192,76251,1,0,0:0:0:0:
256,192,76466,1,8,0:0:0:0:
256,192,77323,1,8,0:0:0:0:
256,192,77537,1,0,0:0:0:0:
256,192,77644,1,0,0:0:0:0:
256,192,77751,1,0,0:0:0:0:
256,192,77966,1,8,0:0:0:0:
256,192,78180,1,8,0:0:0:0:
256,192,78287,1,8,0:0:0:0:
256,192,78394,1,8,0:0:0:0:
256,192,78608,1,0,0:0:0:0:
256,192,79037,1,8,0:0:0:0:
256,192,79144,1,8,0:0:0:0:
256,192,79251,1,8,0:0:0:0:
256,192,79466,1,0,0:0:0:0:
256,192,79894,1,0,0:0:0:0:
256,192,80001,1,0,0:0:0:0:
256,192,80108,1,0,0:0:0:0:
256,192,80323,1,8,0:0:0:0:
256,192,80752,1,8,0:0:0:0:
256,192,80966,1,0,0:0:0:0:
256,192,81073,1,0,0:0:0:0:
256,192,81180,1,0,0:0:0:0:
256,192,81394,1,8,0:0:0:0:
256,192,81608,1,8,0:0:0:0:
256,192,81716,1,8,0:0:0:0:
256,192,81823,1,8,0:0:0:0:
256,192,82037,1,0,0:0:0:0:
256,192,82466,1,0,0:0:0:0:
256,192,82680,1,8,0:0:0:0:
256,192,82894,1,0,0:0:0:0:
256,192,83109,1,8,0:0:0:0:
256,192,83323,1,0,0:0:0:0:
256,192,83752,1,8,0:0:0:0:
256,192,84180,1,4,0:0:0:0:
256,192,84823,1,8,0:0:0:0:
256,192,85037,1,0,0:0:0:0:
256,192,85145,1,0,0:0:0:0:
256,192,85252,1,0,0:0:0:0:
256,192,85466,1,8,0:0:0:0:
256,192,85680,1,8,0:0:0:0:
256,192,85895,1,0,0:0:0:0:
256,192,86324,1,0,0:0:0:0:
256,192,86752,1,8,0:0:0:0:
256,192,86860,1,8,0:0:0:0:
256,192,86967,1,8,0:0:0:0:
256,192,87180,1,0,0:0:0:0:
256,192,87609,1,8,0:0:0:0:
256,192,87716,1,8,0:0:0:0:
256,192,87823,1,8,0:0:0:0:
256,192,88038,1,0,0:0:0:0:
256,192,88252,1,8,0:0:0:0:
256,192,88466,1,0,0:0:0:0:
256,192,88895,1,0,0:0:0:0:
256,192,89109,1,8,0:0:0:0:
256,192,89216,1,8,0:0:0:0:
256,192,89323,1,8,0:0:0:0:
256,192,89752,1,8,0:0:0:0:
256,192,90180,1,0,0:0:0:0:
256,192,90395,1,8,0:0:0:0:
256,192,90609,1,0,0:0:0:0:
256,192,90823,1,8,0:0:0:0:
