osu file format v14

[General]
AudioFilename: audio.mp3
AudioLeadIn: 0
PreviewTime:42930
Countdown: 0
SampleSet: Normal
StackLeniency: 0.7
Mode: 1
LetterboxInBreaks: 0
WidescreenStoryboard: 1

[Editor]
Bookmarks: 8752,13895,15609,22466,29323,36180,43037,49895,56752,63609,70394,70466,77323,84180,91037,98752
DistanceSpacing: 1.6
BeatDivisor: 4
GridSize: 32
TimelineZoom: 1.6

[Metadata]
Title:Dovregubben's Hall (Cut Ver.)
TitleUnicode:Dovregubben's Hall (Cut Ver.)
Artist:cYsmix
ArtistUnicode:cYsmix
Creator:Shmiklak
Version:Nozdormu's Inner Oni
Source:osu!
Tags:marvollo m_a_r_v_o_l_l_o Tachibana_ nozdormu iredi featured artist fa mappers' guild dance in the of mountain king Edvard Edward Grieg instrumental electronic classical remix Peer Gynt Op. 23 mpg edm electro house
BeatmapID:4479019
BeatmapSetID:1203041

[Difficulty]
HPDrainRate:5
CircleSize:4
OverallDifficulty:6.5
ApproachRate:8
SliderMultiplier:1.4
SliderTickRate:1

[Events]
//Background and Video events
0,0,"bg.jpg",0,50
//Break Periods
2,43237,49145
//Storyboard Layer 0 (Background)
//Storyboard Layer 1 (Fail)
//Storyboard Layer 2 (Pass)
//Storyboard Layer 3 (Foreground)
//Storyboard Layer 4 (Overlay)
//Storyboard Sound Samples

[TimingPoints]
1895,428.571428571429,4,1,0,75,1,0
8742,-100,4,1,0,75,0,0
8849,-99.5676243585081,4,1,0,75,0,0
8956,-99.1389715941096,4,1,0,76,0,0
9063,-98.7139938303754,4,1,0,76,0,0
9170,-98.2926440082974,4,1,0,76,0,0
9385,-97.4567891468576,4,1,0,77,0,0
9492,-97.0460811343048,4,1,0,77,0,0
9599,-96.6388202533631,4,1,0,78,0,0
9706,-96.2349632869864,4,1,0,78,0,0
9813,-95.8344677375442,4,1,0,78,0,0
10027,-86.9565217391304,4,1,0,79,0,0
10099,-87.9837568448902,4,1,0,79,0,0
10170,-89.0207715133531,4,1,0,79,0,0
10242,-90.0976583009556,4,1,0,80,0,0
10349,-91.7470433499433,4,1,0,80,0,0
10456,-93.4579439252336,4,1,0,80,0,0
10670,-92.7431496537188,4,1,0,81,0,0
10777,-92.3711340206186,4,1,0,81,0,0
10885,-91.9986558637942,4,1,0,82,0,0
10992,-91.6325771662328,4,1,0,82,0,0
11099,-91.2694003037375,4,1,0,82,0,0
11313,-90.5516151556356,4,1,0,83,0,0
11420,-90.1969397466872,4,1,0,83,0,0
11527,-89.845031905196,4,1,0,83,0,0
11742,-81.9672131147541,4,1,0,84,0,0
11813,-82.8686493184634,4,1,0,84,0,0
11885,-83.8032581453634,4,1,0,85,0,0
11956,-84.7457627118644,4,1,0,85,0,0
12063,-86.2068965517241,4,1,0,85,0,0
12170,-87.719298245614,4,1,0,86,0,0
12385,-87.1194710603543,4,1,0,86,0,0
12492,-86.7911236350828,4,1,0,86,0,0
12599,-86.4652419552935,4,1,0,87,0,0
12706,-86.1417983498811,4,1,0,87,0,0
12813,-85.8207655602382,4,1,0,87,0,0
13027,-85.1858254105445,4,1,0,88,0,0
13135,-85.0340136054422,4,1,0,88,0,0
13242,-84.557309540151,4,1,0,89,0,0
13349,-84.2479570554245,4,1,0,89,0,0
13456,-83.9408598487429,4,1,0,89,0,0
13563,-83.6359933471369,4,1,0,90,0,0
13670,-83.3333333333333,4,1,0,90,0,0
13787,-62.5,4,1,0,60,0,0
15502,-111.111111111111,4,1,0,70,0,0
21706,-108.695652173913,4,1,0,70,0,0
21813,-106.382978723404,4,1,0,70,0,0
21920,-104.166666666667,4,1,0,70,0,0
22027,-102.040816326531,4,1,0,70,0,0
22252,-95.2380952380952,4,1,0,80,0,0
28456,-93.7515195720885,4,1,0,80,0,0
28563,-92.3106387053529,4,1,0,80,0,0
28670,-90.9133776583204,4,1,0,80,0,0
28777,-89.5577852099591,4,1,0,80,0,0
28885,-88.2299103056928,4,1,0,80,0,0
29099,-85.7117453543167,4,1,0,80,0,0
29206,-84.5058075827307,4,1,0,80,0,0
29313,-83.3333333333333,4,1,0,90,0,0
41527,-84.7440867020014,4,1,0,90,0,0
41635,-85.4743477220139,4,1,0,90,0,0
41742,-86.2103653629487,4,1,0,90,0,0
41849,-86.9591687636984,4,1,0,90,0,0
41956,-87.7210940058958,4,1,0,90,0,0
42063,-88.4964890541099,4,1,0,90,0,0
42170,-89.2857142857143,4,1,0,90,0,0
42385,-90.9148773656963,4,1,0,90,0,0
42492,-91.7480301473107,4,1,0,90,0,0
42599,-92.5965943469617,4,1,0,90,0,0
42706,-93.4610015704066,4,1,0,90,0,0
42813,-94.3416996917658,4,1,0,90,0,0
42930,-83.3333333333333,4,1,0,70,0,0
43027,-96.1538461538461,4,1,0,70,0,0
43252,-117.647058823529,4,1,0,50,0,0
46252,-111.111111111111,4,1,0,50,0,0
47966,-105.263157894737,4,1,0,50,0,0
49680,-100,4,1,0,75,0,0
53216,-100,4,1,0,75,0,0
53527,-98.6858265782363,4,1,0,75,0,0
53635,-98.0356271351879,4,1,0,76,0,0
53742,-97.3998424146918,4,1,0,76,0,0
53956,-96.152695506492,4,1,0,77,0,0
54170,-94.9370827671767,4,1,0,77,0,0
54277,-94.3407303040977,4,1,0,78,0,0
54385,-93.7463539843659,4,1,0,78,0,0
54492,-93.1648211490521,4,1,0,79,0,0
54599,-92.590458631021,4,1,0,79,0,0
54813,-91.4627205463859,4,1,0,80,0,0
54920,-90.9090909090909,4,1,0,80,0,0
54984,-62.5,4,1,0,60,0,0
56430,-68.9655172413793,4,1,0,80,0,0
56645,-76.9230769230769,4,1,0,90,0,0
56752,-76.9230769230769,4,1,0,90,0,1
83420,-78.123575634925,4,1,0,90,0,1
83527,-79.3621395366066,4,1,0,90,0,1
83742,-81.9734853557286,4,1,0,90,0,1
83849,-83.3381955384406,4,1,0,90,0,1
83956,-84.74911493048,4,1,0,90,0,1
84063,-86.2086309224424,4,1,0,90,0,1
84170,-87.719298245614,4,1,0,90,0,1
84180,-87.719298245614,4,1,0,90,0,0
84395,-100,4,1,0,75,0,0
89216,-62.5,4,1,0,60,0,0
90823,-100,4,1,0,60,0,0

[HitObjects]
179,142,1466,5,12,0:0:0:0:
179,142,1895,1,8,0:0:0:0:
179,142,2002,1,0,0:0:0:0:
179,142,2109,1,8,0:0:0:0:
179,142,2323,1,0,0:0:0:0:
179,142,2537,1,0,0:0:0:0:
179,142,2752,1,8,0:0:0:0:
179,142,2859,1,8,0:0:0:0:
179,142,2966,1,0,0:0:0:0:
179,142,3073,1,0,0:0:0:0:
179,142,3180,1,8,0:0:0:0:
179,142,3395,1,8,0:0:0:0:
179,142,3609,1,0,0:0:0:0:
182,146,3930,1,0,0:0:0:0:
176,146,4037,1,8,0:0:0:0:
179,142,4252,1,8,0:0:0:0:
179,142,4466,1,0,0:0:0:0:
179,142,4573,1,0,0:0:0:0:
182,146,4680,1,8,0:0:0:0:
182,146,4787,1,8,0:0:0:0:
175,144,4895,1,0,0:0:0:0:
179,142,5109,1,8,0:0:0:0:
169,144,5323,1,0,0:0:0:0:
179,142,5537,1,0,0:0:0:0:
182,146,5645,1,8,0:0:0:0:
168,142,5752,1,0,0:0:0:0:
175,146,5966,1,8,0:0:0:0:
176,142,6180,1,0,0:0:0:0:
181,147,6287,1,8,0:0:0:0:
179,142,6395,1,0,0:0:0:0:
179,142,6502,1,0,0:0:0:0:
182,146,6609,1,8,0:0:0:0:
175,146,6823,1,8,0:0:0:0:
175,146,7037,1,0,0:0:0:0:
174,144,7359,1,0,0:0:0:0:
179,142,7466,1,8,0:0:0:0:
175,146,7680,1,8,0:0:0:0:
175,146,7895,1,0,0:0:0:0:
175,146,8002,1,0,0:0:0:0:
174,144,8109,1,0,0:0:0:0:
174,144,8216,1,0,0:0:0:0:
174,144,8323,1,8,0:0:0:0:
175,146,8537,1,8,0:0:0:0:
175,146,8752,1,0,0:0:0:0:
175,146,8859,1,0,0:0:0:0:
175,146,8966,1,8,0:0:0:0:
174,144,9073,1,0,0:0:0:0:
174,144,9180,1,8,0:0:0:0:
175,146,9395,1,8,0:0:0:0:
175,146,9502,1,0,0:0:0:0:
175,146,9609,1,0,0:0:0:0:
175,146,9716,1,0,0:0:0:0:
182,147,9823,1,8,0:0:0:0:
174,144,10037,1,8,0:0:0:0:
174,144,10109,1,8,0:0:0:0:
174,144,10180,1,8,0:0:0:0:
175,146,10252,1,0,0:0:0:0:
175,146,10359,1,0,0:0:0:0:
175,146,10466,1,8,0:0:0:0:
175,146,10680,1,8,0:0:0:0:
182,147,10787,1,8,0:0:0:0:
174,144,10895,1,0,0:0:0:0:
174,144,11002,1,8,0:0:0:0:
174,144,11109,1,8,0:0:0:0:
175,146,11323,1,0,0:0:0:0:
175,146,11430,1,8,0:0:0:0:
175,146,11537,1,0,0:0:0:0:
176,145,11752,1,8,0:0:0:0:
176,145,11823,1,8,0:0:0:0:
174,144,11895,1,8,0:0:0:0:
174,144,11966,1,0,0:0:0:0:
174,144,12073,1,0,0:0:0:0:
175,146,12180,1,8,0:0:0:0:
175,146,12395,1,0,0:0:0:0:
175,146,12502,1,8,0:0:0:0:
176,145,12609,1,0,0:0:0:0:
176,145,12716,1,0,0:0:0:0:
176,145,12823,1,8,0:0:0:0:
174,144,13037,1,8,0:0:0:0:
174,144,13145,1,0,0:0:0:0:
175,146,13252,1,8,0:0:0:0:
175,146,13359,1,0,0:0:0:0:
175,146,13466,1,8,0:0:0:0:
176,145,13573,1,8,0:0:0:0:
176,145,13680,1,0,0:0:0:0:
256,192,13895,12,8,15395,0:0:0:0:
195,150,15609,5,12,0:0:0:0:
195,150,15823,1,0,0:0:0:0:
195,150,16037,1,8,0:0:0:0:
195,150,16145,1,8,0:0:0:0:
195,150,16466,1,0,0:0:0:0:
195,150,16573,1,0,0:0:0:0:
195,150,16680,1,8,0:0:0:0:
195,150,16787,1,8,0:0:0:0:
195,150,16895,1,0,0:0:0:0:
195,150,17109,1,0,0:0:0:0:
195,150,17323,1,8,0:0:0:0:
195,150,17537,1,8,0:0:0:0:
195,150,17645,1,8,0:0:0:0:
195,150,17752,1,0,0:0:0:0:
195,150,17859,1,8,0:0:0:0:
195,150,18180,1,0,0:0:0:0:
195,150,18287,1,0,0:0:0:0:
195,150,18395,1,8,0:0:0:0:
195,150,18502,1,8,0:0:0:0:
195,150,18609,1,0,0:0:0:0:
195,150,18823,1,0,0:0:0:0:
202,151,19037,1,8,0:0:0:0:
202,151,19252,1,8,0:0:0:0:
202,150,19466,1,0,0:0:0:0:
202,150,19573,1,0,0:0:0:0:
196,142,19895,1,8,0:0:0:0:
202,151,20002,1,8,0:0:0:0:
202,151,20109,1,0,0:0:0:0:
202,151,20216,1,0,0:0:0:0:
202,150,20323,1,8,0:0:0:0:
202,150,20537,1,8,0:0:0:0:
199,152,20752,1,4,0:0:0:0:
202,151,20966,1,8,0:0:0:0:
202,151,21180,1,0,0:0:0:0:
202,150,21287,1,8,0:0:0:0:
199,152,21609,1,8,0:0:0:0:
199,152,21716,1,0,0:0:0:0:
202,151,21823,1,0,0:0:0:0:
202,151,21930,1,0,0:0:0:0:
194,148,22037,1,12,0:0:0:0:
199,152,22466,1,0,0:0:0:0:
199,152,22573,1,8,0:0:0:0:
202,156,22680,1,0,0:0:0:0:
194,161,22895,1,0,0:0:0:0:
199,152,23109,1,8,0:0:0:0:
201,158,23323,1,0,0:0:0:0:
201,158,23430,1,0,0:0:0:0:
204,155,23537,1,8,0:0:0:0:
202,156,23645,1,8,0:0:0:0:
201,158,23752,1,0,0:0:0:0:
202,157,23966,1,8,0:0:0:0:
201,160,24073,1,0,0:0:0:0:
201,158,24180,1,8,0:0:0:0:
201,158,24287,1,8,0:0:0:0:
201,158,24395,1,0,0:0:0:0:
202,156,24609,1,0,0:0:0:0:
202,157,24823,1,8,0:0:0:0:
201,158,25037,1,0,0:0:0:0:
201,158,25145,1,8,0:0:0:0:
205,156,25252,1,0,0:0:0:0:
201,158,25359,1,0,0:0:0:0:
204,155,25466,1,8,0:0:0:0:
202,157,25680,1,0,0:0:0:0:
207,162,25787,1,8,0:0:0:0:
206,160,25895,1,0,0:0:0:0:
207,164,26109,1,8,0:0:0:0:
206,165,26216,1,8,0:0:0:0:
209,157,26323,1,0,0:0:0:0:
208,160,26537,1,8,0:0:0:0:
207,162,26752,1,0,0:0:0:0:
206,160,26859,1,0,0:0:0:0:
207,164,26966,1,0,0:0:0:0:
207,164,27073,1,0,0:0:0:0:
198,163,27180,1,8,0:0:0:0:
208,160,27395,1,8,0:0:0:0:
208,160,27502,1,8,0:0:0:0:
209,157,27609,1,0,0:0:0:0:
211,152,27823,1,8,0:0:0:0:
215,151,28037,1,0,0:0:0:0:
215,151,28145,1,8,0:0:0:0:
197,149,28359,1,8,0:0:0:0:
197,149,28466,1,0,0:0:0:0:
199,146,28573,1,0,0:0:0:0:
199,146,28680,1,8,0:0:0:0:
202,148,28787,1,8,0:0:0:0:
196,147,28895,1,4,0:0:0:0:
194,148,29109,1,0,0:0:0:0:
197,149,29216,1,0,0:0:0:0:
197,149,29323,1,12,0:0:0:0:
200,152,29537,1,8,0:0:0:0:
199,152,29645,1,8,0:0:0:0:
202,148,29752,1,0,0:0:0:0:
202,151,29859,1,8,0:0:0:0:
201,150,30073,1,8,0:0:0:0:
204,150,30180,1,0,0:0:0:0:
211,147,30287,1,0,0:0:0:0:
205,145,30395,1,8,0:0:0:0:
200,152,30502,1,0,0:0:0:0:
205,148,30609,1,8,0:0:0:0:
202,151,30823,1,8,0:0:0:0:
201,150,30930,1,8,0:0:0:0:
196,154,31037,1,0,0:0:0:0:
200,145,31252,1,0,0:0:0:0:
205,145,31359,1,0,0:0:0:0:
200,145,31466,1,0,0:0:0:0:
195,146,31573,1,8,0:0:0:0:
196,146,31787,1,8,0:0:0:0:
201,150,31895,1,0,0:0:0:0:
205,149,32002,1,8,0:0:0:0:
200,145,32109,1,0,0:0:0:0:
200,145,32216,1,0,0:0:0:0:
191,142,32323,1,8,0:0:0:0:
195,146,32537,1,8,0:0:0:0:
196,146,32645,1,8,0:0:0:0:
191,138,32752,1,0,0:0:0:0:
195,143,32859,1,8,0:0:0:0:
197,144,32966,1,0,0:0:0:0:
200,145,33180,1,0,0:0:0:0:
199,142,33287,1,8,0:0:0:0:
201,143,33502,1,8,0:0:0:0:
196,146,33609,1,0,0:0:0:0:
200,147,33716,1,0,0:0:0:0:
203,147,33823,1,8,0:0:0:0:
204,147,33930,1,8,0:0:0:0:
200,145,34037,1,0,0:0:0:0:
199,142,34252,1,0,0:0:0:0:
201,143,34359,1,8,0:0:0:0:
201,143,34466,1,0,0:0:0:0:
202,146,34573,1,0,0:0:0:0:
200,147,34680,1,8,0:0:0:0:
197,141,34895,1,8,0:0:0:0:
200,145,35002,1,0,0:0:0:0:
199,142,35216,1,0,0:0:0:0:
201,143,35323,1,8,0:0:0:0:
201,143,35430,1,0,0:0:0:0:
202,146,35537,1,8,0:0:0:0:
200,147,35645,1,8,0:0:0:0:
206,141,35752,1,4,0:0:0:0:
200,145,35966,1,0,0:0:0:0:
201,147,36180,1,8,0:0:0:0:
201,143,36395,1,8,0:0:0:0:
202,146,36502,1,8,0:0:0:0:
200,147,36609,1,0,0:0:0:0:
206,141,36716,1,8,0:0:0:0:
201,147,36930,1,8,0:0:0:0:
201,147,37037,1,0,0:0:0:0:
201,147,37145,1,0,0:0:0:0:
201,143,37252,1,8,0:0:0:0:
205,147,37359,1,0,0:0:0:0:
217,146,37466,1,8,0:0:0:0:
206,141,37680,1,0,0:0:0:0:
211,146,37787,1,8,0:0:0:0:
211,146,37895,1,0,0:0:0:0:
215,144,38109,1,8,0:0:0:0:
214,151,38216,1,0,0:0:0:0:
211,151,38323,1,8,0:0:0:0:
211,151,38430,1,8,0:0:0:0:
216,150,38645,1,8,0:0:0:0:
214,151,38752,1,0,0:0:0:0:
214,151,38859,1,0,0:0:0:0:
213,154,38966,1,8,0:0:0:0:
213,153,39073,1,8,0:0:0:0:
214,151,39180,1,0,0:0:0:0:
226,154,39395,1,0,0:0:0:0:
216,150,39502,1,8,0:0:0:0:
221,151,39609,1,0,0:0:0:0:
221,151,39716,1,0,0:0:0:0:
220,153,39823,1,8,0:0:0:0:
213,153,40037,1,8,0:0:0:0:
214,151,40145,1,0,0:0:0:0:
221,149,40359,1,0,0:0:0:0:
210,148,40466,1,8,0:0:0:0:
221,151,40573,1,0,0:0:0:0:
211,150,40680,1,8,0:0:0:0:
211,150,40787,1,8,0:0:0:0:
206,151,40895,1,0,0:0:0:0:
214,151,41109,1,0,0:0:0:0:
217,153,41216,1,0,0:0:0:0:
221,149,41323,1,8,0:0:0:0:
221,151,41537,1,8,0:0:0:0:
219,152,41645,1,8,0:0:0:0:
220,151,41752,1,0,0:0:0:0:
220,149,41859,1,8,0:0:0:0:
214,151,41966,1,0,0:0:0:0:
214,151,42073,1,0,0:0:0:0:
219,147,42180,1,8,0:0:0:0:
212,152,42395,1,0,0:0:0:0:
221,151,42502,1,8,0:0:0:0:
219,152,42609,1,8,0:0:0:0:
220,151,42716,1,8,0:0:0:0:
213,149,42823,1,0,0:0:0:0:
214,151,43037,1,8,0:0:0:0:
186,143,49895,5,8,0:0:0:0:
180,141,50109,1,0,0:0:0:0:
180,141,50216,1,0,0:0:0:0:
175,141,50323,1,8,0:0:0:0:
171,139,50537,1,0,0:0:0:0:
172,141,50752,1,8,0:0:0:0:
172,141,50859,1,8,0:0:0:0:
172,140,50966,1,8,0:0:0:0:
172,140,51073,1,8,0:0:0:0:
171,142,51180,1,0,0:0:0:0:
171,139,51395,1,0,0:0:0:0:
172,141,51609,1,8,0:0:0:0:
172,140,51930,1,8,0:0:0:0:
172,140,52037,1,0,0:0:0:0:
171,139,52252,1,8,0:0:0:0:
172,141,52466,1,0,0:0:0:0:
172,141,52573,1,0,0:0:0:0:
172,140,52680,1,0,0:0:0:0:
172,140,52787,1,0,0:0:0:0:
172,140,52895,1,8,0:0:0:0:
170,147,53109,1,8,0:0:0:0:
172,141,53323,1,0,0:0:0:0:
172,141,53537,1,0,0:0:0:0:
171,147,53645,1,8,0:0:0:0:
169,144,53752,1,0,0:0:0:0:
166,141,53966,1,8,0:0:0:0:
172,141,54180,1,0,0:0:0:0:
172,141,54287,1,0,0:0:0:0:
172,141,54395,1,8,0:0:0:0:
172,141,54502,1,8,0:0:0:0:
171,147,54609,1,0,0:0:0:0:
177,143,54823,1,8,0:0:0:0:
256,192,55037,12,8,56323,0:0:0:0:
145,145,56537,5,12,0:0:0:0:
145,145,56752,5,4,0:0:0:0:
145,145,56966,1,8,0:0:0:0:
145,145,57073,1,0,0:0:0:0:
145,145,57180,1,8,0:0:0:0:
145,145,57395,1,0,0:0:0:0:
145,145,57502,1,8,0:0:0:0:
145,145,57609,1,0,0:0:0:0:
145,145,57716,1,0,0:0:0:0:
145,145,57823,1,8,0:0:0:0:
145,145,57930,1,8,0:0:0:0:
145,145,58037,1,0,0:0:0:0:
145,145,58252,1,0,0:0:0:0:
145,145,58359,1,8,0:0:0:0:
145,145,58466,1,0,0:0:0:0:
145,145,58573,1,8,0:0:0:0:
145,145,58680,1,8,0:0:0:0:
145,145,58787,1,8,0:0:0:0:
145,145,58895,1,0,0:0:0:0:
145,145,59109,1,0,0:0:0:0:
145,145,59216,1,8,0:0:0:0:
145,145,59323,1,0,0:0:0:0:
139,146,59430,1,8,0:0:0:0:
139,146,59537,1,0,0:0:0:0:
139,146,59645,1,0,0:0:0:0:
137,150,59752,1,8,0:0:0:0:
145,145,59966,1,8,0:0:0:0:
145,145,60073,1,8,0:0:0:0:
145,145,60180,1,0,0:0:0:0:
139,146,60395,1,0,0:0:0:0:
139,146,60502,1,0,0:0:0:0:
139,146,60609,1,8,0:0:0:0:
137,142,60716,1,0,0:0:0:0:
138,147,60823,1,8,0:0:0:0:
138,147,60930,1,8,0:0:0:0:
145,145,61037,1,0,0:0:0:0:
139,146,61252,1,0,0:0:0:0:
139,146,61359,1,0,0:0:0:0:
139,146,61466,1,8,0:0:0:0:
139,146,61573,1,0,0:0:0:0:
141,146,61680,1,0,0:0:0:0:
138,147,61895,1,8,0:0:0:0:
136,148,62002,1,8,0:0:0:0:
138,152,62109,1,0,0:0:0:0:
138,152,62216,1,0,0:0:0:0:
139,146,62323,1,8,0:0:0:0:
142,154,62537,1,8,0:0:0:0:
138,147,62752,1,0,0:0:0:0:
138,147,62859,1,0,0:0:0:0:
136,148,62966,1,0,0:0:0:0:
138,152,63180,1,8,0:0:0:0:
139,146,63287,1,8,0:0:0:0:
136,146,63395,1,8,0:0:0:0:
136,146,63502,1,8,0:0:0:0:
138,147,63609,1,0,0:0:0:0:
138,147,63823,1,0,0:0:0:0:
136,148,63930,1,8,0:0:0:0:
138,145,64037,1,0,0:0:0:0:
139,146,64252,1,8,0:0:0:0:
136,146,64359,1,0,0:0:0:0:
136,146,64466,1,8,0:0:0:0:
138,147,64573,1,8,0:0:0:0:
138,147,64680,1,0,0:0:0:0:
138,147,64787,1,0,0:0:0:0:
143,145,64895,1,8,0:0:0:0:
139,146,65109,1,8,0:0:0:0:
139,146,65216,1,0,0:0:0:0:
136,146,65323,1,8,0:0:0:0:
141,148,65430,1,0,0:0:0:0:
138,147,65537,1,0,0:0:0:0:
138,147,65645,1,0,0:0:0:0:
138,147,65752,1,8,0:0:0:0:
139,146,65966,1,8,0:0:0:0:
139,146,66073,1,0,0:0:0:0:
139,146,66180,1,8,0:0:0:0:
147,146,66287,1,0,0:0:0:0:
133,148,66395,1,8,0:0:0:0:
138,147,66502,1,8,0:0:0:0:
151,148,66609,1,0,0:0:0:0:
146,145,66823,1,0,0:0:0:0:
146,145,66930,1,0,0:0:0:0:
147,144,67037,1,8,0:0:0:0:
147,146,67252,1,8,0:0:0:0:
147,144,67359,1,8,0:0:0:0:
148,144,67466,1,0,0:0:0:0:
145,143,67573,1,8,0:0:0:0:
146,145,67680,1,8,0:0:0:0:
146,145,67787,1,8,0:0:0:0:
146,145,67895,1,0,0:0:0:0:
147,146,68109,1,0,0:0:0:0:
141,144,68216,1,8,0:0:0:0:
147,144,68323,1,0,0:0:0:0:
148,144,68430,1,0,0:0:0:0:
145,143,68537,1,8,0:0:0:0:
146,145,68752,1,0,0:0:0:0:
146,145,68859,1,0,0:0:0:0:
147,146,68966,1,8,0:0:0:0:
147,146,69073,1,8,0:0:0:0:
141,144,69180,1,0,0:0:0:0:
148,144,69395,1,0,0:0:0:0:
146,145,69609,1,8,0:0:0:0:
146,145,69716,1,8,0:0:0:0:
146,145,69823,1,8,0:0:0:0:
147,146,70037,1,0,0:0:0:0:
148,144,70252,1,0,0:0:0:0:
148,144,70359,1,0,0:0:0:0:
146,145,70466,1,12,0:0:0:0:
146,145,70680,1,8,0:0:0:0:
146,145,70787,1,0,0:0:0:0:
147,146,70895,1,8,0:0:0:0:
148,144,71109,1,0,0:0:0:0:
148,144,71216,1,0,0:0:0:0:
148,144,71323,1,8,0:0:0:0:
146,145,71430,1,0,0:0:0:0:
146,145,71537,1,8,0:0:0:0:
146,145,71645,1,8,0:0:0:0:
146,145,71752,1,0,0:0:0:0:
148,144,71966,1,0,0:0:0:0:
148,144,72073,1,0,0:0:0:0:
148,144,72180,1,8,0:0:0:0:
148,144,72287,1,8,0:0:0:0:
146,145,72395,1,0,0:0:0:0:
146,145,72502,1,8,0:0:0:0:
146,145,72609,1,0,0:0:0:0:
148,144,72823,1,0,0:0:0:0:
148,144,72930,1,0,0:0:0:0:
148,144,73037,1,8,0:0:0:0:
148,144,73145,1,0,0:0:0:0:
148,144,73252,1,0,0:0:0:0:
146,145,73359,1,0,0:0:0:0:
156,144,73466,1,8,0:0:0:0:
148,144,73680,1,8,0:0:0:0:
148,144,73787,1,8,0:0:0:0:
154,142,73895,1,0,0:0:0:0:
157,142,74109,1,0,0:0:0:0:
155,139,74216,1,8,0:0:0:0:
142,139,74323,1,0,0:0:0:0:
156,144,74430,1,8,0:0:0:0:
148,144,74537,1,0,0:0:0:0:
148,144,74645,1,0,0:0:0:0:
141,137,74752,1,8,0:0:0:0:
142,143,74966,1,0,0:0:0:0:
146,140,75073,1,8,0:0:0:0:
143,140,75180,1,0,0:0:0:0:
142,139,75287,1,0,0:0:0:0:
145,145,75395,1,0,0:0:0:0:
143,140,75609,1,8,0:0:0:0:
141,137,75716,1,8,0:0:0:0:
150,140,75823,1,0,0:0:0:0:
150,140,75930,1,0,0:0:0:0:
153,140,76037,1,8,0:0:0:0:
149,140,76252,1,8,0:0:0:0:
153,139,76466,1,0,0:0:0:0:
153,138,76573,1,0,0:0:0:0:
153,138,76680,1,0,0:0:0:0:
146,133,76895,1,0,0:0:0:0:
149,140,77109,1,8,0:0:0:0:
149,140,77216,1,8,0:0:0:0:
143,139,77323,1,0,0:0:0:0:
153,138,77537,1,0,0:0:0:0:
153,143,77645,1,8,0:0:0:0:
142,146,77752,1,0,0:0:0:0:
149,140,77966,1,8,0:0:0:0:
149,140,78073,1,8,0:0:0:0:
141,141,78180,1,0,0:0:0:0:
152,144,78287,1,8,0:0:0:0:
146,146,78395,1,0,0:0:0:0:
146,146,78502,1,0,0:0:0:0:
140,142,78609,1,8,0:0:0:0:
145,147,78823,1,8,0:0:0:0:
145,147,78930,1,8,0:0:0:0:
145,147,79037,1,0,0:0:0:0:
145,147,79145,1,0,0:0:0:0:
145,149,79252,1,8,0:0:0:0:
141,152,79359,1,0,0:0:0:0:
148,151,79466,1,8,0:0:0:0:
151,150,79680,1,8,0:0:0:0:
151,150,79787,1,8,0:0:0:0:
148,152,79895,1,0,0:0:0:0:
156,148,80002,1,8,0:0:0:0:
156,148,80109,1,8,0:0:0:0:
156,148,80216,1,8,0:0:0:0:
159,152,80323,1,0,0:0:0:0:
158,152,80537,1,0,0:0:0:0:
158,152,80645,1,0,0:0:0:0:
151,150,80752,1,8,0:0:0:0:
156,148,80966,1,8,0:0:0:0:
151,151,81073,1,0,0:0:0:0:
156,148,81180,1,8,0:0:0:0:
142,148,81287,1,0,0:0:0:0:
143,148,81395,1,0,0:0:0:0:
143,148,81502,1,0,0:0:0:0:
149,144,81609,1,8,0:0:0:0:
147,146,81823,1,8,0:0:0:0:
147,147,81930,1,0,0:0:0:0:
143,142,82037,1,8,0:0:0:0:
143,142,82145,1,8,0:0:0:0:
142,148,82252,1,0,0:0:0:0:
143,148,82466,1,0,0:0:0:0:
143,149,82573,1,0,0:0:0:0:
147,146,82680,1,8,0:0:0:0:
147,146,82787,1,0,0:0:0:0:
154,148,82895,1,8,0:0:0:0:
154,146,83109,1,8,0:0:0:0:
149,147,83323,1,0,0:0:0:0:
149,147,83430,1,0,0:0:0:0:
149,146,83537,1,0,0:0:0:0:
147,146,83752,1,8,0:0:0:0:
148,145,83859,1,8,0:0:0:0:
148,145,83966,1,8,0:0:0:0:
148,145,84073,1,8,0:0:0:0:
143,147,84180,1,4,0:0:0:0:
152,147,84609,1,8,0:0:0:0:
148,145,84823,1,0,0:0:0:0:
148,145,85037,1,8,0:0:0:0:
148,145,85145,1,0,0:0:0:0:
145,142,85252,1,8,0:0:0:0:
152,147,85466,1,8,0:0:0:0:
152,147,85573,1,8,0:0:0:0:
153,149,85680,1,0,0:0:0:0:
153,149,85787,1,0,0:0:0:0:
156,147,85895,1,8,0:0:0:0:
158,151,86323,1,8,0:0:0:0:
154,153,86537,1,0,0:0:0:0:
153,149,86752,1,0,0:0:0:0:
154,152,86859,1,0,0:0:0:0:
147,156,86966,1,8,0:0:0:0:
158,151,87180,1,8,0:0:0:0:
158,151,87287,1,8,0:0:0:0:
154,153,87395,1,0,0:0:0:0:
154,153,87502,1,0,0:0:0:0:
157,150,87609,1,8,0:0:0:0:
154,152,87823,1,0,0:0:0:0:
158,151,88037,1,0,0:0:0:0:
154,153,88145,1,8,0:0:0:0:
153,155,88252,1,0,0:0:0:0:
148,152,88466,1,8,0:0:0:0:
148,147,88680,1,8,0:0:0:0:
145,151,88895,1,0,0:0:0:0:
148,151,89002,1,0,0:0:0:0:
153,155,89109,1,8,0:0:0:0:
256,192,89323,12,8,91037,0:0:0:0:
