osu file format v14

[General]
AudioFilename: cYsmix - Classic Pursuit.mp3
AudioLeadIn: 0
PreviewTime: 42805
Countdown: 0
SampleSet: Normal
StackLeniency: 0.7
Mode: 1
LetterboxInBreaks: 0
WidescreenStoryboard: 0

[Editor]
Bookmarks: 84055
DistanceSpacing: 1
BeatDivisor: 4
GridSize: 4
TimelineZoom: 3.100001

[Metadata]
Title:Classic Pursuit
TitleUnicode:Classic Pursuit
Artist:cYsmix
ArtistUnicode:cYsmix
Creator:Hanjamon
Version:Cursed Oni
Source:osu!
Tags:beatmapping contest featured artist
BeatmapID:817648
BeatmapSetID:373254

[Difficulty]
HPDrainRate:5.5
CircleSize:2
OverallDifficulty:6
ApproachRate:5
SliderMultiplier:1.6
SliderTickRate:1

[Events]
//Background and Video events
0,0,"osu!cysmix-bg-2.jpg",0,20
//Break Periods
//Storyboard Layer 0 (Background)
//Storyboard Layer 1 (Fail)
//Storyboard Layer 2 (Pass)
//Storyboard Layer 3 (Foreground)
//Storyboard Sound Samples

[TimingPoints]
1770,428.571428571429,4,1,0,100,1,0
15055,-98.0392156862745,4,1,0,100,0,0
15162,-96.1538461538461,4,1,0,100,0,0
15270,-94.3396226415094,4,1,0,100,0,0
15377,-92.5925925925926,4,1,0,100,0,0
15484,-90.9090909090909,4,1,0,100,0,0
21912,-89.2857142857143,4,1,0,100,0,0
22020,-87.719298245614,4,1,0,100,0,0
22127,-86.2068965517241,4,1,0,100,0,0
22234,-84.7457627118644,4,1,0,100,0,0
22341,-83.3333333333333,4,1,0,100,0,0
25770,-81.9672131147541,4,1,0,100,0,0
25984,-80.6451612903226,4,1,0,100,0,0
26198,-79.3650793650794,4,1,0,100,0,0
26412,-78.125,4,1,0,100,0,0
26627,-76.9230769230769,4,1,0,100,0,0
27270,-71.4285714285714,4,1,0,100,0,0
28770,-76.9230769230769,4,1,0,100,0,0
29198,-100,4,1,0,100,0,0
40770,-71.4285714285714,4,1,0,100,0,0
42912,-71.4285714285714,4,1,0,100,0,1
56198,-71.4285714285714,4,1,0,100,0,0
56627,-111.111111111111,4,1,0,100,0,0
59627,-108.695652173913,4,1,0,100,0,0
59734,-106.382978723404,4,1,0,100,0,0
59787,-105.263157894737,4,1,0,100,0,0
59841,-104.166666666667,4,1,0,100,0,0
59948,-102.040816326531,4,1,0,100,0,0
60055,-100,4,1,0,100,0,0
63055,-98.0392156862745,4,1,0,100,0,0
63162,-96.1538461538461,4,1,0,100,0,0
63216,-95.2380952380952,4,1,0,100,0,0
63270,-94.3396226415094,4,1,0,100,0,0
63377,-92.5925925925926,4,1,0,100,0,0
63484,-90.9090909090909,4,1,0,100,0,0
66484,-89.2857142857143,4,1,0,100,0,0
66591,-87.719298245614,4,1,0,100,0,0
66645,-86.9565217391304,4,1,0,100,0,0
66698,-86.2068965517241,4,1,0,100,0,0
66805,-84.7457627118644,4,1,0,100,0,0
66912,-83.3333333333333,4,1,0,100,0,0
67127,-79.3650793650794,4,1,0,100,0,0
67341,-75.187969924812,4,1,0,100,0,0
67555,-71.4285714285714,4,1,0,100,0,0
69055,-76.9230769230769,4,1,0,100,0,0
70341,-80,4,1,0,100,0,0
83734,-80.6451612903226,4,1,0,100,0,0
83787,-81.3008130081301,4,1,0,100,0,0
83841,-81.9672131147541,4,1,0,100,0,0
83948,-82.6446280991736,4,1,0,100,0,0
84055,-83.3333333333333,4,1,0,100,0,0
94341,-81.9672131147541,4,1,0,100,0,0
94555,-80.6451612903226,4,1,0,100,0,0
94770,-79.3650793650794,4,1,0,100,0,0
94984,-78.125,4,1,0,100,0,0
95198,-76.9230769230769,4,1,0,100,0,0
96055,-71.4285714285714,4,1,0,100,0,0
97341,-76.9230769230769,4,1,0,100,0,0
97770,-100,4,1,0,100,0,0
109341,-71.4285714285714,4,1,0,100,0,0
111484,-71.4285714285714,4,1,0,100,0,1
124770,-71.4285714285714,4,1,0,100,0,0
125198,-100,4,1,0,100,0,0
125412,-98.0392156862745,4,1,0,100,0,0
125841,-96.1538461538461,4,1,0,100,0,0
126270,-94.3396226415094,4,1,0,100,0,0
126698,-92.5925925925926,4,1,0,100,0,0
127127,-90.9090909090909,4,1,0,100,0,0
127555,-89.2857142857143,4,1,0,100,0,0
127984,-87.719298245614,4,1,0,100,0,0
128412,-86.2068965517241,4,1,0,100,0,0
128841,-87.719298245614,4,1,0,100,0,0
129270,-89.2857142857143,4,1,0,100,0,0
129698,-90.9090909090909,4,1,0,100,0,0
130127,-92.5925925925926,4,1,0,100,0,0
130555,-94.3396226415094,4,1,0,100,0,0
130984,-96.1538461538461,4,1,0,100,0,0
131412,-98.0392156862745,4,1,0,100,0,0
131841,-100,4,1,0,100,0,0
132270,-99.009900990099,4,1,0,100,0,0
132698,-98.0392156862745,4,1,0,100,0,0
133127,-97.0873786407767,4,1,0,100,0,0
133555,-96.1538461538461,4,1,0,100,0,0
133984,-95.2380952380952,4,1,0,100,0,0
134412,-94.3396226415094,4,1,0,100,0,0
134841,-93.4579439252336,4,1,0,100,0,0
135270,-92.5925925925926,4,1,0,100,0,0
135698,-93.4579439252336,4,1,0,100,0,0
136127,-94.3396226415094,4,1,0,100,0,0
136555,-95.2380952380952,4,1,0,100,0,0
136984,-96.1538461538461,4,1,0,100,0,0
137412,-97.0873786407767,4,1,0,100,0,0
137841,-98.0392156862745,4,1,0,100,0,0
138270,-99.009900990099,4,1,0,100,0,0
138698,-100,4,1,0,100,0,0
141055,428.571428571429,4,1,0,100,1,0

[HitObjects]
312,184,1341,5,0,0:0:0:0:
312,184,1448,1,0,0:0:0:0:
276,168,1770,1,4,0:0:0:0:
276,168,1984,1,0,0:0:0:0:
276,168,2091,1,0,0:0:0:0:
276,168,2198,1,8,0:0:0:0:
276,168,2412,1,8,0:0:0:0:
388,148,2520,1,0,0:0:0:0:
252,152,2627,1,0,0:0:0:0:
252,152,2841,1,8,0:0:0:0:
252,152,2948,1,0,0:0:0:0:
252,152,3055,1,8,0:0:0:0:
252,136,3162,1,0,0:0:0:0:
252,152,3270,1,8,0:0:0:0:
224,148,3377,1,8,0:0:0:0:
388,148,3484,1,0,0:0:0:0:
308,120,3698,1,8,0:0:0:0:
308,120,3805,1,0,0:0:0:0:
308,120,3912,1,8,0:0:0:0:
308,120,4127,1,8,0:0:0:0:
308,120,4234,1,8,0:0:0:0:
308,120,4341,1,0,0:0:0:0:
308,120,4555,1,8,0:0:0:0:
308,120,4662,1,0,0:0:0:0:
308,120,4770,1,8,0:0:0:0:
308,120,4877,1,0,0:0:0:0:
308,120,4984,1,8,0:0:0:0:
308,120,5091,1,8,0:0:0:0:
308,120,5198,1,0,0:0:0:0:
308,120,5412,1,0,0:0:0:0:
308,120,5520,1,0,0:0:0:0:
308,120,5627,1,8,0:0:0:0:
308,120,5841,1,8,0:0:0:0:
308,120,5948,1,0,0:0:0:0:
308,120,6055,1,0,0:0:0:0:
308,120,6270,1,8,0:0:0:0:
308,120,6377,1,0,0:0:0:0:
308,120,6484,1,8,0:0:0:0:
308,120,6591,1,0,0:0:0:0:
308,120,6698,1,8,0:0:0:0:
308,120,6805,1,8,0:0:0:0:
308,120,6912,1,0,0:0:0:0:
308,120,7127,1,8,0:0:0:0:
308,120,7234,1,0,0:0:0:0:
308,120,7341,1,8,0:0:0:0:
308,120,7555,1,8,0:0:0:0:
308,120,7662,1,8,0:0:0:0:
308,120,7770,1,0,0:0:0:0:
308,120,7984,1,8,0:0:0:0:
308,120,8091,1,0,0:0:0:0:
308,120,8198,1,8,0:0:0:0:
308,120,8305,1,0,0:0:0:0:
308,120,8412,1,8,0:0:0:0:
308,120,8520,1,8,0:0:0:0:
308,120,8627,1,0,0:0:0:0:
304,120,8841,1,0,0:0:0:0:
304,120,8948,1,0,0:0:0:0:
304,120,9055,1,8,0:0:0:0:
304,120,9270,1,8,0:0:0:0:
304,120,9377,1,0,0:0:0:0:
304,120,9484,1,0,0:0:0:0:
304,120,9698,1,8,0:0:0:0:
304,120,9805,1,0,0:0:0:0:
304,120,9912,1,8,0:0:0:0:
304,120,10020,1,0,0:0:0:0:
304,120,10127,1,8,0:0:0:0:
304,120,10234,1,8,0:0:0:0:
304,120,10341,1,0,0:0:0:0:
304,120,10555,1,8,0:0:0:0:
304,120,10662,1,0,0:0:0:0:
304,120,10770,1,8,0:0:0:0:
304,120,10984,1,8,0:0:0:0:
304,120,11091,1,8,0:0:0:0:
304,120,11198,1,0,0:0:0:0:
304,120,11412,1,8,0:0:0:0:
304,120,11520,1,0,0:0:0:0:
304,120,11627,1,8,0:0:0:0:
304,120,11734,1,0,0:0:0:0:
304,120,11841,1,8,0:0:0:0:
304,120,11948,1,8,0:0:0:0:
304,120,12055,1,0,0:0:0:0:
304,120,12270,1,0,0:0:0:0:
304,120,12377,1,0,0:0:0:0:
304,120,12484,1,8,0:0:0:0:
304,120,12698,1,8,0:0:0:0:
304,120,12805,1,0,0:0:0:0:
304,120,12912,1,0,0:0:0:0:
304,120,13127,1,8,0:0:0:0:
304,120,13234,1,0,0:0:0:0:
304,120,13341,1,8,0:0:0:0:
304,120,13448,1,0,0:0:0:0:
304,120,13555,1,8,0:0:0:0:
304,120,13662,1,8,0:0:0:0:
304,120,13770,1,0,0:0:0:0:
272,192,13984,1,8,0:0:0:0:
272,192,14091,1,0,0:0:0:0:
272,192,14198,1,8,0:0:0:0:
272,192,14412,1,8,0:0:0:0:
272,192,14520,1,8,0:0:0:0:
272,192,14627,1,0,0:0:0:0:
272,192,14841,1,8,0:0:0:0:
272,192,14948,1,0,0:0:0:0:
272,192,15055,1,8,0:0:0:0:
272,192,15162,1,0,0:0:0:0:
272,192,15270,1,8,0:0:0:0:
272,192,15377,1,8,0:0:0:0:
272,192,15484,1,0,0:0:0:0:
244,160,15698,1,0,0:0:0:0:
244,160,15805,1,0,0:0:0:0:
244,160,15912,1,8,0:0:0:0:
244,160,16020,1,0,0:0:0:0:
244,160,16127,1,8,0:0:0:0:
244,160,16234,1,0,0:0:0:0:
244,160,16341,1,0,0:0:0:0:
244,160,16555,1,8,0:0:0:0:
216,168,16609,1,0,0:0:0:0:
244,160,16662,1,0,0:0:0:0:
244,160,16770,1,8,0:0:0:0:
244,160,16877,1,0,0:0:0:0:
244,160,16984,1,8,0:0:0:0:
244,160,17091,1,8,0:0:0:0:
244,160,17198,1,0,0:0:0:0:
244,160,17412,1,8,0:0:0:0:
244,160,17520,1,0,0:0:0:0:
244,160,17627,1,8,0:0:0:0:
244,160,17734,1,0,0:0:0:0:
244,160,17841,1,8,0:0:0:0:
244,160,17948,1,8,0:0:0:0:
244,160,18055,1,0,0:0:0:0:
244,160,18270,1,8,0:0:0:0:
216,168,18323,1,8,0:0:0:0:
216,168,18377,1,0,0:0:0:0:
244,160,18484,1,8,0:0:0:0:
244,160,18591,1,0,0:0:0:0:
244,160,18698,1,8,0:0:0:0:
244,160,18805,1,8,0:0:0:0:
244,160,18912,1,0,0:0:0:0:
244,160,19127,1,0,0:0:0:0:
244,160,19234,1,0,0:0:0:0:
244,160,19341,1,8,0:0:0:0:
244,160,19448,1,0,0:0:0:0:
244,160,19555,1,8,0:0:0:0:
244,160,19662,1,0,0:0:0:0:
244,160,19770,1,0,0:0:0:0:
244,160,19984,1,8,0:0:0:0:
240,112,20037,1,0,0:0:0:0:
244,160,20091,1,0,0:0:0:0:
244,160,20198,1,8,0:0:0:0:
244,160,20305,1,0,0:0:0:0:
244,160,20412,1,8,0:0:0:0:
244,160,20520,1,8,0:0:0:0:
244,160,20627,1,0,0:0:0:0:
244,160,20841,1,8,0:0:0:0:
244,160,20948,1,0,0:0:0:0:
244,160,21055,1,8,0:0:0:0:
244,160,21162,1,0,0:0:0:0:
244,160,21270,1,8,0:0:0:0:
244,160,21377,1,8,0:0:0:0:
244,160,21484,1,0,0:0:0:0:
244,160,21698,1,8,0:0:0:0:
240,116,21752,1,8,0:0:0:0:
244,160,21805,1,0,0:0:0:0:
244,160,21912,1,8,0:0:0:0:
244,160,22020,1,0,0:0:0:0:
244,160,22127,1,8,0:0:0:0:
244,160,22234,1,8,0:0:0:0:
244,160,22341,1,4,0:0:0:0:
272,152,22555,1,0,0:0:0:0:
272,152,22662,1,0,0:0:0:0:
272,152,22770,1,8,0:0:0:0:
272,152,22877,1,0,0:0:0:0:
272,152,22984,1,8,0:0:0:0:
272,152,23091,1,0,0:0:0:0:
272,152,23198,1,0,0:0:0:0:
272,152,23412,1,8,0:0:0:0:
136,156,23466,1,0,0:0:0:0:
272,152,23520,1,0,0:0:0:0:
272,152,23627,1,8,0:0:0:0:
272,152,23734,1,0,0:0:0:0:
176,168,23787,1,0,0:0:0:0:
272,152,23841,1,8,0:0:0:0:
272,152,23948,1,8,0:0:0:0:
272,152,24055,1,4,0:0:0:0:
272,152,24270,1,8,0:0:0:0:
272,152,24377,1,0,0:0:0:0:
272,152,24484,1,8,0:0:0:0:
272,152,24591,1,0,0:0:0:0:
272,152,24698,1,8,0:0:0:0:
272,152,24805,1,8,0:0:0:0:
272,152,24912,1,0,0:0:0:0:
240,168,25127,1,8,0:0:0:0:
344,212,25180,1,8,0:0:0:0:
272,152,25234,1,0,0:0:0:0:
272,152,25341,1,8,0:0:0:0:
272,152,25448,1,0,0:0:0:0:
344,212,25502,1,0,0:0:0:0:
272,152,25555,1,8,0:0:0:0:
272,152,25662,1,0,0:0:0:0:
280,212,25770,1,8,0:0:0:0:
280,212,25984,1,8,0:0:0:0:
284,216,26198,1,8,0:0:0:0:
284,216,26412,1,8,0:0:0:0:
284,216,26627,1,0,0:0:0:0:
284,216,26734,1,8,0:0:0:0:
284,216,26841,1,0,0:0:0:0:
284,216,26948,1,0,0:0:0:0:
284,216,27055,1,8,0:0:0:0:
284,216,27270,1,0,0:0:0:0:
284,216,27377,1,0,0:0:0:0:
284,216,27484,1,8,0:0:0:0:
284,216,27591,1,8,0:0:0:0:
284,216,27698,1,0,0:0:0:0:
284,216,27805,1,8,0:0:0:0:
284,216,27912,1,4,0:0:0:0:
284,216,28127,1,12,0:0:0:0:
284,216,28341,1,4,0:0:0:0:
256,144,28770,1,12,0:0:0:0:
408,256,29198,1,4,0:0:0:0:
408,256,29412,1,8,0:0:0:0:
408,256,29520,1,8,0:0:0:0:
408,256,29627,1,0,0:0:0:0:
408,256,29841,1,8,0:0:0:0:
408,256,30055,1,0,0:0:0:0:
408,256,30270,1,8,0:0:0:0:
408,256,30377,1,8,0:0:0:0:
408,256,30484,1,0,0:0:0:0:
408,256,30698,1,8,0:0:0:0:
408,256,30912,1,0,0:0:0:0:
408,256,31127,1,8,0:0:0:0:
408,256,31234,1,8,0:0:0:0:
408,256,31341,1,0,0:0:0:0:
408,256,31555,1,8,0:0:0:0:
408,256,31662,1,0,0:0:0:0:
408,256,31770,1,0,0:0:0:0:
356,232,31984,1,8,0:0:0:0:
356,232,32091,1,8,0:0:0:0:
356,232,32198,1,0,0:0:0:0:
356,232,32305,1,0,0:0:0:0:
356,232,32412,1,8,0:0:0:0:
356,232,32520,1,8,0:0:0:0:
356,232,32627,1,0,0:0:0:0:
132,152,32841,1,8,0:0:0:0:
232,156,33055,1,0,0:0:0:0:
232,156,33162,1,0,0:0:0:0:
232,156,33270,1,8,0:0:0:0:
232,156,33377,1,8,0:0:0:0:
232,156,33484,1,0,0:0:0:0:
232,156,33591,1,0,0:0:0:0:
232,156,33698,1,8,0:0:0:0:
232,156,33805,1,8,0:0:0:0:
232,156,33912,1,0,0:0:0:0:
232,156,34020,1,0,0:0:0:0:
232,156,34127,1,8,0:0:0:0:
232,156,34234,1,8,0:0:0:0:
232,156,34341,1,0,0:0:0:0:
272,164,34448,1,0,0:0:0:0:
272,164,34555,1,0,0:0:0:0:
272,164,34662,1,0,0:0:0:0:
272,164,34770,1,8,0:0:0:0:
272,164,34984,1,8,0:0:0:0:
272,164,35091,1,8,0:0:0:0:
272,164,35198,1,0,0:0:0:0:
272,164,35412,1,8,0:0:0:0:
272,164,35520,1,8,0:0:0:0:
272,164,35627,1,0,0:0:0:0:
272,164,35734,1,0,0:0:0:0:
272,164,35841,1,8,0:0:0:0:
272,164,36055,1,0,0:0:0:0:
328,160,36270,1,0,0:0:0:0:
328,160,36377,1,0,0:0:0:0:
328,160,36484,1,8,0:0:0:0:
328,160,36698,1,8,0:0:0:0:
328,160,36912,1,0,0:0:0:0:
328,160,37127,1,0,0:0:0:0:
328,160,37234,1,0,0:0:0:0:
328,160,37341,1,8,0:0:0:0:
328,160,37555,1,8,0:0:0:0:
292,168,37662,1,8,0:0:0:0:
328,160,37770,1,0,0:0:0:0:
328,160,37984,1,0,0:0:0:0:
316,112,38091,1,0,0:0:0:0:
316,112,38198,1,8,0:0:0:0:
316,112,38412,1,8,0:0:0:0:
316,112,38520,1,0,0:0:0:0:
316,112,38627,1,0,0:0:0:0:
316,112,38841,1,8,0:0:0:0:
316,112,39055,1,8,0:0:0:0:
316,112,39162,1,0,0:0:0:0:
316,112,39270,1,8,0:0:0:0:
316,112,39377,1,8,0:0:0:0:
316,112,39484,1,0,0:0:0:0:
352,192,40770,1,8,0:0:0:0:
352,192,40823,1,8,0:0:0:0:
352,192,40877,1,8,0:0:0:0:
352,192,40930,1,8,0:0:0:0:
352,192,40984,1,0,0:0:0:0:
352,192,41091,1,8,0:0:0:0:
352,192,41145,1,8,0:0:0:0:
352,192,41198,1,0,0:0:0:0:
224,136,41305,1,0,0:0:0:0:
224,136,41412,1,12,0:0:0:0:
296,104,41627,1,12,0:0:0:0:
296,104,41841,1,4,0:0:0:0:
296,104,42055,1,12,0:0:0:0:
296,104,42270,1,0,0:0:0:0:
392,200,42377,1,0,0:0:0:0:
296,104,42484,1,12,0:0:0:0:
336,184,42698,1,0,0:0:0:0:
336,184,42805,1,8,0:0:0:0:
336,184,42912,1,0,0:0:0:0:
440,280,43127,1,8,0:0:0:0:
440,280,43234,1,0,0:0:0:0:
440,280,43341,1,8,0:0:0:0:
332,212,43555,1,0,0:0:0:0:
332,212,43662,1,8,0:0:0:0:
332,212,43770,1,0,0:0:0:0:
332,212,43984,1,8,0:0:0:0:
332,212,44198,1,8,0:0:0:0:
332,212,44305,1,8,0:0:0:0:
332,212,44412,1,0,0:0:0:0:
228,152,44520,1,8,0:0:0:0:
332,212,44627,1,0,0:0:0:0:
332,212,44841,1,0,0:0:0:0:
332,212,44948,1,8,0:0:0:0:
332,212,45055,1,8,0:0:0:0:
332,212,45162,1,0,0:0:0:0:
332,212,45377,1,8,0:0:0:0:
332,212,45484,1,0,0:0:0:0:
280,176,45698,1,8,0:0:0:0:
356,188,45912,1,8,0:0:0:0:
356,188,46020,1,0,0:0:0:0:
356,188,46127,1,8,0:0:0:0:
356,188,46234,1,8,0:0:0:0:
356,188,46341,1,0,0:0:0:0:
356,188,46555,1,8,0:0:0:0:
356,188,46662,1,0,0:0:0:0:
356,188,46770,1,8,0:0:0:0:
356,188,46984,1,0,0:0:0:0:
356,188,47091,1,8,0:0:0:0:
276,208,47198,1,0,0:0:0:0:
276,208,47412,1,8,0:0:0:0:
276,208,47627,1,8,0:0:0:0:
276,208,47734,1,8,0:0:0:0:
276,208,47841,1,0,0:0:0:0:
276,208,47948,1,8,0:0:0:0:
276,208,48055,1,0,0:0:0:0:
292,180,48270,1,0,0:0:0:0:
292,180,48377,1,8,0:0:0:0:
292,180,48484,1,8,0:0:0:0:
292,180,48591,1,0,0:0:0:0:
292,180,48805,1,8,0:0:0:0:
292,180,48912,1,0,0:0:0:0:
308,160,49127,1,8,0:0:0:0:
308,160,49341,1,8,0:0:0:0:
308,160,49448,1,0,0:0:0:0:
308,160,49555,1,8,0:0:0:0:
308,160,49662,1,8,0:0:0:0:
308,160,49770,1,0,0:0:0:0:
308,160,49984,1,8,0:0:0:0:
308,160,50091,1,0,0:0:0:0:
308,160,50198,1,8,0:0:0:0:
308,160,50412,1,0,0:0:0:0:
308,160,50520,1,8,0:0:0:0:
308,160,50627,1,0,0:0:0:0:
308,160,50841,1,8,0:0:0:0:
308,160,51055,1,8,0:0:0:0:
308,160,51162,1,8,0:0:0:0:
308,160,51270,1,0,0:0:0:0:
308,160,51377,1,8,0:0:0:0:
308,160,51484,1,0,0:0:0:0:
308,160,51698,1,0,0:0:0:0:
308,160,51805,1,8,0:0:0:0:
308,160,51912,1,8,0:0:0:0:
308,160,52020,1,0,0:0:0:0:
308,160,52234,1,8,0:0:0:0:
236,148,52341,1,0,0:0:0:0:
236,148,52555,1,8,0:0:0:0:
236,148,52770,1,8,0:0:0:0:
236,148,52877,1,0,0:0:0:0:
236,148,52984,1,8,0:0:0:0:
236,148,53091,1,8,0:0:0:0:
236,148,53198,1,0,0:0:0:0:
268,148,53412,1,8,0:0:0:0:
268,148,53520,1,0,0:0:0:0:
268,148,53627,1,8,0:0:0:0:
268,148,53841,1,0,0:0:0:0:
268,148,53948,5,8,0:0:0:0:
268,148,54055,1,0,0:0:0:0:
276,168,54270,1,8,0:0:0:0:
276,168,54484,1,8,0:0:0:0:
276,168,54591,1,8,0:0:0:0:
276,168,54698,1,0,0:0:0:0:
276,168,54805,1,8,0:0:0:0:
288,148,54912,5,0,0:0:0:0:
344,212,55127,1,0,0:0:0:0:
344,212,55234,1,8,0:0:0:0:
248,152,55341,1,8,0:0:0:0:
248,152,55395,1,8,0:0:0:0:
228,164,55448,1,0,0:0:0:0:
248,152,55502,1,0,0:0:0:0:
248,152,55555,1,0,0:0:0:0:
320,152,55662,1,8,0:0:0:0:
320,152,55770,1,0,0:0:0:0:
332,152,55984,1,0,0:0:0:0:
332,152,56091,1,0,0:0:0:0:
332,152,56198,1,12,0:0:0:0:
352,176,56627,1,0,0:0:0:0:
352,176,56841,1,8,0:0:0:0:
352,176,57055,1,0,0:0:0:0:
352,176,57270,1,0,0:0:0:0:
352,176,57377,1,8,0:0:0:0:
376,296,57484,1,0,0:0:0:0:
332,248,57591,1,8,0:0:0:0:
332,248,57805,1,8,0:0:0:0:
332,248,58020,1,0,0:0:0:0:
332,248,58127,1,8,0:0:0:0:
352,188,58341,1,0,0:0:0:0:
396,248,58448,1,0,0:0:0:0:
396,248,58555,1,8,0:0:0:0:
396,248,58662,1,0,0:0:0:0:
396,248,58770,1,8,0:0:0:0:
396,248,58877,1,8,0:0:0:0:
192,160,58984,1,0,0:0:0:0:
192,160,59037,1,0,0:0:0:0:
192,160,59091,1,8,0:0:0:0:
396,248,59198,1,0,0:0:0:0:
396,248,59305,1,8,0:0:0:0:
336,176,59412,1,0,0:0:0:0:
396,248,59520,1,8,0:0:0:0:
316,212,59627,1,8,0:0:0:0:
336,176,59734,1,0,0:0:0:0:
336,176,59787,1,0,0:0:0:0:
336,176,59841,1,8,0:0:0:0:
336,176,59948,1,8,0:0:0:0:
336,176,60055,1,0,0:0:0:0:
240,156,60270,1,8,0:0:0:0:
240,156,60484,1,0,0:0:0:0:
240,156,60698,1,0,0:0:0:0:
240,156,60805,1,8,0:0:0:0:
240,156,60912,1,0,0:0:0:0:
240,156,61020,1,8,0:0:0:0:
240,156,61234,1,8,0:0:0:0:
240,156,61448,1,0,0:0:0:0:
240,156,61555,1,8,0:0:0:0:
288,144,61770,1,0,0:0:0:0:
284,148,61877,1,0,0:0:0:0:
284,148,61984,1,8,0:0:0:0:
284,148,62091,1,0,0:0:0:0:
284,148,62198,1,8,0:0:0:0:
284,148,62305,1,8,0:0:0:0:
284,148,62412,1,0,0:0:0:0:
232,156,62466,1,0,0:0:0:0:
284,148,62520,1,8,0:0:0:0:
284,148,62627,1,0,0:0:0:0:
284,148,62734,1,8,0:0:0:0:
284,148,62841,1,0,0:0:0:0:
284,148,62948,1,8,0:0:0:0:
284,148,63055,1,8,0:0:0:0:
284,148,63162,1,0,0:0:0:0:
232,156,63216,1,0,0:0:0:0:
284,148,63270,1,8,0:0:0:0:
284,148,63377,1,8,0:0:0:0:
284,148,63484,1,0,0:0:0:0:
284,148,63698,1,8,0:0:0:0:
284,148,63912,1,0,0:0:0:0:
284,148,64127,1,0,0:0:0:0:
248,156,64234,1,8,0:0:0:0:
320,128,64341,1,0,0:0:0:0:
320,128,64448,1,8,0:0:0:0:
320,128,64662,1,8,0:0:0:0:
320,128,64877,1,0,0:0:0:0:
320,128,64984,1,8,0:0:0:0:
320,128,65198,1,0,0:0:0:0:
320,128,65305,1,0,0:0:0:0:
320,128,65412,1,8,0:0:0:0:
320,128,65520,1,0,0:0:0:0:
320,128,65627,1,8,0:0:0:0:
320,128,65734,1,8,0:0:0:0:
320,128,65841,1,0,0:0:0:0:
292,152,65895,1,0,0:0:0:0:
320,128,65948,1,8,0:0:0:0:
320,128,66055,1,0,0:0:0:0:
320,128,66162,1,8,0:0:0:0:
320,128,66270,1,0,0:0:0:0:
320,128,66377,1,8,0:0:0:0:
320,128,66484,1,8,0:0:0:0:
320,128,66591,1,0,0:0:0:0:
292,152,66645,1,0,0:0:0:0:
320,128,66698,1,8,0:0:0:0:
320,128,66805,1,0,0:0:0:0:
320,128,66912,1,8,0:0:0:0:
272,124,67127,1,8,0:0:0:0:
272,124,67341,1,8,0:0:0:0:
272,124,67555,1,8,0:0:0:0:
272,124,67662,1,0,0:0:0:0:
256,144,67770,1,8,0:0:0:0:
256,144,67823,1,8,0:0:0:0:
256,144,67877,1,8,0:0:0:0:
256,144,67930,1,8,0:0:0:0:
256,144,67984,1,0,0:0:0:0:
256,144,68091,1,0,0:0:0:0:
256,144,68198,1,8,0:0:0:0:
256,144,68252,1,8,0:0:0:0:
256,144,68305,1,8,0:0:0:0:
256,144,68359,1,8,0:0:0:0:
256,144,68412,1,0,0:0:0:0:
256,144,68520,1,8,0:0:0:0:
256,144,68573,1,8,0:0:0:0:
256,144,68627,1,0,0:0:0:0:
264,176,69055,1,4,0:0:0:0:
264,176,69270,1,8,0:0:0:0:
276,152,69484,1,0,0:0:0:0:
276,152,69555,1,8,0:0:0:0:
276,152,69627,1,8,0:0:0:0:
276,152,69698,1,0,0:0:0:0:
360,160,69805,1,0,0:0:0:0:
360,160,69912,1,12,0:0:0:0:
352,168,70341,1,0,0:0:0:0:
268,136,70448,1,8,0:0:0:0:
196,152,70555,1,8,0:0:0:0:
196,152,70662,1,0,0:0:0:0:
196,152,70770,1,8,0:0:0:0:
196,152,70984,1,0,0:0:0:0:
248,120,71091,1,8,0:0:0:0:
368,184,71198,1,0,0:0:0:0:
240,160,71412,1,0,0:0:0:0:
240,160,71466,1,8,0:0:0:0:
240,188,71520,1,0,0:0:0:0:
240,188,71627,1,8,0:0:0:0:
240,188,71734,1,0,0:0:0:0:
240,188,71841,1,8,0:0:0:0:
240,188,71948,1,8,0:0:0:0:
240,188,72055,1,0,0:0:0:0:
256,156,72270,5,8,0:0:0:0:
256,156,72377,1,0,0:0:0:0:
256,156,72484,1,8,0:0:0:0:
288,160,72698,1,8,0:0:0:0:
288,160,72805,1,8,0:0:0:0:
288,160,72912,1,0,0:0:0:0:
284,160,73127,1,0,0:0:0:0:
320,160,73180,1,0,0:0:0:0:
284,160,73234,1,0,0:0:0:0:
284,160,73341,1,8,0:0:0:0:
284,160,73448,1,0,0:0:0:0:
284,160,73555,1,8,0:0:0:0:
284,160,73662,1,8,0:0:0:0:
284,160,73770,1,0,0:0:0:0:
284,160,73877,1,8,0:0:0:0:
284,160,73984,1,8,0:0:0:0:
284,160,74091,1,0,0:0:0:0:
284,160,74198,1,8,0:0:0:0:
284,160,74412,1,0,0:0:0:0:
284,160,74520,1,8,0:0:0:0:
284,160,74627,1,0,0:0:0:0:
284,160,74841,1,0,0:0:0:0:
252,152,74895,1,8,0:0:0:0:
224,148,74948,1,0,0:0:0:0:
284,160,75055,1,8,0:0:0:0:
284,160,75162,1,0,0:0:0:0:
284,160,75270,1,8,0:0:0:0:
284,160,75377,1,8,0:0:0:0:
284,160,75484,1,0,0:0:0:0:
284,160,75698,1,8,0:0:0:0:
284,160,75805,1,0,0:0:0:0:
284,160,75912,1,8,0:0:0:0:
284,160,76127,1,8,0:0:0:0:
284,160,76234,1,8,0:0:0:0:
284,160,76341,1,0,0:0:0:0:
284,160,76555,1,0,0:0:0:0:
296,168,76609,1,0,0:0:0:0:
284,160,76662,1,0,0:0:0:0:
284,160,76770,1,8,0:0:0:0:
284,160,76877,1,0,0:0:0:0:
284,160,76984,1,8,0:0:0:0:
284,160,77091,1,8,0:0:0:0:
284,160,77198,1,0,0:0:0:0:
344,128,77305,1,8,0:0:0:0:
344,128,77412,1,8,0:0:0:0:
344,128,77520,1,0,0:0:0:0:
240,156,77627,1,8,0:0:0:0:
196,152,77841,1,0,0:0:0:0:
248,120,77948,1,8,0:0:0:0:
368,184,78055,1,0,0:0:0:0:
240,160,78270,1,0,0:0:0:0:
240,160,78323,1,8,0:0:0:0:
240,188,78377,1,0,0:0:0:0:
240,188,78484,1,8,0:0:0:0:
240,188,78591,1,0,0:0:0:0:
268,144,78645,1,0,0:0:0:0:
240,188,78698,1,8,0:0:0:0:
240,188,78805,1,8,0:0:0:0:
240,188,78912,1,0,0:0:0:0:
256,156,79127,5,8,0:0:0:0:
256,156,79234,1,0,0:0:0:0:
256,156,79341,1,8,0:0:0:0:
288,160,79555,1,8,0:0:0:0:
288,160,79662,1,8,0:0:0:0:
288,160,79770,1,0,0:0:0:0:
284,160,79984,1,0,0:0:0:0:
320,160,80037,1,0,0:0:0:0:
284,160,80091,1,0,0:0:0:0:
284,160,80198,1,8,0:0:0:0:
284,160,80305,1,0,0:0:0:0:
332,128,80359,1,0,0:0:0:0:
284,160,80412,1,8,0:0:0:0:
284,160,80520,1,8,0:0:0:0:
284,160,80627,1,0,0:0:0:0:
284,160,80734,1,8,0:0:0:0:
284,160,80841,1,8,0:0:0:0:
284,160,80948,1,0,0:0:0:0:
284,160,81055,1,8,0:0:0:0:
284,160,81270,1,0,0:0:0:0:
284,160,81377,1,8,0:0:0:0:
284,160,81484,1,0,0:0:0:0:
284,160,81698,1,0,0:0:0:0:
252,152,81752,1,8,0:0:0:0:
224,148,81805,1,0,0:0:0:0:
284,160,81912,1,8,0:0:0:0:
252,152,82020,1,0,0:0:0:0:
284,160,82073,1,0,0:0:0:0:
284,160,82127,1,8,0:0:0:0:
284,160,82234,1,8,0:0:0:0:
284,160,82341,1,0,0:0:0:0:
284,160,82555,1,8,0:0:0:0:
284,160,82662,1,0,0:0:0:0:
284,160,82770,1,8,0:0:0:0:
284,160,82984,5,8,0:0:0:0:
284,160,83091,1,8,0:0:0:0:
284,160,83198,1,0,0:0:0:0:
284,160,83412,1,0,0:0:0:0:
296,168,83466,1,0,0:0:0:0:
284,160,83520,1,0,0:0:0:0:
284,160,83627,1,8,0:0:0:0:
284,160,83734,1,0,0:0:0:0:
296,168,83787,1,0,0:0:0:0:
284,160,83841,1,8,0:0:0:0:
284,160,83948,1,8,0:0:0:0:
284,160,84055,1,0,0:0:0:0:
276,168,84162,1,0,0:0:0:0:
264,212,84270,1,8,0:0:0:0:
260,76,84377,1,0,0:0:0:0:
264,212,84484,1,8,0:0:0:0:
264,212,84698,1,8,0:0:0:0:
264,212,84912,1,0,0:0:0:0:
300,236,85020,1,0,0:0:0:0:
300,236,85127,1,8,0:0:0:0:
400,232,85234,1,8,0:0:0:0:
300,236,85341,1,8,0:0:0:0:
300,236,85555,1,8,0:0:0:0:
372,220,85662,1,8,0:0:0:0:
300,236,85770,1,0,0:0:0:0:
300,236,85984,1,0,0:0:0:0:
408,248,86091,1,0,0:0:0:0:
300,236,86198,1,8,0:0:0:0:
300,236,86412,1,8,0:0:0:0:
320,176,86520,1,8,0:0:0:0:
300,236,86627,1,0,0:0:0:0:
300,236,86841,1,0,0:0:0:0:
296,168,86948,1,0,0:0:0:0:
280,160,87055,1,8,0:0:0:0:
300,236,87270,1,8,0:0:0:0:
236,168,87377,1,0,0:0:0:0:
300,236,87484,1,0,0:0:0:0:
272,128,87591,1,8,0:0:0:0:
300,236,87698,1,0,0:0:0:0:
300,236,87805,1,0,0:0:0:0:
300,236,87912,1,8,0:0:0:0:
300,236,88127,1,8,0:0:0:0:
300,236,88341,1,0,0:0:0:0:
300,236,88448,1,8,0:0:0:0:
300,236,88555,1,8,0:0:0:0:
300,236,88662,1,0,0:0:0:0:
300,236,88770,1,8,0:0:0:0:
248,140,88984,1,8,0:0:0:0:
248,140,89091,1,0,0:0:0:0:
248,140,89198,1,0,0:0:0:0:
248,140,89412,1,0,0:0:0:0:
248,140,89520,1,0,0:0:0:0:
248,140,89627,1,8,0:0:0:0:
248,140,89841,1,8,0:0:0:0:
248,140,89948,1,0,0:0:0:0:
248,140,90055,1,0,0:0:0:0:
248,140,90270,1,0,0:0:0:0:
248,140,90377,1,0,0:0:0:0:
248,140,90484,1,8,0:0:0:0:
248,140,90698,1,8,0:0:0:0:
212,140,90805,1,8,0:0:0:0:
248,140,90912,1,0,0:0:0:0:
248,140,91020,1,0,0:0:0:0:
248,140,91127,1,8,0:0:0:0:
248,140,91234,1,0,0:0:0:0:
248,140,91341,1,8,0:0:0:0:
248,140,91555,1,8,0:0:0:0:
248,140,91770,1,0,0:0:0:0:
248,140,91877,1,0,0:0:0:0:
248,140,91984,1,8,0:0:0:0:
248,140,92091,1,8,0:0:0:0:
248,140,92198,1,8,0:0:0:0:
248,140,92412,1,8,0:0:0:0:
248,140,92520,1,8,0:0:0:0:
248,140,92627,1,0,0:0:0:0:
248,140,92841,1,0,0:0:0:0:
248,140,92948,1,0,0:0:0:0:
248,140,93055,1,8,0:0:0:0:
248,140,93270,5,8,0:0:0:0:
248,140,93377,1,8,0:0:0:0:
248,140,93484,1,0,0:0:0:0:
248,140,93698,1,0,0:0:0:0:
248,140,93805,1,0,0:0:0:0:
248,140,93912,1,8,0:0:0:0:
288,144,94127,1,8,0:0:0:0:
292,156,94234,1,0,0:0:0:0:
284,168,94341,5,8,0:0:0:0:
368,144,94555,1,8,0:0:0:0:
368,144,94770,1,8,0:0:0:0:
368,144,94984,1,8,0:0:0:0:
344,144,95198,1,8,0:0:0:0:
344,144,95252,1,8,0:0:0:0:
344,144,95305,1,8,0:0:0:0:
344,144,95359,1,8,0:0:0:0:
344,144,95412,1,0,0:0:0:0:
352,136,95520,1,0,0:0:0:0:
352,136,95627,1,8,0:0:0:0:
352,136,95680,1,8,0:0:0:0:
352,136,95734,1,8,0:0:0:0:
352,136,95787,1,8,0:0:0:0:
300,180,96055,1,8,0:0:0:0:
300,180,96162,1,8,0:0:0:0:
300,180,96270,1,0,0:0:0:0:
300,180,96377,1,8,0:0:0:0:
300,180,96484,1,4,0:0:0:0:
300,180,96698,1,12,0:0:0:0:
300,180,96912,1,4,0:0:0:0:
288,176,97341,1,12,0:0:0:0:
384,244,97770,1,0,0:0:0:0:
384,244,97984,1,8,0:0:0:0:
384,244,98091,1,0,0:0:0:0:
384,244,98198,1,8,0:0:0:0:
384,244,98412,1,8,0:0:0:0:
384,244,98627,1,0,0:0:0:0:
384,244,98734,1,0,0:0:0:0:
384,244,98841,1,8,0:0:0:0:
384,244,99055,1,8,0:0:0:0:
344,220,99162,1,8,0:0:0:0:
384,244,99270,1,0,0:0:0:0:
284,188,99377,1,8,0:0:0:0:
384,244,99484,1,0,0:0:0:0:
384,244,99698,1,0,0:0:0:0:
384,244,99805,1,0,0:0:0:0:
384,244,99912,1,8,0:0:0:0:
384,244,100127,1,8,0:0:0:0:
276,160,100234,1,0,0:0:0:0:
384,244,100341,1,0,0:0:0:0:
384,244,100448,1,8,0:0:0:0:
384,244,100555,1,8,0:0:0:0:
248,168,100770,1,8,0:0:0:0:
260,172,100877,1,0,0:0:0:0:
384,244,100984,1,8,0:0:0:0:
224,168,101091,1,8,0:0:0:0:
384,244,101198,1,0,0:0:0:0:
348,168,101412,1,8,0:0:0:0:
340,168,101520,1,0,0:0:0:0:
332,168,101627,1,8,0:0:0:0:
332,168,101841,1,8,0:0:0:0:
340,168,102055,1,0,0:0:0:0:
340,168,102162,1,0,0:0:0:0:
340,168,102270,1,8,0:0:0:0:
340,168,102484,1,8,0:0:0:0:
340,168,102591,1,8,0:0:0:0:
340,168,102698,1,0,0:0:0:0:
340,168,102805,1,8,0:0:0:0:
340,168,102912,1,0,0:0:0:0:
340,168,103127,1,0,0:0:0:0:
340,168,103234,1,0,0:0:0:0:
340,168,103341,1,8,0:0:0:0:
356,156,103555,1,8,0:0:0:0:
356,156,103662,1,0,0:0:0:0:
356,156,103770,1,0,0:0:0:0:
356,156,103877,1,8,0:0:0:0:
356,156,103984,1,8,0:0:0:0:
356,156,104198,1,8,0:0:0:0:
356,156,104305,1,0,0:0:0:0:
356,156,104412,1,8,0:0:0:0:
356,156,104520,1,8,0:0:0:0:
356,156,104627,1,0,0:0:0:0:
356,156,104841,1,8,0:0:0:0:
356,156,104948,1,0,0:0:0:0:
356,156,105055,1,8,0:0:0:0:
356,156,105270,1,8,0:0:0:0:
356,156,105484,1,0,0:0:0:0:
356,156,105591,1,0,0:0:0:0:
356,156,105698,1,8,0:0:0:0:
368,168,105805,1,0,0:0:0:0:
356,156,105912,1,8,0:0:0:0:
356,156,106020,1,8,0:0:0:0:
356,156,106127,1,0,0:0:0:0:
356,156,106234,1,8,0:0:0:0:
356,156,106341,1,0,0:0:0:0:
404,224,106555,1,0,0:0:0:0:
404,224,106662,1,0,0:0:0:0:
404,224,106770,1,8,0:0:0:0:
360,188,106984,5,8,0:0:0:0:
360,188,107091,1,0,0:0:0:0:
360,188,107198,1,0,0:0:0:0:
360,188,107305,1,8,0:0:0:0:
360,188,107412,1,8,0:0:0:0:
264,156,107520,1,0,0:0:0:0:
360,188,107627,1,8,0:0:0:0:
360,188,107734,1,0,0:0:0:0:
360,188,107841,1,8,0:0:0:0:
360,188,107948,1,8,0:0:0:0:
232,112,108055,5,0,0:0:0:0:
328,168,109341,1,8,0:0:0:0:
328,168,109395,1,8,0:0:0:0:
332,168,109448,1,8,0:0:0:0:
332,168,109502,1,8,0:0:0:0:
332,168,109555,1,0,0:0:0:0:
332,168,109662,1,8,0:0:0:0:
332,168,109716,1,8,0:0:0:0:
332,168,109770,1,0,0:0:0:0:
288,136,109912,1,8,0:0:0:0:
296,144,110055,1,8,0:0:0:0:
296,144,110198,1,8,0:0:0:0:
296,144,110341,1,0,0:0:0:0:
308,176,110412,1,8,0:0:0:0:
260,164,110627,1,12,0:0:0:0:
260,164,110841,1,0,0:0:0:0:
280,184,110948,1,0,0:0:0:0:
260,164,111055,1,12,0:0:0:0:
260,164,111270,1,0,0:0:0:0:
260,164,111377,1,8,0:0:0:0:
336,184,111484,1,0,0:0:0:0:
440,280,111698,1,8,0:0:0:0:
440,280,111805,1,0,0:0:0:0:
440,280,111912,1,8,0:0:0:0:
332,212,112127,1,0,0:0:0:0:
332,212,112234,1,8,0:0:0:0:
332,212,112341,1,0,0:0:0:0:
276,112,112448,1,0,0:0:0:0:
332,212,112555,1,8,0:0:0:0:
332,212,112770,1,8,0:0:0:0:
332,212,112877,1,8,0:0:0:0:
332,212,112984,1,0,0:0:0:0:
228,152,113091,1,8,0:0:0:0:
332,212,113198,1,0,0:0:0:0:
332,212,113412,1,0,0:0:0:0:
332,212,113520,1,8,0:0:0:0:
332,212,113627,1,8,0:0:0:0:
332,212,113734,1,0,0:0:0:0:
332,212,113948,1,8,0:0:0:0:
332,212,114055,1,0,0:0:0:0:
300,168,114162,1,0,0:0:0:0:
280,176,114270,1,8,0:0:0:0:
356,188,114484,1,8,0:0:0:0:
356,188,114591,1,0,0:0:0:0:
356,188,114698,1,8,0:0:0:0:
356,188,114805,1,8,0:0:0:0:
356,188,114912,1,0,0:0:0:0:
356,188,115127,1,8,0:0:0:0:
356,188,115234,1,0,0:0:0:0:
356,188,115341,1,8,0:0:0:0:
356,188,115555,1,0,0:0:0:0:
356,188,115662,1,8,0:0:0:0:
276,208,115770,1,0,0:0:0:0:
288,136,115877,1,0,0:0:0:0:
276,208,115984,1,8,0:0:0:0:
276,208,116198,1,8,0:0:0:0:
276,208,116305,1,8,0:0:0:0:
276,208,116412,1,0,0:0:0:0:
276,208,116520,1,8,0:0:0:0:
276,208,116627,1,0,0:0:0:0:
292,180,116841,1,0,0:0:0:0:
292,180,116948,1,8,0:0:0:0:
292,180,117055,1,8,0:0:0:0:
292,180,117162,1,0,0:0:0:0:
292,180,117377,1,8,0:0:0:0:
292,180,117484,1,0,0:0:0:0:
256,132,117591,1,0,0:0:0:0:
308,160,117698,1,8,0:0:0:0:
308,160,117912,1,8,0:0:0:0:
308,160,118020,1,0,0:0:0:0:
308,160,118127,1,8,0:0:0:0:
308,160,118234,1,8,0:0:0:0:
308,160,118341,1,0,0:0:0:0:
308,160,118555,1,8,0:0:0:0:
308,160,118662,1,0,0:0:0:0:
308,160,118770,1,8,0:0:0:0:
308,160,118984,1,0,0:0:0:0:
308,160,119091,1,8,0:0:0:0:
308,160,119198,1,0,0:0:0:0:
256,132,119305,1,0,0:0:0:0:
308,160,119412,1,8,0:0:0:0:
308,160,119627,1,8,0:0:0:0:
308,160,119734,1,8,0:0:0:0:
308,160,119841,1,0,0:0:0:0:
308,160,119948,1,8,0:0:0:0:
308,160,120055,1,0,0:0:0:0:
308,160,120270,1,0,0:0:0:0:
308,160,120377,1,8,0:0:0:0:
308,160,120484,1,8,0:0:0:0:
308,160,120591,1,0,0:0:0:0:
308,160,120805,1,8,0:0:0:0:
236,148,120912,1,0,0:0:0:0:
256,132,121020,1,0,0:0:0:0:
236,148,121127,1,8,0:0:0:0:
236,148,121341,1,8,0:0:0:0:
236,148,121448,1,0,0:0:0:0:
236,148,121555,1,8,0:0:0:0:
236,148,121662,1,8,0:0:0:0:
236,148,121770,1,0,0:0:0:0:
268,148,121984,1,8,0:0:0:0:
268,148,122091,1,0,0:0:0:0:
268,148,122198,1,8,0:0:0:0:
268,148,122412,1,0,0:0:0:0:
268,148,122520,5,8,0:0:0:0:
268,148,122627,1,0,0:0:0:0:
256,132,122734,1,0,0:0:0:0:
276,168,122841,1,8,0:0:0:0:
276,168,123055,1,8,0:0:0:0:
276,168,123162,1,8,0:0:0:0:
276,168,123270,1,0,0:0:0:0:
276,168,123377,1,8,0:0:0:0:
288,148,123484,5,0,0:0:0:0:
344,212,123698,1,0,0:0:0:0:
344,212,123805,1,8,0:0:0:0:
248,152,123912,1,8,0:0:0:0:
248,152,123966,1,8,0:0:0:0:
248,152,124020,1,0,0:0:0:0:
248,152,124073,1,0,0:0:0:0:
228,164,124127,1,0,0:0:0:0:
320,152,124234,1,8,0:0:0:0:
320,152,124341,1,0,0:0:0:0:
332,152,124555,1,0,0:0:0:0:
332,152,124662,1,0,0:0:0:0:
332,152,124770,1,12,0:0:0:0:
336,160,125198,1,0,0:0:0:0:
336,160,125412,1,8,0:0:0:0:
332,160,125520,1,0,0:0:0:0:
328,164,125627,1,0,0:0:0:0:
328,204,125841,1,8,0:0:0:0:
328,204,125948,1,0,0:0:0:0:
328,204,126055,1,0,0:0:0:0:
328,204,126270,1,8,0:0:0:0:
328,204,126377,1,0,0:0:0:0:
328,204,126484,1,0,0:0:0:0:
380,244,126698,1,8,0:0:0:0:
380,244,126805,1,0,0:0:0:0:
380,244,126912,1,0,0:0:0:0:
380,244,127127,1,8,0:0:0:0:
380,244,127234,1,0,0:0:0:0:
380,244,127341,1,0,0:0:0:0:
380,244,127555,1,8,0:0:0:0:
380,244,127662,1,0,0:0:0:0:
368,240,127770,1,0,0:0:0:0:
380,244,127984,1,8,0:0:0:0:
380,244,128091,1,0,0:0:0:0:
380,244,128198,1,0,0:0:0:0:
380,244,128412,1,8,0:0:0:0:
380,244,128520,1,8,0:0:0:0:
380,244,128627,1,0,0:0:0:0:
380,244,128841,1,8,0:0:0:0:
380,244,128948,1,8,0:0:0:0:
380,244,129055,1,0,0:0:0:0:
380,244,129270,1,8,0:0:0:0:
376,240,129377,1,8,0:0:0:0:
380,244,129484,1,0,0:0:0:0:
380,244,129698,1,8,0:0:0:0:
380,244,129805,1,8,0:0:0:0:
380,244,129912,1,0,0:0:0:0:
380,244,130127,1,8,0:0:0:0:
380,244,130234,1,8,0:0:0:0:
380,244,130341,1,0,0:0:0:0:
380,244,130555,1,8,0:0:0:0:
380,244,130662,1,8,0:0:0:0:
380,244,130770,1,0,0:0:0:0:
380,244,130984,1,8,0:0:0:0:
380,244,131091,1,8,0:0:0:0:
380,244,131198,1,0,0:0:0:0:
380,244,131412,1,8,0:0:0:0:
380,244,131520,1,8,0:0:0:0:
380,244,131627,1,0,0:0:0:0:
380,244,131841,1,8,0:0:0:0:
380,244,131948,1,0,0:0:0:0:
380,244,132055,1,0,0:0:0:0:
380,244,132270,1,8,0:0:0:0:
380,244,132484,1,0,0:0:0:0:
272,152,132698,1,8,0:0:0:0:
272,152,132805,1,8,0:0:0:0:
380,244,132912,1,0,0:0:0:0:
380,244,133127,1,8,0:0:0:0:
380,244,133341,1,0,0:0:0:0:
268,160,133555,1,8,0:0:0:0:
268,160,133662,1,0,0:0:0:0:
380,244,133770,1,0,0:0:0:0:
380,244,133984,1,8,0:0:0:0:
380,244,134198,1,0,0:0:0:0:
380,244,134412,1,8,0:0:0:0:
380,244,134520,1,8,0:0:0:0:
380,244,134627,1,0,0:0:0:0:
380,244,134841,1,8,0:0:0:0:
380,244,135055,1,0,0:0:0:0:
292,120,135270,1,8,0:0:0:0:
292,120,135377,1,0,0:0:0:0:
380,244,135484,1,0,0:0:0:0:
380,244,135698,1,8,0:0:0:0:
304,100,135912,1,0,0:0:0:0:
304,100,136127,1,8,0:0:0:0:
304,100,136234,1,8,0:0:0:0:
304,100,136341,1,0,0:0:0:0:
304,100,136555,1,8,0:0:0:0:
304,100,136770,1,0,0:0:0:0:
304,100,136984,1,8,0:0:0:0:
304,100,137091,1,0,0:0:0:0:
304,100,137198,1,0,0:0:0:0:
312,92,137412,1,8,0:0:0:0:
312,92,137627,1,0,0:0:0:0:
312,88,137841,1,8,0:0:0:0:
312,88,137948,1,8,0:0:0:0:
312,88,138055,1,0,0:0:0:0:
360,164,138270,1,8,0:0:0:0:
360,164,138484,1,0,0:0:0:0:
360,164,138698,1,8,0:0:0:0:
360,164,138805,1,8,0:0:0:0:
