osu file format v14

[General]
AudioFilename: cYsmix - Classic Pursuit.mp3
AudioLeadIn: 0
PreviewTime: 42805
Countdown: 0
SampleSet: Normal
StackLeniency: 0.7
Mode: 1
LetterboxInBreaks: 0
WidescreenStoryboard: 0

[Editor]
Bookmarks: 84055
DistanceSpacing: 1
BeatDivisor: 4
GridSize: 4
TimelineZoom: 1.100002

[Metadata]
Title:Classic Pursuit
TitleUnicode:Classic Pursuit
Artist:cYsmix
ArtistUnicode:cYsmix
Creator:Hanjamon
Version:Kantan
Source:osu!
Tags:beatmapping contest featured artist
BeatmapID:818683
BeatmapSetID:373254

[Difficulty]
HPDrainRate:6
CircleSize:2
OverallDifficulty:3
ApproachRate:5
SliderMultiplier:1.4
SliderTickRate:1

[Events]
//Background and Video events
0,0,"osu!cysmix-bg-2.jpg",0,20
//Break Periods
//Storyboard Layer 0 (Background)
//Storyboard Layer 1 (Fail)
//Storyboard Layer 2 (Pass)
//Storyboard Layer 3 (Foreground)
//Storyboard Sound Samples

[TimingPoints]
1770,428.571428571429,4,1,0,100,1,0
42912,-100,4,1,0,100,0,1
56198,-100,4,1,0,100,0,0
111484,-100,4,1,0,100,0,1
124770,-100,4,1,0,100,0,0
141055,428.571428571429,4,1,0,100,1,0

[HitObjects]
276,168,1770,5,4,0:0:0:0:
252,152,2627,1,0,0:0:0:0:
388,148,3484,1,8,0:0:0:0:
308,120,3912,1,8,0:0:0:0:
308,120,4341,1,0,0:0:0:0:
308,120,5198,1,0,0:0:0:0:
308,120,6055,1,0,0:0:0:0:
308,120,6912,1,0,0:0:0:0:
308,120,8198,1,8,0:0:0:0:
308,120,8627,1,0,0:0:0:0:
304,120,9484,1,0,0:0:0:0:
304,120,10341,1,8,0:0:0:0:
304,120,10770,1,8,0:0:0:0:
304,120,11198,1,0,0:0:0:0:
304,120,12055,1,0,0:0:0:0:
304,120,12912,1,0,0:0:0:0:
304,120,13770,1,0,0:0:0:0:
272,192,15484,1,0,0:0:0:0:
244,160,16341,1,0,0:0:0:0:
244,160,17198,1,0,0:0:0:0:
244,160,17627,1,8,0:0:0:0:
244,160,18055,1,0,0:0:0:0:
244,160,18912,1,0,0:0:0:0:
244,160,19770,1,0,0:0:0:0:
136,144,21055,1,8,0:0:0:0:
244,160,21484,1,0,0:0:0:0:
244,160,22341,1,4,0:0:0:0:
272,152,23198,1,0,0:0:0:0:
272,152,24055,1,4,0:0:0:0:
272,152,24484,1,8,0:0:0:0:
272,152,24912,1,0,0:0:0:0:
280,212,25770,1,8,0:0:0:0:
284,216,26198,1,8,0:0:0:0:
284,216,26627,1,0,0:0:0:0:
284,216,27484,1,8,0:0:0:0:
284,216,27912,1,8,0:0:0:0:
284,216,28341,1,4,0:0:0:0:
408,256,29198,1,4,0:0:0:0:
408,256,30912,1,0,0:0:0:0:
408,256,31770,1,0,0:0:0:0:
356,232,32198,1,0,0:0:0:0:
356,232,32627,1,0,0:0:0:0:
232,156,33484,1,8,0:0:0:0:
232,156,33912,1,8,0:0:0:0:
264,68,34341,2,0,L|340:96,6,70
272,164,36055,1,0,0:0:0:0:
328,160,36912,1,0,0:0:0:0:
328,160,37770,1,0,0:0:0:0:
316,112,38627,1,0,0:0:0:0:
316,112,39055,1,8,0:0:0:0:
316,112,39484,1,0,0:0:0:0:
352,192,40770,1,8,0:0:0:0:
296,104,41627,1,12,0:0:0:0:
296,104,42055,1,12,0:0:0:0:
336,184,42912,1,0,0:0:0:0:
332,212,43770,1,0,0:0:0:0:
332,212,44198,1,8,0:0:0:0:
332,212,44627,1,0,0:0:0:0:
332,212,45484,1,0,0:0:0:0:
356,188,46341,1,0,0:0:0:0:
276,208,47198,1,8,0:0:0:0:
276,208,47627,1,8,0:0:0:0:
276,208,48055,1,0,0:0:0:0:
308,160,49770,1,0,0:0:0:0:
308,160,50627,1,8,0:0:0:0:
308,160,51055,1,8,0:0:0:0:
308,160,51484,1,0,0:0:0:0:
236,148,52341,1,0,0:0:0:0:
236,148,53198,1,0,0:0:0:0:
268,148,54055,1,0,0:0:0:0:
268,148,54484,1,8,0:0:0:0:
288,148,54912,5,0,0:0:0:0:
296,164,56627,1,0,0:0:0:0:
344,144,57484,1,8,0:0:0:0:
288,152,58341,1,8,0:0:0:0:
236,168,60055,1,0,0:0:0:0:
240,156,60912,1,8,0:0:0:0:
240,156,61770,1,8,0:0:0:0:
220,160,63484,1,0,0:0:0:0:
248,156,64341,1,8,0:0:0:0:
320,128,65198,1,8,0:0:0:0:
320,128,66912,1,8,0:0:0:0:
272,124,67770,1,8,0:0:0:0:
256,144,68627,1,4,0:0:0:0:
276,152,69484,1,0,0:0:0:0:
360,160,69912,1,12,0:0:0:0:
352,168,70341,1,0,0:0:0:0:
368,184,71198,1,0,0:0:0:0:
240,188,72055,1,0,0:0:0:0:
256,156,72484,1,8,0:0:0:0:
288,160,72912,1,0,0:0:0:0:
284,160,73770,1,0,0:0:0:0:
284,160,74627,1,0,0:0:0:0:
284,160,75484,1,8,0:0:0:0:
284,160,77198,1,0,0:0:0:0:
368,184,78055,1,0,0:0:0:0:
240,188,78912,1,8,0:0:0:0:
256,156,79341,1,8,0:0:0:0:
288,160,79770,1,0,0:0:0:0:
284,160,80627,1,0,0:0:0:0:
284,160,81484,1,0,0:0:0:0:
284,160,82341,1,8,0:0:0:0:
284,160,84055,1,0,0:0:0:0:
264,212,84912,1,0,0:0:0:0:
300,236,85770,1,0,0:0:0:0:
300,236,86198,1,8,0:0:0:0:
300,236,86627,1,0,0:0:0:0:
300,236,87484,1,0,0:0:0:0:
300,236,88341,1,0,0:0:0:0:
248,140,89198,1,0,0:0:0:0:
248,140,90912,1,0,0:0:0:0:
248,140,91341,1,8,0:0:0:0:
248,140,91770,1,0,0:0:0:0:
248,140,92627,1,0,0:0:0:0:
248,140,93055,1,8,0:0:0:0:
248,140,93484,1,0,0:0:0:0:
284,168,94341,5,8,0:0:0:0:
300,180,96055,1,8,0:0:0:0:
300,180,96484,1,8,0:0:0:0:
300,180,96912,1,4,0:0:0:0:
384,244,97770,1,0,0:0:0:0:
384,244,98627,1,0,0:0:0:0:
384,244,99055,1,8,0:0:0:0:
384,244,99484,1,0,0:0:0:0:
248,168,100341,1,8,0:0:0:0:
384,244,100770,1,0,0:0:0:0:
384,244,101198,1,8,0:0:0:0:
340,168,102055,1,0,0:0:0:0:
340,168,102484,1,8,0:0:0:0:
340,168,102912,1,0,0:0:0:0:
356,156,104627,1,8,0:0:0:0:
356,156,105484,1,0,0:0:0:0:
356,156,105912,1,8,0:0:0:0:
356,156,106341,1,0,0:0:0:0:
360,188,107198,1,8,0:0:0:0:
360,188,107627,1,0,0:0:0:0:
232,112,108055,5,8,0:0:0:0:
328,168,109341,1,8,0:0:0:0:
332,168,109770,1,8,0:0:0:0:
260,164,110627,1,12,0:0:0:0:
336,184,111484,1,0,0:0:0:0:
440,280,111912,1,8,0:0:0:0:
332,212,112341,1,0,0:0:0:0:
332,212,112770,1,8,0:0:0:0:
332,212,113198,1,0,0:0:0:0:
332,212,114055,1,0,0:0:0:0:
356,188,114912,1,0,0:0:0:0:
356,188,115341,1,0,0:0:0:0:
356,188,115770,1,8,0:0:0:0:
276,208,116198,1,8,0:0:0:0:
276,208,116627,1,0,0:0:0:0:
308,160,118341,1,0,0:0:0:0:
308,160,118770,1,0,0:0:0:0:
308,160,119198,1,8,0:0:0:0:
308,160,119627,1,8,0:0:0:0:
308,160,120055,1,0,0:0:0:0:
236,148,120912,1,0,0:0:0:0:
236,148,121770,1,0,0:0:0:0:
268,148,122198,1,8,0:0:0:0:
268,148,122627,1,0,0:0:0:0:
276,168,123055,1,8,0:0:0:0:
288,148,123484,5,0,0:0:0:0:
336,160,125198,1,0,0:0:0:0:
328,204,126055,1,0,0:0:0:0:
380,244,126912,1,0,0:0:0:0:
380,244,128627,1,0,0:0:0:0:
380,244,129484,1,0,0:0:0:0:
380,244,130341,1,0,0:0:0:0:
380,244,132055,1,8,0:0:0:0:
380,244,133770,1,8,0:0:0:0:
380,244,135484,1,8,0:0:0:0:
304,100,137198,1,8,0:0:0:0:
312,88,138055,1,0,0:0:0:0:
360,164,138484,1,0,0:0:0:0:
