osu file format v14

[General]
AudioFilename: cYsmix - Classic Pursuit.mp3
AudioLeadIn: 0
PreviewTime: 68520
Countdown: 0
SampleSet: Soft
StackLeniency: 0.7
Mode: 3
LetterboxInBreaks: 0
SpecialStyle: 0
WidescreenStoryboard: 1

[Editor]
DistanceSpacing: 1
BeatDivisor: 4
GridSize: 4
TimelineZoom: 1.7

[Metadata]
Title:Classic Pursuit
TitleUnicode:Classic Pursuit
Artist:cYsmix
ArtistUnicode:cYsmix
Creator:FAMoss
Version:Speed Hunter
Source:osu!
Tags:RuleBlazing sv jack featured artists fa mappers' guild mg halloween instrumental electronic piano
BeatmapID:2246264
BeatmapSetID:1044881

[Difficulty]
HPDrainRate:9
CircleSize:4
OverallDifficulty:8.5
ApproachRate:5
SliderMultiplier:1.4
SliderTickRate:1

[Events]
//Background and Video events
0,0,"osu!cysmix.jpg",0,0
//Break Periods
//Storyboard Layer 0 (Background)
//Storyboard Layer 1 (Fail)
//Storyboard Layer 2 (Pass)
//Storyboard Layer 3 (Foreground)
//Storyboard Layer 4 (Overlay)
//Storyboard Sound Samples
Sample,26627,0,"LS-HSI Fx Sound 075_speedup.wav",30
Sample,28716,0,"LR_RevCyNNG.ogg",100
Sample,29198,0,"push_scratch.wav",70
Sample,56627,0,"push_scratch.wav",70
Sample,69430,0,"LR_RevCyNNG.ogg",100
Sample,84055,0,"push_scratch.wav",70
Sample,97287,0,"LR_RevCyNNG.ogg",100
Sample,97770,0,"push_scratch.wav",70
Sample,125198,0,"push_scratch.wav",70

[TimingPoints]
1770,428.571428571429,4,2,1,70,1,0
22341,-125,4,2,1,70,0,0
22502,-83.3333333333333,4,2,1,70,0,0
22555,-100,4,2,1,70,0,0
24055,-125,4,2,1,70,0,0
24216,-83.3333333333333,4,2,1,70,0,0
24270,-100,4,2,1,70,0,0
26091,-90.9090909090909,4,2,1,70,0,0
26198,-100,4,2,1,70,0,0
26520,-83.3333333333333,4,2,1,70,0,0
26627,-90.9090909090909,4,2,1,70,0,0
26841,-100,4,2,1,70,0,0
27484,-62.5,4,2,1,70,0,0
27537,-250,4,2,1,70,0,0
27591,-62.5,4,2,1,70,0,0
27645,-250,4,2,1,70,0,0
27698,-62.5,4,2,1,70,0,0
27752,-250,4,2,1,70,0,0
27805,-62.5,4,2,1,70,0,0
27859,-250,4,2,1,70,0,0
27912,-100,4,2,1,70,0,0
28341,-45.4545454545455,4,2,1,70,0,0
28448,-125,4,2,1,70,0,0
28770,-50,4,2,1,70,0,0
28877,-133.333333333333,4,2,1,70,0,0
28984,-125,4,2,1,70,0,0
29091,-90.9090909090909,4,2,1,70,0,0
29145,-83.3333333333333,4,2,1,70,0,0
29198,-100,4,2,1,70,0,1
39484,-142.857,4,2,1,70,0,0
39558,-55.5556,4,2,1,70,0,0
39591,-142.857,4,2,1,70,0,0
39666,-55.5556,4,2,1,70,0,0
39699,-142.857,4,2,1,70,0,0
39773,-55.5556,4,2,1,70,0,0
39806,-142.857,4,2,1,70,0,0
39880,-55.5556,4,2,1,70,0,0
39913,-142.857,4,2,1,70,0,0
39987,-55.5556,4,2,1,70,0,0
40020,-142.857,4,2,1,70,0,0
40094,-55.5556,4,2,1,70,0,0
40127,-142.857,4,2,1,70,0,0
40201,-55.5556,4,2,1,70,0,0
40234,-142.857,4,2,1,70,0,0
40306,-55.5556,4,2,1,70,0,0
40341,-142.857,4,2,1,70,0,0
40413,-55.5556,4,2,1,70,0,0
40449,-142.857,4,2,1,70,0,0
40520,-55.5556,4,2,1,70,0,0
40556,-142.857,4,2,1,70,0,0
40627,-55.5556,4,2,1,70,0,0
40663,-142.857,4,2,1,70,0,0
40734,-55.5556,4,2,1,70,0,0
40770,-100,4,2,1,70,0,0
42484,-50,4,2,1,70,0,0
42591,-133.333333333333,4,2,1,70,0,0
42698,-125,4,2,1,70,0,0
42912,-100,4,2,1,70,0,1
56198,-10,4,2,1,70,0,1
56225,-166.666666666667,4,2,1,70,0,1
56412,-133.333333333333,4,2,1,70,0,1
56466,-111.111111111111,4,2,1,70,0,1
56520,-95.2380952380952,4,2,1,70,0,1
56573,-83.3333333333333,4,2,1,70,0,1
56627,-100,4,2,1,70,0,0
69912,-50,4,2,1,70,0,0
69939,-133.333333333333,4,2,1,70,0,0
70020,-66.6666666666667,4,2,1,70,0,0
70234,-133.333333333333,4,2,1,70,0,0
70341,-100,4,2,1,70,0,1
70770,-62.5,4,2,1,70,0,1
70823,-250,4,2,1,70,0,1
70877,-100,4,2,1,70,0,1
71627,-62.5,4,2,1,70,0,1
71680,-250,4,2,1,70,0,1
71734,-100,4,2,1,70,0,1
72484,-62.5,4,2,1,70,0,1
72537,-250,4,2,1,70,0,1
72591,-100,4,2,1,70,0,1
73341,-62.5,4,2,1,70,0,1
73394,-250,4,2,1,70,0,1
73448,-100,4,2,1,70,0,1
74198,-62.5,4,2,1,70,0,1
74251,-250,4,2,1,70,0,1
74305,-100,4,2,1,70,0,1
75055,-62.5,4,2,1,70,0,1
75108,-250,4,2,1,70,0,1
75162,-100,4,2,1,70,0,1
75912,-62.5,4,2,1,70,0,1
75965,-250,4,2,1,70,0,1
76019,-100,4,2,1,70,0,1
76770,-62.5,4,2,1,70,0,1
76823,-250,4,2,1,70,0,1
76877,-100,4,2,1,70,0,1
77627,-62.5,4,2,1,70,0,1
77680,-250,4,2,1,70,0,1
77734,-100,4,2,1,70,0,1
78484,-62.5,4,2,1,70,0,1
78537,-250,4,2,1,70,0,1
78591,-100,4,2,1,70,0,1
79341,-62.5,4,2,1,70,0,1
79394,-250,4,2,1,70,0,1
79448,-100,4,2,1,70,0,1
80198,-62.5,4,2,1,70,0,1
80251,-250,4,2,1,70,0,1
80305,-100,4,2,1,70,0,1
81055,-62.5,4,2,1,70,0,1
81108,-250,4,2,1,70,0,1
81162,-100,4,2,1,70,0,1
81912,-62.5,4,2,1,70,0,1
81965,-250,4,2,1,70,0,1
82019,-100,4,2,1,70,0,1
82770,-62.5,4,2,1,70,0,1
82823,-250,4,2,1,70,0,1
82877,-100,4,2,1,70,0,1
83627,-62.5,4,2,1,70,0,1
83680,-250,4,2,1,70,0,1
83734,-100,4,2,1,70,0,1
84055,-111.111111111111,4,2,1,70,0,0
85770,-105.263157894737,4,2,1,70,0,0
87484,-111.111111111111,4,2,1,70,0,0
89198,-105.263157894737,4,2,1,70,0,0
90912,-111.111111111111,4,2,1,70,0,0
92627,-105.263157894737,4,2,1,70,0,0
93484,-102.040816326531,4,2,1,70,0,0
94341,-100,4,2,1,70,0,0
96055,-62.5,4,2,1,70,0,0
96108,-250,4,2,1,70,0,0
96162,-62.5,4,2,1,70,0,0
96216,-250,4,2,1,70,0,0
96269,-62.5,4,2,1,70,0,0
96323,-250,4,2,1,70,0,0
96376,-62.5,4,2,1,70,0,0
96430,-250,4,2,1,70,0,0
96483,-100,4,2,1,70,0,0
96912,-45.454545,4,2,1,70,0,0
97019,-125,4,2,1,70,0,0
97341,-50,4,2,1,70,0,0
97448,-133.333333,4,2,1,70,0,0
97555,-166.666666666667,4,2,1,70,0,0
97662,-90.9090909090909,4,2,1,70,0,0
97716,-83.3333333333333,4,2,1,70,0,0
97770,-100,4,2,1,70,0,1
108055,-142.857142857143,4,2,1,70,0,0
108129,-55.5555555555556,4,2,1,70,0,0
108162,-142.857142857143,4,2,1,70,0,0
108237,-55.5555555555556,4,2,1,70,0,0
108270,-142.857142857143,4,2,1,70,0,0
108344,-55.5555555555556,4,2,1,70,0,0
108377,-142.857142857143,4,2,1,70,0,0
108451,-55.5555555555556,4,2,1,70,0,0
108484,-142.857142857143,4,2,1,70,0,0
108558,-55.5555555555556,4,2,1,70,0,0
108591,-142.857142857143,4,2,1,70,0,0
108665,-55.5555555555556,4,2,1,70,0,0
108698,-142.857142857143,4,2,1,70,0,0
108772,-55.5555555555556,4,2,1,70,0,0
108805,-142.857142857143,4,2,1,70,0,0
108877,-55.5555555555556,4,2,1,70,0,0
108912,-142.857142857143,4,2,1,70,0,0
108984,-55.5555555555556,4,2,1,70,0,0
109020,-142.857142857143,4,2,1,70,0,0
109091,-55.5555555555556,4,2,1,70,0,0
109127,-142.857142857143,4,2,1,70,0,0
109198,-55.5555555555556,4,2,1,70,0,0
109234,-142.857142857143,4,2,1,70,0,0
109305,-55.5555555555556,4,2,1,70,0,0
109341,-100,4,2,1,70,0,0
111055,-50,4,2,1,70,0,0
111162,-133.333333333333,4,2,1,70,0,0
111270,-125,4,2,1,70,0,0
111484,-100,4,2,1,70,0,1
124770,-10,4,2,1,70,0,1
124796,-166.667,4,2,1,70,0,1
124984,-133.333,4,2,1,70,0,1
125038,-111.111,4,2,1,70,0,1
125092,-95.2381,4,2,1,70,0,1
125145,-83.3333,4,2,1,70,0,1
125198,-100,4,2,1,70,0,0
141055,428.571428571429,4,2,1,50,1,0

[HitObjects]
320,192,1341,128,0,1770:0:0:0:0:
192,192,1448,128,0,1770:0:0:0:0:
64,192,1770,128,2,1984:0:0:0:0:
448,192,1770,128,0,1984:0:0:0:0:
320,192,1984,1,0,0:0:0:0:
320,192,2091,1,0,0:0:0:0:
64,192,2198,1,2,0:0:0:0:
192,192,2198,1,8,0:0:0:0:
448,192,2198,1,0,0:0:0:0:
448,192,2412,1,0,0:0:0:0:
320,192,2520,1,0,0:0:0:0:
64,192,2627,1,2,0:0:0:0:
192,192,2627,1,0,0:0:0:0:
192,192,2841,1,0,0:0:0:0:
192,192,2948,1,0,0:0:0:0:
64,192,3055,1,8,0:0:0:0:
320,192,3055,1,2,0:0:0:0:
448,192,3055,1,0,0:0:0:0:
320,192,3270,1,0,0:0:0:0:
192,192,3377,1,0,0:0:0:0:
64,192,3484,1,2,0:0:0:0:
448,192,3484,1,0,0:0:0:0:
320,192,3698,1,0,0:0:0:0:
320,192,3805,1,0,0:0:0:0:
64,192,3912,1,2,0:0:0:0:
192,192,3912,1,8,0:0:0:0:
448,192,3912,1,0,0:0:0:0:
448,192,4127,1,0,0:0:0:0:
320,192,4234,1,0,0:0:0:0:
64,192,4341,1,2,0:0:0:0:
192,192,4341,1,0,0:0:0:0:
192,192,4555,1,0,0:0:0:0:
192,192,4662,1,0,0:0:0:0:
64,192,4770,1,8,0:0:0:0:
320,192,4770,1,2,0:0:0:0:
448,192,4770,1,0,0:0:0:0:
320,192,4984,1,0,0:0:0:0:
192,192,5091,1,0,0:0:0:0:
64,192,5198,1,2,0:0:0:0:
448,192,5198,1,0,0:0:0:0:
64,192,5412,1,0,0:0:0:0:
64,192,5520,1,0,0:0:0:0:
192,192,5627,1,2,0:0:0:0:
320,192,5627,1,8,0:0:0:0:
448,192,5627,1,0,0:0:0:0:
64,192,5841,1,0,0:0:0:0:
192,192,5948,1,0,0:0:0:0:
320,192,6055,1,2,0:0:0:0:
448,192,6055,1,0,0:0:0:0:
320,192,6270,1,0,0:0:0:0:
320,192,6377,1,0,0:0:0:0:
64,192,6484,1,8,0:0:0:0:
192,192,6484,1,2,0:0:0:0:
448,192,6484,1,0,0:0:0:0:
192,192,6698,1,0,0:0:0:0:
320,192,6805,1,0,0:0:0:0:
64,192,6912,1,2,0:0:0:0:
448,192,6912,1,0,0:0:0:0:
448,192,7127,1,0,0:0:0:0:
448,192,7234,1,0,0:0:0:0:
64,192,7341,1,2,0:0:0:0:
192,192,7341,1,8,0:0:0:0:
320,192,7341,1,0,0:0:0:0:
448,192,7555,1,0,0:0:0:0:
320,192,7662,1,0,0:0:0:0:
64,192,7770,1,2,0:0:0:0:
192,192,7770,1,0,0:0:0:0:
192,192,7984,1,0,0:0:0:0:
192,192,8091,1,0,0:0:0:0:
64,192,8198,1,8,0:0:0:0:
320,192,8198,1,2,0:0:0:0:
448,192,8198,1,0,0:0:0:0:
320,192,8412,1,0,0:0:0:0:
192,192,8520,1,0,0:0:0:0:
64,192,8627,128,2,8841:0:0:0:0:
448,192,8627,1,0,0:0:0:0:
320,192,8841,1,0,0:0:0:0:
320,192,8948,1,0,0:0:0:0:
64,192,9055,1,2,0:0:0:0:
192,192,9055,1,8,0:0:0:0:
448,192,9055,1,0,0:0:0:0:
448,192,9270,1,0,0:0:0:0:
320,192,9377,1,0,0:0:0:0:
64,192,9484,1,2,0:0:0:0:
192,192,9484,1,0,0:0:0:0:
192,192,9698,1,0,0:0:0:0:
192,192,9805,1,0,0:0:0:0:
64,192,9912,1,8,0:0:0:0:
320,192,9912,1,2,0:0:0:0:
448,192,9912,1,0,0:0:0:0:
320,192,10127,1,0,0:0:0:0:
192,192,10234,1,0,0:0:0:0:
64,192,10341,1,2,0:0:0:0:
448,192,10341,1,0,0:0:0:0:
320,192,10555,1,0,0:0:0:0:
320,192,10662,1,0,0:0:0:0:
64,192,10770,1,2,0:0:0:0:
192,192,10770,1,8,0:0:0:0:
448,192,10770,1,0,0:0:0:0:
448,192,10984,1,0,0:0:0:0:
320,192,11091,1,0,0:0:0:0:
64,192,11198,1,2,0:0:0:0:
192,192,11198,1,0,0:0:0:0:
192,192,11412,1,0,0:0:0:0:
192,192,11520,1,0,0:0:0:0:
64,192,11627,1,8,0:0:0:0:
320,192,11627,1,2,0:0:0:0:
448,192,11627,1,0,0:0:0:0:
320,192,11841,1,0,0:0:0:0:
192,192,11948,1,0,0:0:0:0:
64,192,12055,1,2,0:0:0:0:
448,192,12055,1,0,0:0:0:0:
64,192,12270,1,0,0:0:0:0:
64,192,12377,1,0,0:0:0:0:
192,192,12484,1,2,0:0:0:0:
320,192,12484,1,8,0:0:0:0:
448,192,12484,1,0,0:0:0:0:
64,192,12698,1,0,0:0:0:0:
192,192,12805,1,0,0:0:0:0:
320,192,12912,1,2,0:0:0:0:
448,192,12912,1,0,0:0:0:0:
320,192,13127,1,0,0:0:0:0:
320,192,13234,1,0,0:0:0:0:
64,192,13341,1,2,0:0:0:0:
192,192,13341,1,8,0:0:0:0:
448,192,13341,1,0,0:0:0:0:
192,192,13555,1,0,0:0:0:0:
320,192,13662,1,0,0:0:0:0:
64,192,13770,1,2,0:0:0:0:
448,192,13770,1,0,0:0:0:0:
448,192,13984,1,0,0:0:0:0:
448,192,14091,1,0,0:0:0:0:
64,192,14198,1,2,0:0:0:0:
192,192,14198,1,8,0:0:0:0:
320,192,14198,1,0,0:0:0:0:
448,192,14412,1,0,0:0:0:0:
320,192,14520,1,0,0:0:0:0:
64,192,14627,1,2,0:0:0:0:
192,192,14627,1,0,0:0:0:0:
192,192,14841,1,0,0:0:0:0:
192,192,14948,1,0,0:0:0:0:
64,192,15055,1,2,0:0:0:0:
320,192,15055,1,8,0:0:0:0:
448,192,15055,1,0,0:0:0:0:
320,192,15270,1,0,0:0:0:0:
192,192,15377,1,0,0:0:0:0:
64,192,15484,128,2,15698:0:0:0:0:
448,192,15484,1,0,0:0:0:0:
320,192,15698,1,0,0:0:0:0:
320,192,15805,1,0,0:0:0:0:
64,192,15912,1,2,0:0:0:0:
192,192,15912,1,8,0:0:0:0:
448,192,15912,1,0,0:0:0:0:
448,192,16127,1,0,0:0:0:0:
320,192,16234,1,0,0:0:0:0:
64,192,16341,128,2,16555:0:0:0:0:
192,192,16341,1,0,0:0:0:0:
192,192,16555,1,0,0:0:0:0:
192,192,16662,1,0,0:0:0:0:
64,192,16770,1,2,0:0:0:0:
320,192,16770,1,8,0:0:0:0:
448,192,16770,1,0,0:0:0:0:
320,192,16984,1,0,0:0:0:0:
192,192,17091,1,0,0:0:0:0:
64,192,17198,1,2,0:0:0:0:
448,192,17198,128,0,17412:0:0:0:0:
320,192,17412,1,0,0:0:0:0:
320,192,17520,1,0,0:0:0:0:
64,192,17627,1,2,0:0:0:0:
192,192,17627,1,8,0:0:0:0:
448,192,17627,1,0,0:0:0:0:
448,192,17841,1,0,0:0:0:0:
320,192,17948,1,0,0:0:0:0:
64,192,18055,128,2,18270:0:0:0:0:
192,192,18055,1,0,0:0:0:0:
192,192,18270,1,0,0:0:0:0:
192,192,18377,1,0,0:0:0:0:
64,192,18484,1,2,0:0:0:0:
320,192,18484,1,8,0:0:0:0:
448,192,18484,1,0,0:0:0:0:
320,192,18698,1,0,0:0:0:0:
192,192,18805,1,0,0:0:0:0:
64,192,18912,1,2,0:0:0:0:
448,192,18912,128,0,19127:0:0:0:0:
192,192,19127,1,0,0:0:0:0:
192,192,19234,1,0,0:0:0:0:
64,192,19341,1,2,0:0:0:0:
320,192,19341,1,8,0:0:0:0:
448,192,19341,1,0,0:0:0:0:
64,192,19555,1,0,0:0:0:0:
192,192,19662,1,0,0:0:0:0:
320,192,19770,1,2,0:0:0:0:
448,192,19770,128,0,19984:0:0:0:0:
320,192,19984,1,0,0:0:0:0:
320,192,20091,1,0,0:0:0:0:
64,192,20198,1,2,0:0:0:0:
192,192,20198,1,8,0:0:0:0:
448,192,20198,1,0,0:0:0:0:
192,192,20412,1,0,0:0:0:0:
320,192,20520,1,0,0:0:0:0:
64,192,20627,128,2,20841:0:0:0:0:
448,192,20627,1,0,0:0:0:0:
192,192,20841,1,0,0:0:0:0:
192,192,20948,1,0,0:0:0:0:
64,192,21055,1,2,0:0:0:0:
320,192,21055,1,8,0:0:0:0:
448,192,21055,1,0,0:0:0:0:
64,192,21270,1,0,0:0:0:0:
192,192,21377,1,0,0:0:0:0:
320,192,21484,1,2,0:0:0:0:
448,192,21484,128,0,21698:0:0:0:0:
320,192,21698,1,0,0:0:0:0:
320,192,21805,1,0,0:0:0:0:
64,192,21912,1,2,0:0:0:0:
192,192,21912,1,8,0:0:0:0:
448,192,21912,1,0,0:0:0:0:
320,192,22127,1,0,0:0:0:0:
192,192,22234,1,0,0:0:0:0:
64,192,22341,128,2,22555:0:0:0:0:
320,192,22341,1,4,0:0:0:0:
448,192,22341,128,0,22555:0:0:0:0:
320,192,22555,1,0,0:0:0:0:
320,192,22662,1,0,0:0:0:0:
64,192,22770,1,2,0:0:0:0:
192,192,22770,1,8,0:0:0:0:
448,192,22770,1,0,0:0:0:0:
448,192,22984,1,0,0:0:0:0:
320,192,23091,1,0,0:0:0:0:
64,192,23198,128,2,23412:0:0:0:0:
192,192,23198,1,0,0:0:0:0:
192,192,23412,1,0,0:0:0:0:
192,192,23520,1,0,0:0:0:0:
64,192,23627,1,8,0:0:0:0:
320,192,23627,1,2,0:0:0:0:
448,192,23627,1,0,0:0:0:0:
192,192,23841,1,0,0:0:0:0:
320,192,23948,1,0,0:0:0:0:
64,192,24055,128,2,24270:0:0:0:0:
192,192,24055,1,4,0:0:0:0:
448,192,24055,128,0,24270:0:0:0:0:
192,192,24270,1,0,0:0:0:0:
192,192,24377,1,0,0:0:0:0:
64,192,24484,1,2,0:0:0:0:
320,192,24484,1,8,0:0:0:0:
448,192,24484,1,0,0:0:0:0:
64,192,24698,1,0,0:0:0:0:
192,192,24805,1,0,0:0:0:0:
320,192,24912,1,2,0:0:0:0:
448,192,24912,128,0,25127:0:0:0:0:
320,192,25127,1,0,0:0:0:0:
320,192,25234,1,0,0:0:0:0:
64,192,25341,1,8,0:0:0:0:
192,192,25341,1,2,0:0:0:0:
448,192,25341,1,0,0:0:0:0:
320,192,25555,1,0,0:0:0:0:
192,192,25662,1,0,0:0:0:0:
64,192,25770,1,0,0:0:0:100:S2.wav
448,192,25770,1,0,0:0:0:0:
64,192,25984,1,0,0:0:0:100:S2.wav
448,192,25984,1,0,0:0:0:0:
64,192,26198,1,0,0:0:0:100:S2.wav
448,192,26198,1,0,0:0:0:0:
64,192,26412,1,0,0:0:0:100:S2.wav
448,192,26412,1,0,0:0:0:0:
320,192,26627,128,0,26841:0:0:0:70:LR_Snare Drum.wav
64,192,26841,1,0,0:0:0:70:S1.wav
192,192,26841,1,0,0:0:0:0:
320,192,26948,1,0,0:0:0:70:LR_Snare Drum 2.wav
64,192,27055,1,0,0:0:0:70:LR_Snare Drum.wav
448,192,27055,1,0,0:0:0:0:
192,192,27270,1,0,0:0:0:70:S3.wav
64,192,27377,1,0,0:0:0:70:LR_Snare Drum.wav
448,192,27377,1,0,0:0:0:0:
320,192,27484,1,0,0:0:0:0:
320,192,27591,1,0,0:0:0:0:
64,192,27698,1,0,0:0:0:50:LS-HK Distorted Kick 51.wav
192,192,27698,1,0,0:0:0:0:
448,192,27698,1,0,0:0:0:0:
192,192,27805,1,0,0:0:0:0:
64,192,27912,1,0,0:0:0:50:LS-HK Distorted Kick 51.wav
320,192,27912,1,0,0:0:0:0:
448,192,27912,1,0,0:0:0:0:
320,192,28127,128,0,28341:0:0:0:0:
64,192,28341,1,0,0:0:0:70:LR4_KickHDSK.wav
192,192,28341,1,0,0:0:0:0:
448,192,28341,1,0,0:0:0:0:
64,192,28770,1,0,0:0:0:70:S_.wav
192,192,28770,1,0,0:0:0:0:
320,192,28770,1,0,0:0:0:0:
448,192,28770,1,0,0:0:0:0:
64,192,28984,128,0,29091:0:0:0:0:
192,192,28984,128,0,29091:0:0:0:0:
320,192,28984,128,0,29091:0:0:0:0:
448,192,28984,128,0,29091:0:0:0:0:
64,192,29198,1,2,0:0:0:0:
192,192,29198,1,4,0:0:0:0:
448,192,29198,128,0,29627:0:0:0:0:
320,192,29198,1,0,0:0:0:0:
192,192,29412,1,0,0:0:0:0:
192,192,29520,1,0,0:0:0:0:
64,192,29627,128,2,30270:0:0:0:0:
320,192,29627,1,0,0:0:0:0:
448,192,29841,1,0,0:0:0:0:
320,192,29948,1,0,0:0:0:0:
192,192,30055,1,2,0:0:0:0:
448,192,30055,1,0,0:0:0:0:
320,192,30270,128,0,30698:0:0:0:0:
192,192,30377,1,0,0:0:0:0:
64,192,30484,1,2,0:0:0:0:
448,192,30484,1,0,0:0:0:0:
192,192,30698,1,0,0:0:0:0:
320,192,30805,1,0,0:0:0:0:
64,192,30912,1,2,0:0:0:0:
448,192,30912,128,0,31984:0:0:0:0:
192,192,31127,1,0,0:0:0:0:
192,192,31234,1,0,0:0:0:0:
64,192,31341,1,2,0:0:0:0:
320,192,31341,1,0,0:0:0:0:
64,192,31555,1,0,0:0:0:0:
192,192,31662,1,0,0:0:0:0:
64,192,31770,1,2,0:0:0:0:
320,192,31770,1,0,0:0:0:0:
192,192,31984,1,0,0:0:0:0:
320,192,32091,1,0,0:0:0:0:
64,192,32198,1,2,0:0:0:0:
192,192,32198,1,0,0:0:0:0:
448,192,32198,1,0,0:0:0:0:
320,192,32412,1,0,0:0:0:0:
192,192,32520,1,0,0:0:0:0:
64,192,32627,128,2,33055:0:0:0:0:
448,192,32627,1,0,0:0:0:0:
320,192,32841,1,0,0:0:0:0:
320,192,32948,1,0,0:0:0:0:
192,192,33055,1,2,0:0:0:0:
448,192,33055,1,0,0:0:0:0:
320,192,33162,1,0,0:0:0:0:
64,192,33270,1,0,0:0:0:0:
192,192,33377,1,0,0:0:0:0:
320,192,33484,1,2,0:0:0:0:
448,192,33484,1,0,0:0:0:0:
192,192,33591,1,0,0:0:0:0:
448,192,33698,1,0,0:0:0:0:
320,192,33805,1,0,0:0:0:0:
64,192,33912,1,2,0:0:0:0:
192,192,33912,1,0,0:0:0:0:
448,192,33912,1,0,0:0:0:0:
320,192,34020,1,0,0:0:0:0:
64,192,34127,1,0,0:0:0:0:
192,192,34234,1,0,0:0:0:0:
320,192,34341,1,2,0:0:0:0:
448,192,34341,128,0,35627:0:0:0:0:
192,192,34555,1,0,0:0:0:0:
192,192,34662,1,0,0:0:0:0:
64,192,34770,1,2,0:0:0:0:
320,192,34770,1,0,0:0:0:0:
320,192,34984,1,0,0:0:0:0:
192,192,35091,1,0,0:0:0:0:
64,192,35198,1,2,0:0:0:0:
320,192,35198,1,0,0:0:0:0:
64,192,35412,1,0,0:0:0:0:
192,192,35520,1,0,0:0:0:0:
64,192,35627,1,2,0:0:0:0:
320,192,35627,1,0,0:0:0:0:
192,192,35841,1,0,0:0:0:0:
320,192,35948,1,0,0:0:0:0:
64,192,36055,128,2,36484:0:0:0:0:
192,192,36055,1,0,0:0:0:0:
448,192,36055,1,0,0:0:0:0:
320,192,36270,1,0,0:0:0:0:
320,192,36377,1,0,0:0:0:0:
192,192,36484,1,2,0:0:0:0:
448,192,36484,128,8,37127:0:0:0:0:
64,192,36698,1,0,0:0:0:0:
192,192,36805,1,0,0:0:0:0:
64,192,36912,1,2,0:0:0:0:
320,192,36912,1,0,0:0:0:0:
192,192,37127,128,0,37555:0:0:0:0:
320,192,37234,1,0,0:0:0:0:
64,192,37341,1,2,0:0:0:0:
448,192,37341,1,8,0:0:0:0:
320,192,37555,1,0,0:0:0:0:
192,192,37662,1,0,0:0:0:0:
64,192,37770,128,2,38841:0:0:0:0:
448,192,37770,1,0,0:0:0:0:
320,192,37984,1,0,0:0:0:0:
320,192,38091,1,0,0:0:0:0:
192,192,38198,1,2,0:0:0:0:
448,192,38198,1,8,0:0:0:0:
448,192,38412,1,0,0:0:0:0:
320,192,38520,1,0,0:0:0:0:
192,192,38627,1,2,0:0:0:0:
448,192,38627,1,0,0:0:0:0:
320,192,38841,1,0,0:0:0:0:
192,192,38948,1,0,0:0:0:0:
64,192,39055,1,2,0:0:0:0:
320,192,39055,1,8,0:0:0:0:
448,192,39055,1,0,0:0:0:0:
192,192,39162,1,0,0:0:0:0:
448,192,39270,1,0,0:0:0:0:
192,192,39377,1,0,0:0:0:0:
64,192,39484,128,2,39698:0:0:0:0:
448,192,39484,1,0,0:0:0:0:
448,192,39698,128,0,39912:0:0:0:0:
64,192,39912,128,0,40127:0:0:0:0:
320,192,40127,128,0,40341:0:0:0:0:
192,192,40341,128,0,40555:0:0:0:0:
448,192,40555,128,0,40770:0:0:0:0:
64,192,40770,1,0,0:0:0:100:S2.wav
192,192,40770,1,0,0:0:0:0:
320,192,40823,1,0,0:0:0:100:S2.wav
64,192,40877,1,0,0:0:0:100:S2.wav
448,192,40877,1,0,0:0:0:0:
192,192,40930,1,0,0:0:0:100:S2.wav
320,192,40984,1,0,0:0:0:100:S2.wav
448,192,40984,1,0,0:0:0:0:
64,192,41091,1,0,0:0:0:100:S2.wav
192,192,41091,1,0,0:0:0:0:
320,192,41145,1,0,0:0:0:100:S2.wav
64,192,41198,1,0,0:0:0:50:LS-HK Distorted Kick 51.wav
448,192,41198,1,0,0:0:0:0:
192,192,41270,1,0,0:0:0:0:
320,192,41341,1,0,0:0:0:0:
64,192,41412,128,0,41520:0:0:0:0:
64,192,41627,128,0,41734:0:0:0:50:LS-HK Distorted Kick 51.wav
192,192,41627,1,0,0:0:0:0:
64,192,41841,128,0,41948:0:0:0:50:LS-HK Distorted Kick 51.wav
192,192,41841,1,0,0:0:0:0:
448,192,41841,1,0,0:0:0:0:
64,192,42055,128,0,42162:0:0:0:70:LR4_KickHDSK.wav
320,192,42055,1,0,0:0:0:0:
64,192,42270,1,0,0:0:0:70:LR4_KickHDSK.wav
192,192,42270,1,0,0:0:0:0:
64,192,42484,1,0,0:0:0:70:S_.wav
192,192,42484,1,0,0:0:0:0:
320,192,42484,1,0,0:0:0:0:
448,192,42484,1,0,0:0:0:0:
320,192,42698,128,2,42912:0:0:0:0:
192,192,42805,128,0,42912:0:0:0:0:
64,192,42912,128,2,43127:0:0:0:0:
448,192,42912,128,4,43127:0:0:0:0:
320,192,43127,1,0,0:0:0:0:
320,192,43234,1,0,0:0:0:0:
64,192,43341,1,2,0:0:0:0:
192,192,43341,1,8,0:0:0:0:
448,192,43341,1,0,0:0:0:0:
320,192,43555,1,0,0:0:0:0:
448,192,43662,1,0,0:0:0:0:
64,192,43770,1,2,0:0:0:0:
192,192,43770,1,0,0:0:0:0:
192,192,43984,1,0,0:0:0:0:
192,192,44091,1,0,0:0:0:0:
64,192,44198,1,8,0:0:0:0:
320,192,44198,1,2,0:0:0:0:
448,192,44198,1,0,0:0:0:0:
192,192,44412,1,0,0:0:0:50:SW3.wav
320,192,44520,1,0,0:0:0:50:SW3.wav
64,192,44627,1,2,0:0:0:0:
448,192,44627,1,0,0:0:0:0:
192,192,44841,1,0,0:0:0:0:
192,192,44948,1,0,0:0:0:0:
64,192,45055,1,2,0:0:0:0:
320,192,45055,1,8,0:0:0:0:
448,192,45055,1,0,0:0:0:0:
192,192,45270,1,0,0:0:0:0:
64,192,45377,1,0,0:0:0:0:
320,192,45484,1,2,0:0:0:0:
448,192,45484,1,0,0:0:0:0:
320,192,45698,1,0,0:0:0:0:
320,192,45805,1,0,0:0:0:0:
64,192,45912,1,8,0:0:0:0:
192,192,45912,1,2,0:0:0:0:
448,192,45912,1,0,0:0:0:0:
320,192,46127,1,0,0:0:0:30:SW4.wav
192,192,46234,1,0,0:0:0:30:SW4.wav
64,192,46341,1,2,0:0:0:0:
448,192,46341,1,0,0:0:0:0:
64,192,46555,1,0,0:0:0:0:
64,192,46662,1,0,0:0:0:0:
192,192,46770,1,2,0:0:0:0:
320,192,46770,1,8,0:0:0:0:
448,192,46770,1,0,0:0:0:0:
192,192,46984,1,0,0:0:0:0:
64,192,47091,1,0,0:0:0:0:
320,192,47198,1,2,0:0:0:0:
448,192,47198,1,0,0:0:0:0:
320,192,47412,1,0,0:0:0:0:
320,192,47520,1,0,0:0:0:0:
64,192,47627,1,8,0:0:0:0:
192,192,47627,1,2,0:0:0:0:
448,192,47627,1,0,0:0:0:0:
192,192,47841,1,0,0:0:0:50:SW3.wav
320,192,47948,1,0,0:0:0:50:SW3.wav
64,192,48055,1,2,0:0:0:0:
448,192,48055,1,0,0:0:0:0:
448,192,48270,1,0,0:0:0:0:
448,192,48377,1,0,0:0:0:0:
64,192,48484,1,2,0:0:0:0:
192,192,48484,1,8,0:0:0:0:
320,192,48484,1,0,0:0:0:0:
320,192,48698,1,0,0:0:0:0:
448,192,48805,1,0,0:0:0:0:
64,192,48912,1,2,0:0:0:0:
192,192,48912,1,0,0:0:0:0:
192,192,49127,1,0,0:0:0:0:
192,192,49234,1,0,0:0:0:0:
64,192,49341,1,8,0:0:0:0:
320,192,49341,1,2,0:0:0:0:
448,192,49341,1,0,0:0:0:0:
320,192,49555,1,0,0:0:0:30:SW4.wav
192,192,49662,1,0,0:0:0:30:SW4.wav
64,192,49770,1,2,0:0:0:0:
448,192,49770,1,0,0:0:0:0:
192,192,49984,1,0,0:0:0:0:
192,192,50091,1,0,0:0:0:0:
64,192,50198,1,2,0:0:0:0:
320,192,50198,1,8,0:0:0:0:
448,192,50198,1,0,0:0:0:0:
192,192,50412,1,0,0:0:0:0:
64,192,50520,1,0,0:0:0:0:
320,192,50627,1,2,0:0:0:0:
448,192,50627,1,0,0:0:0:0:
320,192,50841,1,0,0:0:0:0:
320,192,50948,1,0,0:0:0:0:
64,192,51055,1,8,0:0:0:0:
192,192,51055,1,2,0:0:0:0:
448,192,51055,1,0,0:0:0:0:
192,192,51270,1,0,0:0:0:50:SW3.wav
320,192,51377,1,0,0:0:0:50:SW3.wav
64,192,51484,1,2,0:0:0:0:
448,192,51484,1,0,0:0:0:0:
320,192,51698,1,0,0:0:0:0:
320,192,51805,1,0,0:0:0:0:
64,192,51912,1,2,0:0:0:0:
192,192,51912,1,8,0:0:0:0:
448,192,51912,1,0,0:0:0:0:
320,192,52127,1,0,0:0:0:0:
448,192,52234,1,0,0:0:0:0:
64,192,52341,1,2,0:0:0:0:
192,192,52341,1,0,0:0:0:0:
192,192,52555,1,0,0:0:0:0:
192,192,52662,1,0,0:0:0:0:
64,192,52770,1,8,0:0:0:0:
320,192,52770,1,2,0:0:0:0:
448,192,52770,1,0,0:0:0:0:
320,192,52984,1,0,0:0:0:30:SW4.wav
192,192,53091,1,0,0:0:0:30:SW4.wav
64,192,53198,1,2,0:0:0:0:
448,192,53198,1,0,0:0:0:0:
448,192,53412,1,0,0:0:0:0:
448,192,53520,1,0,0:0:0:0:
64,192,53627,1,2,0:0:0:0:
192,192,53627,1,8,0:0:0:0:
320,192,53627,1,0,0:0:0:0:
320,192,53841,1,0,0:0:0:0:
448,192,53948,1,0,0:0:0:0:
64,192,54055,1,2,0:0:0:0:
192,192,54055,1,0,0:0:0:0:
192,192,54270,1,0,0:0:0:0:
192,192,54377,1,0,0:0:0:0:
64,192,54484,1,2,0:0:0:0:
320,192,54484,1,8,0:0:0:0:
448,192,54484,1,0,0:0:0:0:
192,192,54698,1,0,0:0:0:50:SW3.wav
320,192,54805,1,0,0:0:0:50:SW3.wav
64,192,54912,1,2,0:0:0:0:
448,192,54912,1,0,0:0:0:0:
64,192,55127,1,0,0:0:0:0:
64,192,55234,1,0,0:0:0:0:
192,192,55341,1,2,0:0:0:0:
320,192,55341,1,8,0:0:0:0:
448,192,55341,1,0,0:0:0:0:
448,192,55555,128,0,55662:0:0:0:0:
320,192,55770,1,2,0:0:0:0:
448,192,55770,128,0,55877:0:0:0:0:
192,192,55984,1,0,0:0:0:30:SW4.wav
448,192,55984,1,0,0:0:0:0:
64,192,56198,128,0,56520:0:0:0:70:S_.wav
192,192,56198,128,0,56520:0:0:0:0:
320,192,56198,128,0,56520:0:0:0:0:
448,192,56198,128,0,56520:0:0:0:0:
64,192,56627,128,0,56841:0:0:0:0:
448,192,56627,128,0,56841:0:0:0:70:LR_Snare Drum 3.wav
320,192,56841,128,0,56948:0:0:0:70:LR_Snare Drum 2.wav
192,192,57055,128,0,57162:0:0:0:70:S1.wav
64,192,57270,128,0,57377:0:0:0:70:LR_Snare Drum 3.wav
320,192,57377,128,0,57484:0:0:0:70:LR_Snare Drum 2.wav
192,192,57484,1,0,0:0:0:0:
192,192,57591,128,0,57698:0:0:0:70:S1.wav
448,192,57698,1,0,0:0:0:0:
448,192,57805,128,0,57912:0:0:0:70:LR_Snare Drum 3.wav
64,192,57912,1,0,0:0:0:0:
64,192,58020,128,0,58127:0:0:0:70:LR_Snare Drum 3.wav
320,192,58127,1,0,0:0:0:70:LR_Snare Drum 2.wav
320,192,58234,1,0,0:0:0:70:LR_Snare Drum 2.wav
448,192,58341,1,0,0:0:0:70:LR_Snare Drum 3.wav
64,192,58341,1,0,0:0:0:0:
64,192,58448,1,0,0:0:0:0:
320,192,58555,128,0,58662:0:0:0:70:LR_Snare Drum 2.wav
192,192,58662,1,0,0:0:0:0:
192,192,58770,128,0,58877:0:0:0:70:S1.wav
448,192,58877,1,0,0:0:0:0:
64,192,58984,128,0,59091:0:0:0:70:LR_Snare Drum 3.wav
320,192,59091,128,0,59198:0:0:0:70:LR_Snare Drum 2.wav
192,192,59198,1,0,0:0:0:0:
192,192,59305,128,0,59412:0:0:0:70:S1.wav
448,192,59412,1,0,0:0:0:0:
448,192,59520,128,0,59627:0:0:0:70:LR_Snare Drum 3.wav
64,192,59627,1,0,0:0:0:0:
64,192,59734,128,0,59841:0:0:0:70:LR_Snare Drum 3.wav
192,192,59841,1,0,0:0:0:70:S1.wav
192,192,59948,1,0,0:0:0:70:S1.wav
64,192,60055,128,0,60270:0:0:0:0:
448,192,60055,128,0,60270:0:0:0:70:LR_Snare Drum 3.wav
192,192,60270,128,0,60377:0:0:0:70:LR_Snare Drum 2.wav
320,192,60484,128,0,60591:0:0:0:70:S1.wav
448,192,60698,128,0,60805:0:0:0:70:LR_Snare Drum 3.wav
192,192,60805,128,0,60912:0:0:0:70:LR_Snare Drum 2.wav
320,192,60912,1,0,0:0:0:0:
320,192,61020,128,0,61127:0:0:0:70:S1.wav
64,192,61127,1,0,0:0:0:0:
64,192,61234,128,0,61341:0:0:0:70:LR_Snare Drum 3.wav
448,192,61341,1,0,0:0:0:0:
448,192,61448,128,0,61555:0:0:0:70:LR_Snare Drum 3.wav
192,192,61555,1,0,0:0:0:70:LR_Snare Drum 2.wav
192,192,61662,1,0,0:0:0:70:LR_Snare Drum 2.wav
64,192,61770,1,0,0:0:0:70:LR_Snare Drum 3.wav
448,192,61770,1,0,0:0:0:0:
448,192,61877,1,0,0:0:0:0:
192,192,61984,128,0,62091:0:0:0:70:LR_Snare Drum 2.wav
320,192,62091,1,0,0:0:0:0:
320,192,62198,128,0,62305:0:0:0:70:S1.wav
64,192,62305,1,0,0:0:0:0:
448,192,62412,128,0,62520:0:0:0:70:LR_Snare Drum 3.wav
192,192,62520,128,0,62627:0:0:0:70:LR_Snare Drum 2.wav
320,192,62627,1,0,0:0:0:0:
320,192,62734,128,0,62841:0:0:0:70:S1.wav
64,192,62841,1,0,0:0:0:0:
64,192,62948,128,0,63055:0:0:0:70:LR_Snare Drum 3.wav
448,192,63055,1,0,0:0:0:0:
448,192,63162,128,0,63270:0:0:0:70:LR_Snare Drum 3.wav
320,192,63270,1,0,0:0:0:70:S1.wav
320,192,63377,1,0,0:0:0:70:S1.wav
64,192,63484,128,0,63698:0:0:0:70:LR_Snare Drum 3.wav
448,192,63484,128,0,63698:0:0:0:0:
320,192,63698,128,0,63805:0:0:0:70:LR_Snare Drum 2.wav
192,192,63912,128,0,64020:0:0:0:70:S1.wav
64,192,64127,128,0,64234:0:0:0:70:LR_Snare Drum 3.wav
320,192,64234,128,0,64341:0:0:0:70:LR_Snare Drum 2.wav
192,192,64341,1,0,0:0:0:0:
192,192,64448,128,0,64555:0:0:0:70:S1.wav
448,192,64555,1,0,0:0:0:0:
448,192,64662,128,0,64770:0:0:0:70:LR_Snare Drum 3.wav
64,192,64770,1,0,0:0:0:0:
64,192,64877,128,0,64984:0:0:0:70:LR_Snare Drum 3.wav
320,192,64984,1,0,0:0:0:70:LR_Snare Drum 2.wav
320,192,65091,1,0,0:0:0:70:LR_Snare Drum 2.wav
448,192,65198,1,0,0:0:0:70:LR_Snare Drum 3.wav
64,192,65198,1,0,0:0:0:0:
64,192,65305,1,0,0:0:0:0:
320,192,65412,128,0,65520:0:0:0:70:LR_Snare Drum 2.wav
192,192,65520,1,0,0:0:0:0:
192,192,65627,128,0,65734:0:0:0:70:S1.wav
448,192,65734,5,0,0:0:0:0:
64,192,65841,128,0,65948:0:0:0:70:LR_Snare Drum 3.wav
320,192,65948,128,0,66055:0:0:0:70:LR_Snare Drum 2.wav
192,192,66055,1,0,0:0:0:0:
192,192,66162,128,0,66270:0:0:0:70:S1.wav
448,192,66270,1,0,0:0:0:0:
448,192,66377,128,0,66484:0:0:0:70:LR_Snare Drum 3.wav
64,192,66484,1,0,0:0:0:0:
64,192,66591,128,0,66698:0:0:0:70:LR_Snare Drum 3.wav
192,192,66698,1,0,0:0:0:70:S1.wav
192,192,66805,1,0,0:0:0:70:S1.wav
448,192,66912,128,0,67127:0:0:0:0:
64,192,66912,128,0,67127:0:0:0:100:S2.wav
320,192,67127,1,0,0:0:0:100:S2.wav
192,192,67127,128,0,67234:0:0:0:0:
64,192,67341,1,0,0:0:0:100:S2.wav
448,192,67341,128,0,67448:0:0:0:0:
64,192,67555,1,0,0:0:0:100:S2.wav
192,192,67555,128,0,67662:0:0:0:0:
320,192,67662,1,0,0:0:0:0:
64,192,67770,1,0,0:0:0:100:S2.wav
448,192,67770,1,0,0:0:0:0:
192,192,67823,1,0,0:0:0:100:S2.wav
448,192,67877,1,0,0:0:0:100:S2.wav
320,192,67930,1,0,0:0:0:100:S2.wav
64,192,67984,1,0,0:0:0:100:S2.wav
192,192,67984,1,0,0:0:0:0:
320,192,68091,1,0,0:0:0:100:S2.wav
448,192,68091,1,0,0:0:0:0:
64,192,68198,1,0,0:0:0:100:S2.wav
448,192,68198,1,0,0:0:0:0:
320,192,68252,1,0,0:0:0:100:S2.wav
64,192,68305,1,0,0:0:0:100:S2.wav
192,192,68359,1,0,0:0:0:100:S2.wav
320,192,68412,1,0,0:0:0:100:S2.wav
448,192,68412,1,0,0:0:0:0:
64,192,68520,1,0,0:0:0:100:S2.wav
192,192,68520,1,0,0:0:0:0:
320,192,68573,1,0,0:0:0:100:S2.wav
64,192,68627,1,0,0:0:0:50:LS-HK Distorted Kick 51.wav
192,192,68627,1,0,0:0:0:0:
448,192,68627,1,0,0:0:0:0:
64,192,69055,128,0,69162:0:0:0:70:S1.wav
448,192,69055,128,0,69162:0:0:0:0:
320,192,69270,1,0,0:0:0:70:LR_Snare Drum 2.wav
448,192,69270,1,0,0:0:0:0:
64,192,69484,128,0,69698:0:0:0:0:
448,192,69484,128,0,69698:0:0:0:0:
192,192,69698,1,0,0:0:0:0:
320,192,69805,1,0,0:0:0:0:
64,192,69912,128,0,70234:0:0:0:70:S_.wav
192,192,69912,128,0,70234:0:0:0:0:
320,192,69912,128,0,70234:0:0:0:0:
448,192,69912,128,0,70234:0:0:0:0:
64,192,70341,128,2,70555:0:0:0:0:
192,192,70341,1,4,0:0:0:0:
448,192,70341,128,0,70555:0:0:0:0:
320,192,70555,1,0,0:0:0:0:
320,192,70662,1,0,0:0:0:0:
64,192,70770,1,2,0:0:0:0:
192,192,70770,1,8,0:0:0:0:
448,192,70770,1,0,0:0:0:0:
448,192,70984,128,0,71198:0:0:0:0:
320,192,71091,128,0,71198:0:0:0:0:
64,192,71198,128,2,71412:0:0:0:0:
192,192,71198,1,0,0:0:0:0:
192,192,71412,1,0,0:0:0:50:SW1.wav
192,192,71520,1,0,0:0:0:50:SW1.wav
64,192,71627,1,8,0:0:0:0:
320,192,71627,1,2,0:0:0:0:
448,192,71627,1,0,0:0:0:0:
320,192,71841,1,0,0:0:0:50:SW2.wav
448,192,71841,1,0,0:0:0:0:
320,192,71948,1,0,0:0:0:50:SW2.wav
448,192,71948,1,0,0:0:0:0:
64,192,72055,1,2,0:0:0:0:
448,192,72055,128,0,72270:0:0:0:0:
320,192,72270,1,0,0:0:0:0:
320,192,72377,1,0,0:0:0:0:
64,192,72484,1,2,0:0:0:0:
192,192,72484,1,8,0:0:0:0:
448,192,72484,1,0,0:0:0:0:
448,192,72698,128,0,72912:0:0:0:0:
320,192,72805,128,0,72912:0:0:0:0:
64,192,72912,128,2,73127:0:0:0:0:
192,192,72912,1,0,0:0:0:0:
192,192,73127,1,0,0:0:0:50:SW1.wav
192,192,73234,1,0,0:0:0:50:SW1.wav
64,192,73341,1,8,0:0:0:0:
320,192,73341,1,2,0:0:0:0:
448,192,73341,1,0,0:0:0:0:
64,192,73555,1,0,0:0:0:50:SW2.wav
192,192,73555,1,0,0:0:0:0:
64,192,73662,1,0,0:0:0:50:SW2.wav
192,192,73662,1,0,0:0:0:0:
64,192,73770,1,2,0:0:0:0:
448,192,73770,128,0,73984:0:0:0:0:
64,192,73984,1,0,0:0:0:0:
64,192,74091,1,0,0:0:0:0:
192,192,74198,1,2,0:0:0:0:
320,192,74198,1,8,0:0:0:0:
448,192,74198,1,0,0:0:0:0:
64,192,74412,128,0,74627:0:0:0:0:
192,192,74520,128,0,74627:0:0:0:0:
320,192,74627,1,2,0:0:0:0:
448,192,74627,128,0,74841:0:0:0:0:
320,192,74841,1,0,0:0:0:50:SW1.wav
320,192,74948,1,0,0:0:0:50:SW1.wav
64,192,75055,1,8,0:0:0:0:
192,192,75055,1,2,0:0:0:0:
448,192,75055,1,0,0:0:0:0:
320,192,75270,1,0,0:0:0:50:SW2.wav
448,192,75270,1,0,0:0:0:0:
320,192,75377,1,0,0:0:0:50:SW2.wav
448,192,75377,1,0,0:0:0:0:
64,192,75484,128,2,75698:0:0:0:0:
448,192,75484,1,0,0:0:0:0:
448,192,75698,1,0,0:0:0:0:
448,192,75805,1,0,0:0:0:0:
64,192,75912,1,2,0:0:0:0:
192,192,75912,1,8,0:0:0:0:
320,192,75912,1,0,0:0:0:0:
448,192,76127,128,0,76341:0:0:0:0:
320,192,76234,128,0,76341:0:0:0:0:
64,192,76341,128,2,76555:0:0:0:0:
192,192,76341,1,0,0:0:0:0:
192,192,76555,1,0,0:0:0:50:SW1.wav
192,192,76662,1,0,0:0:0:50:SW1.wav
64,192,76770,1,8,0:0:0:0:
320,192,76770,1,2,0:0:0:0:
448,192,76770,1,0,0:0:0:0:
64,192,76984,1,0,0:0:0:50:SW2.wav
192,192,76984,1,0,0:0:0:0:
64,192,77091,1,0,0:0:0:50:SW2.wav
192,192,77091,1,0,0:0:0:0:
64,192,77198,128,2,77412:0:0:0:0:
320,192,77198,1,0,0:0:0:0:
448,192,77198,128,0,77412:0:0:0:0:
192,192,77412,1,0,0:0:0:0:
192,192,77520,1,0,0:0:0:0:
64,192,77627,1,2,0:0:0:0:
320,192,77627,1,8,0:0:0:0:
448,192,77627,1,0,0:0:0:0:
64,192,77841,128,0,78055:0:0:0:0:
192,192,77948,128,0,78055:0:0:0:0:
320,192,78055,1,2,0:0:0:0:
448,192,78055,128,0,78270:0:0:0:0:
320,192,78270,1,0,0:0:0:50:SW1.wav
320,192,78377,1,0,0:0:0:50:SW1.wav
64,192,78484,1,8,0:0:0:0:
192,192,78484,1,2,0:0:0:0:
448,192,78484,1,0,0:0:0:0:
320,192,78698,1,0,0:0:0:50:SW2.wav
448,192,78698,1,0,0:0:0:0:
320,192,78805,1,0,0:0:0:50:SW2.wav
448,192,78805,1,0,0:0:0:0:
64,192,78912,128,2,79127:0:0:0:0:
448,192,78912,1,0,0:0:0:0:
192,192,79127,1,0,0:0:0:0:
192,192,79234,1,0,0:0:0:0:
64,192,79341,1,2,0:0:0:0:
320,192,79341,1,8,0:0:0:0:
448,192,79341,1,0,0:0:0:0:
64,192,79555,128,0,79770:0:0:0:0:
192,192,79662,128,0,79770:0:0:0:0:
320,192,79770,1,2,0:0:0:0:
448,192,79770,128,0,79984:0:0:0:0:
320,192,79984,1,0,0:0:0:50:SW1.wav
320,192,80091,1,0,0:0:0:50:SW1.wav
64,192,80198,1,8,0:0:0:0:
192,192,80198,1,2,0:0:0:0:
448,192,80198,1,0,0:0:0:0:
64,192,80412,1,0,0:0:0:50:SW2.wav
192,192,80412,1,0,0:0:0:0:
64,192,80520,1,0,0:0:0:50:SW2.wav
192,192,80520,1,0,0:0:0:0:
64,192,80627,128,2,80841:0:0:0:0:
448,192,80627,1,0,0:0:0:0:
448,192,80841,1,0,0:0:0:0:
448,192,80948,1,0,0:0:0:0:
64,192,81055,1,2,0:0:0:0:
192,192,81055,1,8,0:0:0:0:
320,192,81055,1,0,0:0:0:0:
448,192,81270,128,0,81484:0:0:0:0:
320,192,81377,128,0,81484:0:0:0:0:
64,192,81484,128,2,81698:0:0:0:0:
192,192,81484,1,0,0:0:0:0:
192,192,81698,1,0,0:0:0:50:SW1.wav
192,192,81805,1,0,0:0:0:50:SW1.wav
64,192,81912,1,2,0:0:0:0:
320,192,81912,1,8,0:0:0:0:
448,192,81912,1,0,0:0:0:0:
320,192,82127,1,0,0:0:0:50:SW2.wav
448,192,82127,1,0,0:0:0:0:
320,192,82234,1,0,0:0:0:50:SW2.wav
448,192,82234,1,0,0:0:0:0:
64,192,82341,1,2,0:0:0:0:
448,192,82341,128,0,82555:0:0:0:0:
64,192,82555,1,0,0:0:0:0:
64,192,82662,1,0,0:0:0:0:
192,192,82770,1,2,0:0:0:0:
320,192,82770,1,8,0:0:0:0:
448,192,82770,1,0,0:0:0:0:
64,192,82984,128,0,83198:0:0:0:0:
192,192,83091,128,0,83198:0:0:0:0:
320,192,83198,1,2,0:0:0:0:
448,192,83198,128,0,83412:0:0:0:0:
320,192,83412,1,0,0:0:0:50:SW1.wav
320,192,83520,1,0,0:0:0:50:SW1.wav
64,192,83627,1,2,0:0:0:0:
192,192,83627,1,0,0:0:0:0:
448,192,83627,1,0,0:0:0:0:
64,192,83841,1,0,0:0:0:50:SW2.wav
192,192,83841,1,0,0:0:0:0:
64,192,83948,1,0,0:0:0:50:SW2.wav
192,192,83948,1,0,0:0:0:0:
64,192,84055,128,2,84270:0:0:0:0:
448,192,84055,1,0,0:0:0:0:
320,192,84270,1,0,0:0:0:0:
320,192,84377,1,0,0:0:0:0:
64,192,84484,1,2,0:0:0:0:
192,192,84484,128,8,84698:0:0:0:0:
448,192,84484,1,0,0:0:0:0:
320,192,84698,1,0,0:0:0:0:
192,192,84805,1,0,0:0:0:0:
64,192,84912,1,2,0:0:0:0:
448,192,84912,128,0,85127:0:0:0:0:
192,192,85127,1,0,0:0:0:0:
192,192,85234,1,0,0:0:0:0:
64,192,85341,1,2,0:0:0:0:
320,192,85341,128,8,85555:0:0:0:0:
448,192,85341,1,0,0:0:0:0:
192,192,85555,1,0,0:0:0:0:
320,192,85662,1,0,0:0:0:0:
64,192,85770,128,2,85984:0:0:0:0:
448,192,85770,1,0,0:0:0:0:
192,192,85984,1,0,0:0:0:0:
192,192,86091,1,0,0:0:0:0:
64,192,86198,1,2,0:0:0:0:
320,192,86198,128,8,86412:0:0:0:0:
448,192,86198,1,0,0:0:0:0:
192,192,86412,1,0,0:0:0:0:
320,192,86520,1,0,0:0:0:0:
64,192,86627,1,2,0:0:0:0:
448,192,86627,128,0,86841:0:0:0:0:
320,192,86841,1,0,0:0:0:0:
320,192,86948,1,0,0:0:0:0:
64,192,87055,1,2,0:0:0:0:
192,192,87055,128,8,87270:0:0:0:0:
448,192,87055,1,0,0:0:0:0:
320,192,87270,1,0,0:0:0:0:
192,192,87377,1,0,0:0:0:0:
64,192,87484,128,2,87698:0:0:0:0:
448,192,87484,1,0,0:0:0:0:
320,192,87698,1,0,0:0:0:0:
320,192,87805,1,0,0:0:0:0:
64,192,87912,1,2,0:0:0:0:
192,192,87912,128,8,88127:0:0:0:0:
448,192,87912,1,0,0:0:0:0:
320,192,88127,1,0,0:0:0:0:
192,192,88234,1,0,0:0:0:0:
64,192,88341,1,2,0:0:0:0:
448,192,88341,128,0,88555:0:0:0:0:
192,192,88555,1,0,0:0:0:0:
192,192,88662,1,0,0:0:0:0:
64,192,88770,1,2,0:0:0:0:
320,192,88770,128,8,88984:0:0:0:0:
448,192,88770,1,0,0:0:0:0:
192,192,88984,1,0,0:0:0:0:
320,192,89091,1,0,0:0:0:0:
64,192,89198,128,2,89412:0:0:0:0:
448,192,89198,1,0,0:0:0:0:
192,192,89412,1,0,0:0:0:0:
192,192,89520,1,0,0:0:0:0:
64,192,89627,1,2,0:0:0:0:
320,192,89627,128,8,89841:0:0:0:0:
448,192,89627,1,0,0:0:0:0:
192,192,89841,1,0,0:0:0:0:
320,192,89948,1,0,0:0:0:0:
64,192,90055,1,2,0:0:0:0:
448,192,90055,128,0,90270:0:0:0:0:
320,192,90270,1,0,0:0:0:0:
320,192,90377,1,0,0:0:0:0:
64,192,90484,1,2,0:0:0:0:
192,192,90484,128,8,90698:0:0:0:0:
448,192,90484,1,0,0:0:0:0:
320,192,90698,1,0,0:0:0:0:
192,192,90805,1,0,0:0:0:0:
64,192,90912,128,2,91127:0:0:0:0:
448,192,90912,1,0,0:0:0:0:
192,192,91127,1,0,0:0:0:0:
320,192,91234,1,0,0:0:0:0:
64,192,91341,1,2,0:0:0:0:
192,192,91341,128,8,91555:0:0:0:0:
448,192,91341,1,0,0:0:0:0:
320,192,91555,1,0,0:0:0:0:
192,192,91662,1,0,0:0:0:0:
64,192,91770,1,2,0:0:0:0:
448,192,91770,128,0,91984:0:0:0:0:
320,192,91984,1,0,0:0:0:0:
192,192,92091,1,0,0:0:0:0:
64,192,92198,1,8,0:0:0:0:
320,192,92198,128,2,92412:0:0:0:0:
448,192,92198,1,0,0:0:0:0:
192,192,92412,1,0,0:0:0:0:
320,192,92520,1,0,0:0:0:0:
64,192,92627,128,2,92841:0:0:0:0:
448,192,92627,1,0,0:0:0:0:
320,192,92841,1,0,0:0:0:0:
192,192,92948,1,0,0:0:0:0:
64,192,93055,1,2,0:0:0:0:
320,192,93055,128,8,93270:0:0:0:0:
448,192,93055,1,0,0:0:0:0:
192,192,93270,1,0,0:0:0:0:
320,192,93377,1,0,0:0:0:0:
64,192,93484,1,2,0:0:0:0:
448,192,93484,128,0,93698:0:0:0:0:
192,192,93698,1,0,0:0:0:0:
320,192,93805,1,0,0:0:0:0:
64,192,93912,1,8,0:0:0:0:
192,192,93912,128,2,94127:0:0:0:0:
448,192,93912,1,0,0:0:0:0:
320,192,94127,1,0,0:0:0:0:
192,192,94234,1,0,0:0:0:0:
64,192,94341,1,0,0:0:0:100:S2.wav
448,192,94341,1,0,0:0:0:0:
64,192,94555,1,0,0:0:0:100:S2.wav
448,192,94555,1,0,0:0:0:0:
64,192,94770,1,8,0:0:0:0:
448,192,94770,1,0,0:0:0:100:S2.wav
64,192,94984,1,0,0:0:0:100:S2.wav
448,192,94984,1,0,0:0:0:0:
64,192,95198,1,0,0:0:0:100:S2.wav
192,192,95198,1,0,0:0:0:0:
320,192,95252,1,0,0:0:0:100:S2.wav
64,192,95305,1,0,0:0:0:100:S2.wav
448,192,95305,1,0,0:0:0:0:
192,192,95359,1,0,0:0:0:100:S2.wav
320,192,95412,1,0,0:0:0:100:S2.wav
448,192,95412,1,0,0:0:0:0:
64,192,95520,1,0,0:0:0:100:S2.wav
192,192,95520,1,0,0:0:0:0:
320,192,95627,1,8,0:0:0:0:
448,192,95627,1,0,0:0:0:100:S2.wav
192,192,95680,1,0,0:0:0:100:S2.wav
64,192,95734,1,0,0:0:0:100:S2.wav
448,192,95734,1,0,0:0:0:0:
320,192,95787,1,0,0:0:0:100:S2.wav
192,192,95841,1,0,0:0:0:100:S2.wav
64,192,95948,1,0,0:0:0:0:
320,192,96055,1,0,0:0:0:0:
320,192,96162,1,0,0:0:0:0:
64,192,96270,1,0,0:0:0:50:LS-HK Distorted Kick 51.wav
192,192,96270,1,0,0:0:0:0:
448,192,96270,1,0,0:0:0:0:
192,192,96377,1,0,0:0:0:0:
64,192,96484,1,0,0:0:0:50:LS-HK Distorted Kick 51.wav
320,192,96484,1,0,0:0:0:0:
448,192,96484,1,0,0:0:0:0:
320,192,96698,128,0,96912:0:0:0:0:
64,192,96912,1,0,0:0:0:70:LR4_KickHDSK.wav
192,192,96912,1,0,0:0:0:0:
448,192,96912,1,0,0:0:0:0:
64,192,97341,1,0,0:0:0:70:S_.wav
192,192,97341,1,0,0:0:0:0:
320,192,97341,1,0,0:0:0:0:
448,192,97341,1,0,0:0:0:0:
64,192,97555,128,0,97662:0:0:0:0:
192,192,97555,128,0,97662:0:0:0:0:
320,192,97555,128,0,97662:0:0:0:0:
448,192,97555,128,0,97662:0:0:0:0:
64,192,97770,1,2,0:0:0:0:
192,192,97770,1,4,0:0:0:0:
448,192,97770,128,0,98091:0:0:0:0:
320,192,97770,1,0,0:0:0:0:
192,192,97984,1,0,0:0:0:0:
192,192,98091,1,0,0:0:0:0:
64,192,98198,1,2,0:0:0:0:
320,192,98198,1,0,0:0:0:0:
448,192,98198,128,0,98627:0:0:0:0:
192,192,98412,1,0,0:0:0:0:
320,192,98520,1,0,0:0:0:0:
64,192,98627,128,2,98948:0:0:0:0:
192,192,98627,1,0,0:0:0:0:
320,192,98841,1,0,0:0:0:0:
192,192,98948,1,0,0:0:0:0:
64,192,99055,1,2,0:0:0:0:
320,192,99055,128,0,99270:0:0:0:0:
448,192,99055,1,0,0:0:0:0:
64,192,99270,128,0,99484:0:0:0:0:
320,192,99377,1,0,0:0:0:0:
192,192,99484,1,2,0:0:0:0:
448,192,99484,128,0,99805:0:0:0:0:
192,192,99698,1,0,0:0:0:0:
192,192,99805,1,0,0:0:0:0:
64,192,99912,1,2,0:0:0:0:
320,192,99912,1,0,0:0:0:0:
448,192,99912,128,0,100341:0:0:0:0:
192,192,100127,1,0,0:0:0:0:
320,192,100234,1,0,0:0:0:0:
64,192,100341,128,2,100662:0:0:0:0:
192,192,100341,1,0,0:0:0:0:
448,192,100555,1,0,0:0:0:0:
192,192,100662,1,0,0:0:0:0:
64,192,100770,1,2,0:0:0:0:
320,192,100770,1,0,0:0:0:0:
448,192,100770,128,0,100984:0:0:0:0:
192,192,100984,128,0,101198:0:0:0:0:
320,192,101091,1,0,0:0:0:0:
64,192,101198,128,2,101520:0:0:0:0:
448,192,101198,1,0,0:0:0:0:
320,192,101412,1,0,0:0:0:0:
320,192,101520,1,0,0:0:0:0:
64,192,101627,128,2,102055:0:0:0:0:
192,192,101627,1,0,0:0:0:0:
448,192,101627,1,0,0:0:0:0:
320,192,101841,1,0,0:0:0:0:
192,192,101948,1,0,0:0:0:0:
320,192,102055,1,2,0:0:0:0:
448,192,102055,128,0,102377:0:0:0:0:
192,192,102270,1,0,0:0:0:0:
320,192,102377,1,0,0:0:0:0:
64,192,102484,1,2,0:0:0:0:
192,192,102484,128,0,102698:0:0:0:0:
448,192,102484,1,0,0:0:0:0:
448,192,102698,128,0,102912:0:0:0:0:
192,192,102805,1,0,0:0:0:0:
64,192,102912,128,2,103234:0:0:0:0:
320,192,102912,1,0,0:0:0:0:
320,192,103127,1,0,0:0:0:0:
320,192,103234,1,0,0:0:0:0:
64,192,103341,128,2,103770:0:0:0:0:
192,192,103341,1,0,0:0:0:0:
448,192,103341,1,0,0:0:0:0:
320,192,103555,1,0,0:0:0:0:
192,192,103662,1,0,0:0:0:0:
320,192,103770,1,2,0:0:0:0:
448,192,103770,128,0,104091:0:0:0:0:
64,192,103984,1,0,0:0:0:0:
320,192,104091,1,0,0:0:0:0:
64,192,104198,128,2,104412:0:0:0:0:
192,192,104198,1,0,0:0:0:0:
448,192,104198,1,0,0:0:0:0:
320,192,104412,128,0,104627:0:0:0:0:
192,192,104520,1,0,0:0:0:0:
64,192,104627,1,2,0:0:0:0:
448,192,104627,128,0,104948:0:0:0:0:
192,192,104841,1,0,0:0:0:0:
192,192,104948,1,0,0:0:0:0:
64,192,105055,1,2,0:0:0:0:
320,192,105055,1,8,0:0:0:0:
448,192,105055,128,0,105484:0:0:0:0:
192,192,105270,1,0,0:0:0:0:
320,192,105377,1,0,0:0:0:0:
64,192,105484,128,2,105805:0:0:0:0:
192,192,105484,1,0,0:0:0:0:
320,192,105698,1,0,0:0:0:0:
192,192,105805,1,0,0:0:0:0:
64,192,105912,1,2,0:0:0:0:
320,192,105912,128,8,106127:0:0:0:0:
448,192,105912,1,0,0:0:0:0:
64,192,106127,128,0,106341:0:0:0:0:
320,192,106234,1,0,0:0:0:0:
192,192,106341,1,2,0:0:0:0:
448,192,106341,128,0,106662:0:0:0:0:
192,192,106555,1,0,0:0:0:0:
192,192,106662,1,0,0:0:0:0:
64,192,106770,1,2,0:0:0:0:
320,192,106770,1,8,0:0:0:0:
448,192,106770,128,0,107198:0:0:0:0:
192,192,106984,1,0,0:0:0:0:
320,192,107091,1,0,0:0:0:0:
64,192,107198,128,2,107520:0:0:0:0:
192,192,107198,1,0,0:0:0:0:
448,192,107412,1,0,0:0:0:0:
192,192,107520,1,0,0:0:0:0:
64,192,107627,1,2,0:0:0:0:
320,192,107627,1,8,0:0:0:0:
448,192,107627,128,0,107841:0:0:0:0:
192,192,107841,128,0,108055:0:0:0:0:
320,192,107948,1,0,0:0:0:0:
64,192,108055,1,2,0:0:0:0:
448,192,108055,128,0,108270:0:0:0:0:
320,192,108162,128,0,108270:0:0:0:0:
64,192,108270,128,0,108484:0:0:0:0:
192,192,108377,128,0,108484:0:0:0:0:
448,192,108484,128,0,108698:0:0:0:0:
320,192,108591,128,0,108698:0:0:0:0:
64,192,108698,128,0,108912:0:0:0:0:
192,192,108805,128,0,108912:0:0:0:0:
448,192,108912,128,0,109127:0:0:0:0:
320,192,108912,128,0,109127:0:0:0:0:
64,192,109127,128,0,109341:0:0:0:0:
192,192,109234,128,0,109341:0:0:0:0:
320,192,109341,1,0,0:0:0:100:S2.wav
448,192,109341,1,0,0:0:0:0:
192,192,109395,1,0,0:0:0:100:S2.wav
64,192,109448,1,0,0:0:0:100:S2.wav
448,192,109448,1,0,0:0:0:0:
320,192,109502,1,0,0:0:0:100:S2.wav
64,192,109555,1,0,0:0:0:100:S2.wav
192,192,109555,1,0,0:0:0:0:
320,192,109662,1,0,0:0:0:100:S2.wav
448,192,109662,1,0,0:0:0:0:
192,192,109716,1,0,0:0:0:100:S2.wav
64,192,109770,1,0,0:0:0:0:
448,192,109770,1,0,0:0:0:0:
64,192,109877,1,0,0:0:0:0:
192,192,109877,1,0,0:0:0:0:
320,192,109984,1,0,0:0:0:0:
448,192,110055,1,0,0:0:0:0:
64,192,110055,1,0,0:0:0:0:
192,192,110198,1,0,0:0:0:0:
448,192,110198,1,0,0:0:0:0:
64,192,110412,1,0,0:0:0:50:LS-HK Distorted Kick 51.wav
320,192,110412,1,0,0:0:0:0:
448,192,110412,1,0,0:0:0:0:
192,192,110627,1,0,0:0:0:70:LR4_KickHDSK.wav
448,192,110627,128,0,110734:0:0:0:0:
320,192,110841,1,0,0:0:0:70:LR4_KickHDSK.wav
448,192,110841,1,0,0:0:0:0:
64,192,111055,1,0,0:0:0:70:S_.wav
192,192,111055,1,0,0:0:0:0:
320,192,111055,1,0,0:0:0:0:
448,192,111055,1,0,0:0:0:0:
192,192,111270,128,2,111484:0:0:0:0:
320,192,111377,128,0,111484:0:0:0:0:
64,192,111484,128,2,111698:0:0:0:0:
448,192,111484,128,4,111698:0:0:0:0:
192,192,111698,1,0,0:0:0:0:
192,192,111805,1,0,0:0:0:0:
64,192,111912,1,2,0:0:0:0:
320,192,111912,1,8,0:0:0:0:
448,192,111912,1,0,0:0:0:0:
192,192,112127,1,0,0:0:0:0:
64,192,112234,1,0,0:0:0:0:
320,192,112341,1,2,0:0:0:0:
448,192,112341,1,0,0:0:0:0:
320,192,112555,1,0,0:0:0:0:
320,192,112662,1,0,0:0:0:0:
64,192,112770,1,8,0:0:0:0:
192,192,112770,1,2,0:0:0:0:
448,192,112770,1,0,0:0:0:0:
320,192,112984,1,0,0:0:0:50:SW3.wav
192,192,113091,1,0,0:0:0:50:SW3.wav
64,192,113198,1,2,0:0:0:0:
448,192,113198,1,0,0:0:0:0:
320,192,113412,1,0,0:0:0:0:
320,192,113520,1,0,0:0:0:0:
64,192,113627,1,2,0:0:0:0:
192,192,113627,1,8,0:0:0:0:
448,192,113627,1,0,0:0:0:0:
320,192,113841,1,0,0:0:0:0:
448,192,113948,1,0,0:0:0:0:
64,192,114055,1,2,0:0:0:0:
192,192,114055,1,0,0:0:0:0:
192,192,114270,1,0,0:0:0:0:
192,192,114377,1,0,0:0:0:0:
64,192,114484,1,8,0:0:0:0:
320,192,114484,1,2,0:0:0:0:
448,192,114484,1,0,0:0:0:0:
192,192,114698,1,0,0:0:0:30:SW4.wav
320,192,114805,1,0,0:0:0:30:SW4.wav
64,192,114912,1,2,0:0:0:0:
448,192,114912,1,0,0:0:0:0:
448,192,115127,1,0,0:0:0:0:
448,192,115234,1,0,0:0:0:0:
64,192,115341,1,2,0:0:0:0:
192,192,115341,1,8,0:0:0:0:
320,192,115341,1,0,0:0:0:0:
320,192,115555,1,0,0:0:0:0:
448,192,115662,1,0,0:0:0:0:
64,192,115770,1,2,0:0:0:0:
192,192,115770,1,0,0:0:0:0:
192,192,115984,1,0,0:0:0:0:
192,192,116091,1,0,0:0:0:0:
64,192,116198,1,8,0:0:0:0:
320,192,116198,1,2,0:0:0:0:
448,192,116198,1,0,0:0:0:0:
320,192,116412,1,0,0:0:0:50:SW3.wav
192,192,116520,1,0,0:0:0:50:SW3.wav
64,192,116627,1,2,0:0:0:0:
448,192,116627,1,0,0:0:0:0:
64,192,116841,1,0,0:0:0:0:
64,192,116948,1,0,0:0:0:0:
192,192,117055,1,2,0:0:0:0:
320,192,117055,1,8,0:0:0:0:
448,192,117055,1,0,0:0:0:0:
192,192,117270,1,0,0:0:0:0:
64,192,117377,1,0,0:0:0:0:
320,192,117484,1,2,0:0:0:0:
448,192,117484,1,0,0:0:0:0:
320,192,117698,1,0,0:0:0:0:
320,192,117805,1,0,0:0:0:0:
64,192,117912,1,8,0:0:0:0:
192,192,117912,1,2,0:0:0:0:
448,192,117912,1,0,0:0:0:0:
192,192,118127,1,0,0:0:0:30:SW4.wav
320,192,118234,1,0,0:0:0:30:SW4.wav
64,192,118341,1,2,0:0:0:0:
448,192,118341,1,0,0:0:0:0:
320,192,118555,1,0,0:0:0:0:
320,192,118662,1,0,0:0:0:0:
64,192,118770,1,2,0:0:0:0:
192,192,118770,1,8,0:0:0:0:
448,192,118770,1,0,0:0:0:0:
320,192,118984,1,0,0:0:0:0:
448,192,119091,1,0,0:0:0:0:
64,192,119198,1,2,0:0:0:0:
192,192,119198,1,0,0:0:0:0:
192,192,119412,1,0,0:0:0:0:
192,192,119520,1,0,0:0:0:0:
64,192,119627,1,8,0:0:0:0:
320,192,119627,1,2,0:0:0:0:
448,192,119627,1,0,0:0:0:0:
320,192,119841,1,0,0:0:0:50:SW3.wav
192,192,119948,1,0,0:0:0:50:SW3.wav
64,192,120055,1,2,0:0:0:0:
448,192,120055,1,0,0:0:0:0:
192,192,120270,1,0,0:0:0:0:
192,192,120377,1,0,0:0:0:0:
64,192,120484,1,2,0:0:0:0:
320,192,120484,1,8,0:0:0:0:
448,192,120484,1,0,0:0:0:0:
192,192,120698,1,0,0:0:0:0:
64,192,120805,1,0,0:0:0:0:
320,192,120912,1,2,0:0:0:0:
448,192,120912,1,0,0:0:0:0:
320,192,121127,1,0,0:0:0:0:
320,192,121234,1,0,0:0:0:0:
64,192,121341,1,8,0:0:0:0:
192,192,121341,1,2,0:0:0:0:
448,192,121341,1,0,0:0:0:0:
192,192,121555,1,0,0:0:0:30:SW4.wav
320,192,121662,1,0,0:0:0:30:SW4.wav
64,192,121770,1,2,0:0:0:0:
448,192,121770,1,0,0:0:0:0:
64,192,121984,1,0,0:0:0:0:
64,192,122091,1,0,0:0:0:0:
192,192,122198,1,2,0:0:0:0:
320,192,122198,1,8,0:0:0:0:
448,192,122198,1,0,0:0:0:0:
192,192,122412,1,0,0:0:0:0:
64,192,122520,1,0,0:0:0:0:
320,192,122627,1,2,0:0:0:0:
448,192,122627,1,0,0:0:0:0:
320,192,122841,1,0,0:0:0:0:
320,192,122948,1,0,0:0:0:0:
64,192,123055,1,2,0:0:0:0:
192,192,123055,1,8,0:0:0:0:
448,192,123055,1,0,0:0:0:0:
320,192,123270,1,0,0:0:0:50:SW3.wav
192,192,123377,1,0,0:0:0:50:SW3.wav
64,192,123484,1,2,0:0:0:0:
448,192,123484,1,0,0:0:0:0:
448,192,123698,1,0,0:0:0:0:
448,192,123805,1,0,0:0:0:0:
64,192,123912,1,2,0:0:0:0:
192,192,123912,1,8,0:0:0:0:
320,192,123912,1,0,0:0:0:0:
64,192,124127,128,0,124234:0:0:0:0:
64,192,124341,128,2,124448:0:0:0:0:
192,192,124341,1,0,0:0:0:0:
64,192,124555,1,0,0:0:0:30:SW4.wav
320,192,124555,1,0,0:0:0:0:
64,192,124770,128,0,125091:0:0:0:70:S_.wav
192,192,124770,128,0,125091:0:0:0:0:
320,192,124770,128,0,125091:0:0:0:0:
448,192,124770,128,0,125091:0:0:0:0:
64,192,125198,1,2,0:0:0:0:
448,192,125198,128,0,125412:0:0:0:0:
192,192,125412,1,0,0:0:0:0:
320,192,125520,1,0,0:0:0:0:
64,192,125627,1,2,0:0:0:0:
448,192,125627,128,0,125841:0:0:0:0:
192,192,125841,1,0,0:0:0:0:
320,192,125948,1,0,0:0:0:0:
64,192,126055,128,2,126270:0:0:0:0:
448,192,126055,1,0,0:0:0:0:
320,192,126270,1,0,0:0:0:0:
192,192,126377,1,0,0:0:0:0:
64,192,126484,128,2,126698:0:0:0:0:
448,192,126484,1,0,0:0:0:0:
320,192,126698,1,0,0:0:0:0:
192,192,126805,1,0,0:0:0:0:
64,192,126912,1,2,0:0:0:0:
320,192,126912,128,0,127127:0:0:0:0:
448,192,127127,1,0,0:0:0:0:
192,192,127234,1,0,0:0:0:0:
64,192,127341,1,2,0:0:0:0:
320,192,127341,128,0,127555:0:0:0:0:
192,192,127555,1,0,0:0:0:0:
320,192,127662,1,0,0:0:0:0:
192,192,127770,128,2,127984:0:0:0:0:
448,192,127770,1,0,0:0:0:0:
64,192,127984,1,0,0:0:0:0:
320,192,128091,1,0,0:0:0:0:
192,192,128198,128,2,128412:0:0:0:0:
448,192,128198,1,0,0:0:0:0:
320,192,128412,1,0,0:0:0:0:
192,192,128520,1,0,0:0:0:0:
64,192,128627,1,2,0:0:0:0:
448,192,128627,128,0,128841:0:0:0:0:
192,192,128841,1,0,0:0:0:0:
320,192,128948,1,0,0:0:0:0:
64,192,129055,1,2,0:0:0:0:
448,192,129055,128,0,129270:0:0:0:0:
192,192,129270,1,0,0:0:0:0:
320,192,129377,1,0,0:0:0:0:
64,192,129484,128,2,129698:0:0:0:0:
448,192,129484,1,0,0:0:0:0:
320,192,129698,1,0,0:0:0:0:
192,192,129805,1,0,0:0:0:0:
64,192,129912,128,2,130127:0:0:0:0:
448,192,129912,1,0,0:0:0:0:
320,192,130127,1,0,0:0:0:0:
192,192,130234,1,0,0:0:0:0:
64,192,130341,1,2,0:0:0:0:
320,192,130341,128,0,130555:0:0:0:0:
448,192,130555,1,0,0:0:0:0:
192,192,130662,1,0,0:0:0:0:
64,192,130770,1,2,0:0:0:0:
320,192,130770,128,0,130984:0:0:0:0:
192,192,130984,1,0,0:0:0:0:
320,192,131091,1,0,0:0:0:0:
192,192,131198,128,2,131412:0:0:0:0:
448,192,131198,1,0,0:0:0:0:
64,192,131412,1,0,0:0:0:0:
320,192,131520,1,0,0:0:0:0:
192,192,131627,128,2,131841:0:0:0:0:
448,192,131627,1,0,0:0:0:0:
320,192,131841,1,0,0:0:0:0:
192,192,131948,1,0,0:0:0:0:
64,192,132055,1,0,0:0:0:0:
448,192,132055,128,0,132270:0:0:0:0:
192,192,132270,1,0,0:0:0:0:
320,192,132377,1,0,0:0:0:0:
448,192,132484,128,0,132698:0:0:0:0:
192,192,132698,1,0,0:0:0:0:
320,192,132805,1,0,0:0:0:0:
64,192,132912,128,0,133127:0:0:0:0:
448,192,132912,1,0,0:0:0:0:
320,192,133127,1,0,0:0:0:0:
192,192,133234,1,0,0:0:0:0:
64,192,133341,128,0,133555:0:0:0:0:
320,192,133555,1,0,0:0:0:0:
192,192,133662,1,0,0:0:0:0:
64,192,133770,1,0,0:0:0:0:
320,192,133770,128,0,133984:0:0:0:0:
448,192,133984,1,0,0:0:0:0:
192,192,134091,1,0,0:0:0:0:
320,192,134198,128,0,134412:0:0:0:0:
192,192,134412,1,0,0:0:0:0:
320,192,134520,1,0,0:0:0:0:
192,192,134627,128,0,134841:0:0:0:0:
448,192,134627,1,0,0:0:0:0:
64,192,134841,1,0,0:0:0:0:
320,192,134948,1,0,0:0:0:0:
192,192,135055,128,0,135270:0:0:0:0:
320,192,135270,1,0,0:0:0:0:
192,192,135377,1,0,0:0:0:0:
64,192,135484,1,0,0:0:0:0:
448,192,135484,128,0,135698:0:0:0:0:
192,192,135698,1,0,0:0:0:0:
320,192,135805,1,0,0:0:0:0:
448,192,135912,128,0,136127:0:0:0:0:
192,192,136127,1,0,0:0:0:0:
320,192,136234,1,0,0:0:0:0:
64,192,136341,128,0,136555:0:0:0:0:
448,192,136341,1,0,0:0:0:0:
320,192,136555,1,0,0:0:0:0:
192,192,136662,1,0,0:0:0:0:
64,192,136770,128,0,136984:0:0:0:0:
320,192,136984,1,0,0:0:0:0:
192,192,137091,1,0,0:0:0:0:
64,192,137198,1,0,0:0:0:0:
320,192,137198,128,0,137412:0:0:0:0:
448,192,137412,1,0,0:0:0:0:
192,192,137520,1,0,0:0:0:0:
320,192,137627,128,0,137841:0:0:0:0:
192,192,137841,1,0,0:0:0:0:
320,192,137948,1,0,0:0:0:0:
192,192,138055,128,0,138270:0:0:0:0:
448,192,138055,1,0,0:0:0:0:
64,192,138270,1,0,0:0:0:0:
320,192,138377,1,0,0:0:0:0:
192,192,138484,128,0,138698:0:0:0:0:
320,192,138698,1,0,0:0:0:0:
192,192,138805,1,0,0:0:0:0:
64,192,138912,1,0,0:0:0:0:
448,192,138912,1,0,0:0:0:0:
320,192,141055,1,0,0:0:0:100:F5S.wav
448,192,141055,1,0,0:0:0:100:F3S.wav
192,192,141483,1,0,0:0:0:100:F6S.wav
320,192,141483,1,0,0:0:0:100:F3S.wav
64,192,141805,1,0,0:0:0:100:D#3S_Eb3S.wav
448,192,141912,1,0,0:0:0:100:G#3S_Ab3S.wav
320,192,141912,1,0,0:0:0:100:G#3S_Ab3S.wav
192,192,142126,1,0,0:0:0:100:D#6S_Eb6S.wav
320,192,142233,1,0,0:0:0:100:G#3S_Ab3S.wav
448,192,142340,1,0,0:0:0:100:A#3S_Bb3S.wav
64,192,142340,1,0,0:0:0:100:A#3S_Bb3S.wav
320,192,142555,1,0,0:0:0:100:A#5S_Bb5S.wav
64,192,142769,1,0,0:0:0:100:A5S.wav
192,192,142769,1,0,0:0:0:100:F3S.wav
320,192,143197,1,0,0:0:0:100:F3S.wav
192,192,143197,1,0,0:0:0:100:F3S.wav
448,192,143519,1,0,0:0:0:100:D#3S_Eb3S.wav
192,192,143626,1,0,0:0:0:100:G#3S_Ab3S.wav
64,192,143626,1,0,0:0:0:100:G#3S_Ab3S.wav
320,192,143840,1,0,0:0:0:100:C6S.wav
192,192,143947,1,0,0:0:0:100:D#3S_Eb3S.wav
64,192,144055,1,0,0:0:0:100:A#5S_Bb5S.wav
448,192,144055,1,0,0:0:0:100:G3S.wav
192,192,144269,1,0,0:0:0:100:A5S.wav
320,192,144483,1,0,0:0:0:100:F5S.wav
448,192,144483,1,0,0:0:0:100:F3S.wav
64,192,144912,1,0,0:0:0:100:C5S.wav
192,192,144912,1,0,0:0:0:100:F3S.wav
320,192,145019,1,0,0:0:0:100:D#5S_Eb5S.wav
192,192,145126,1,0,0:0:0:100:F5S.wav
64,192,145233,1,0,0:0:0:100:G5S.wav
320,192,145340,1,0,0:0:0:100:D#5S_Eb5S.wav
448,192,145340,1,0,0:0:0:100:G#3S_Ab3S.wav
192,192,145447,1,0,0:0:0:100:F5S.wav
320,192,145555,1,0,0:0:0:100:G5S.wav
448,192,145662,1,0,0:0:0:100:G#5S_Ab5S.wav
64,192,145769,1,0,0:0:0:100:F5S.wav
192,192,145769,1,0,0:0:0:100:A#3S_Bb3S.wav
320,192,145876,1,0,0:0:0:100:G5S.wav
64,192,145983,1,0,0:0:0:100:G#5S_Ab5S.wav
192,192,146090,1,0,0:0:0:100:A#5S_Bb5S.wav
320,192,146197,1,0,0:0:0:100:C6S.wav
448,192,146197,1,0,0:0:0:100:C4S.wav
64,192,146412,1,0,0:0:0:100:E4S.wav
192,192,146412,1,0,0:0:0:100:C4S.wav
320,192,146519,1,0,0:0:0:100:C3S.wav
448,192,146626,1,0,0:0:0:100:C4S.wav
320,192,146626,1,0,0:0:0:100:C4S.wav
64,192,146840,1,0,0:0:0:100:E4S.wav
192,192,146840,1,0,0:0:0:100:C4S.wav
320,192,146947,1,0,0:0:0:100:C3S.wav
448,192,147055,1,0,0:0:0:100:C4S.wav
320,192,147055,1,0,0:0:0:100:C4S.wav
64,192,147269,1,0,0:0:0:100:E4S.wav
192,192,147269,1,0,0:0:0:100:C4S.wav
320,192,147376,1,0,0:0:0:100:C3S.wav
320,192,147483,1,0,0:0:0:100:C6S.wav
448,192,147483,1,0,0:0:0:100:C4S.wav
192,192,147590,1,0,0:0:0:100:A#5S_Bb5S.wav
320,192,147697,1,0,0:0:0:100:A5S.wav
448,192,147697,1,0,0:0:0:100:C4S.wav
192,192,147805,1,0,0:0:0:100:G5S.wav
64,192,147912,1,0,0:0:0:100:F6S.wav
448,192,147912,1,0,0:0:0:100:F5S.wav
