osu file format v14

[General]
AudioFilename: cYsmix - Classic Pursuit.mp3
AudioLeadIn: 0
PreviewTime: 68520
Countdown: 1
SampleSet: Soft
StackLeniency: 0.7
Mode: 0
LetterboxInBreaks: 0
WidescreenStoryboard: 1

[Editor]
Bookmarks: 8627,15484,29198,131627
DistanceSpacing: 1
BeatDivisor: 4
GridSize: 4
TimelineZoom: 1

[Metadata]
Title:Classic Pursuit
TitleUnicode:Classic Pursuit
Artist:cYsmix
ArtistUnicode:cYsmix
Creator:-kevincela-
Version:Hard
Source:osu!
Tags:oct. 2015 beatmapping challenge contest mapping with rewards mwr #2 halloween electro
BeatmapID:1041658
BeatmapSetID:488238

[Difficulty]
HPDrainRate:5
CircleSize:4
OverallDifficulty:7
ApproachRate:7.5
SliderMultiplier:1.6
SliderTickRate:1

[Events]
//Background and Video events
0,0,"osu!cysmix-bg-2.jpg",0,0
//Break Periods
//Storyboard Layer 0 (Background)
//Storyboard Layer 1 (Fail)
//Storyboard Layer 2 (Pass)
//Storyboard Layer 3 (Foreground)
//Storyboard Sound Samples

[TimingPoints]
1770,428.571428571429,4,2,0,60,1,0
8627,-90.9090909090909,4,2,0,60,0,0
15484,-83.3333333333333,4,2,0,60,0,0
28341,-100,4,2,0,60,0,0
28984,-66.6666666666667,4,2,0,60,0,0
29198,-100,4,2,0,60,0,0
40770,-66.6666666666667,4,2,0,60,0,0
41198,-133.333333333333,4,2,0,60,0,0
41627,-105.263157894737,4,2,0,60,0,0
41841,-86.9565217391304,4,2,0,60,0,0
42055,-74.0740740740741,4,2,0,60,0,0
42912,-90.9090909090909,4,2,0,60,0,0
54912,-100,4,2,0,60,0,0
56627,-100,4,3,0,60,0,0
58984,-100,4,3,0,60,0,0
68627,-133.333333333333,4,2,0,60,0,0
69270,-100,4,2,0,60,0,0
69912,-83.3333333333333,4,2,0,60,0,0
70341,-83.3333333333333,4,2,0,65,0,1
84055,-133.333333333333,4,2,0,60,0,0
86627,-117.647058823529,4,2,0,60,0,0
87484,-133.333333333333,4,2,0,60,0,0
90055,-117.647058823529,4,2,0,60,0,0
90912,-133.333333333333,4,2,0,60,0,0
93484,-117.647058823529,4,2,0,60,0,0
94341,-83.3333333333333,4,2,0,60,0,0
96055,-83.3333333333333,4,2,0,60,0,0
96912,-100,4,2,0,60,0,0
97555,-66.6666666666667,4,2,0,60,0,0
97770,-100,4,2,1,60,0,0
104627,-100,4,2,0,60,0,0
108591,-83.3333333333333,4,2,0,60,0,0
108912,-71.4285714285714,4,2,0,60,0,0
109770,-100,4,2,0,60,0,0
110412,-76.9230769230769,4,2,0,65,0,0
111484,-90.9090909090909,4,2,0,60,0,0
123484,-100,4,2,0,60,0,0
124234,-100,4,2,0,55,0,0
125198,-111.111111111111,4,2,0,50,0,0
132055,-166.666666666666,4,2,0,45,0,0
141055,428.571428571429,4,1,0,60,1,0

[Colours]
Combo1 : 255,218,106
Combo2 : 193,148,117
Combo3 : 112,204,254
Combo4 : 249,134,151

[HitObjects]
113,35,1770,6,0,P|130:99|119:213,1,160,0|8,1:0|0:0,0:0:0:0:
84,280,2412,1,0,0:0:0:0:
200,344,2627,2,0,P|239:334|296:332,1,80,0|0,1:0|0:0,0:0:0:0:
368,280,3055,2,0,P|412:290|452:290,1,80,8|0,0:0|0:0,0:0:0:0:
280,232,3484,6,0,L|292:40,1,160,0|8,1:0|0:0,0:0:0:0:
228,0,4127,1,0,0:0:0:0:
124,72,4341,2,0,P|84:80|20:68,1,80,0|0,1:0|0:0,0:0:0:0:
172,144,4770,2,0,P|214:139|255:147,1,80,8|0,0:0|0:0,0:0:0:0:
135,231,5198,6,0,L|121:44,2,160,0|8|0,1:0|0:0|1:0,0:0:0:0:
96,316,6270,1,0,0:0:0:0:
216,364,6484,2,0,P|256:368|308:352,1,80,8|0,0:0|0:0,0:0:0:0:
420,288,6912,6,0,B|425:228|425:228|412:190|412:190|419:115,2,160,0|8|0,1:0|0:0|1:0,0:0:0:0:
336,244,7984,1,0,0:0:0:0:
504,172,8198,2,0,L|512:84,1,80,8|0,0:0|0:0,0:0:0:0:
368,44,8627,6,0,B|272:28|284:84|184:60,1,176.000005371094,0|8,1:0|0:0,0:0:0:0:
104,40,9270,1,0,0:0:0:0:
40,152,9484,2,0,P|32:192|44:252,1,88.000002685547,0|0,1:0|0:0,0:0:0:0:
104,308,9912,2,0,L|208:300,1,88.000002685547,8|0,0:0|0:0,0:0:0:0:
308,360,10341,6,0,P|324:308|268:196,1,176.000005371094,0|8,1:0|0:0,0:0:0:0:
184,172,10984,1,0,0:0:0:0:
72,252,11198,2,0,P|68:296|76:344,1,88.000002685547,0|0,1:0|0:0,0:0:0:0:
178,259,11627,2,0,P|186:213|182:166,1,88.000002685547,8|0,0:0|0:0,0:0:0:0:
62,77,12055,6,0,L|74:270,2,176.000005371094,0|8|0,1:0|0:0|1:0,0:0:0:0:
132,8,13127,1,0,0:0:0:0:
208,92,13341,2,0,P|220:140|216:192,1,88.000002685547,8|0,0:0|0:0,0:0:0:0:
72,252,13770,6,0,B|160:232|160:296|244:280,1,176.000005371094,0|8,1:0|0:0,0:0:0:0:
340,244,14412,1,0,0:0:0:0:
229,92,14627,2,0,P|217:140|221:192,1,88.000002685547,0|0,1:0|0:0,0:0:0:0:
241,280,15055,1,8,0:0:0:0:
241,280,15484,6,0,L|84:294,1,143.999995605469,2|2,1:0|0:1,0:0:0:0:
76,308,15912,2,0,P|60:260|68:204,1,95.9999970703126,8|2,0:0|0:0,0:0:0:0:
156,124,16341,2,0,L|264:128,1,95.9999970703126,2|0,1:0|0:0,0:0:0:0:
340,184,16770,1,8,0:0:0:0:
428,128,16984,1,0,0:0:0:0:
492,240,17198,6,0,L|484:392,1,143.999995605469,2|2,1:0|0:1,0:0:0:0:
460,364,17627,2,0,P|420:348|348:352,1,95.9999970703126,8|2,0:0|0:0,0:0:0:0:
200,364,18055,2,0,P|239:347|287:293,1,95.9999970703126,2|0,1:0|0:0,0:0:0:0:
272,204,18484,1,8,0:0:0:0:
181,148,18698,1,0,0:0:0:0:
32,264,18912,6,0,L|192:268,1,143.999995605469,2|2,1:0|0:1,0:0:0:0:
200,280,19341,2,0,P|212:320|200:384,1,95.9999970703126,8|2,0:0|0:0,0:0:0:0:
272,208,19770,2,0,P|262:158|274:109,1,95.9999970703126,2|0,1:0|0:0,0:0:0:0:
360,52,20198,1,8,0:0:0:0:
452,100,20412,1,0,0:0:0:0:
386,327,20627,6,0,L|370:173,1,143.999995605469,2|2,1:0|0:1,0:0:0:0:
369,160,21055,2,0,P|337:168|265:156,1,95.9999970703126,8|2,0:0|0:0,0:0:0:0:
136,64,21484,2,0,P|182:55|229:63,1,95.9999970703126,2|0,1:0|0:0,0:0:0:0:
92,160,21912,1,8,0:0:0:0:
92,160,22341,6,0,L|88:308,1,143.999995605469,6|2,1:0|0:1,0:0:0:0:
100,332,22770,1,8,0:0:0:0:
192,292,22984,1,2,0:0:0:0:
316,356,23198,2,0,P|372:364|456:272,1,191.999994140625,2|8,1:0|0:0,0:0:0:0:
452,168,23841,1,0,0:0:0:0:
368,56,24055,6,0,L|224:64,1,143.999995605469,6|2,1:0|0:1,0:0:0:0:
200,80,24484,1,8,0:0:0:0:
96,48,24698,1,2,0:0:0:0:
20,160,24912,2,0,P|16:236|100:308,1,191.999994140625,2|8,1:0|0:0,0:0:0:0:
196,296,25555,1,0,0:0:0:0:
332,328,25770,6,0,L|340:232,1,95.9999970703126,0|0,1:0|1:0,0:0:0:0:
436,304,26198,2,0,L|444:208,1,95.9999970703126,0|0,1:0|1:0,0:0:0:0:
376,132,26627,2,0,P|316:128|232:232,1,191.999994140625,0|0,0:0|0:0,0:0:0:0:
232,218,27484,6,0,L|137:211,2,95.9999970703126,2|2|2,0:2|1:2|1:2,0:0:0:0:
304,284,28127,1,0,0:0:0:0:
184,352,28341,6,0,P|104:368|32:312,1,160,0|4,1:2|1:3,0:0:0:0:
128,264,28984,1,2,0:1:0:0:
41,327,29198,6,0,P|25:289|22:250,1,80,2|0,1:2|0:0,0:0:0:0:
88,160,29627,2,0,L|252:168,1,160,2|0,1:2|1:0,0:0:0:0:
344,220,30270,1,2,0:0:0:0:
444,176,30484,2,0,P|456:144|456:80,1,80,0|2,1:2|0:0,0:0:0:0:
344,220,30912,6,0,L|356:384,2,160,2|0|0,1:2|1:0|1:0,0:0:0:0:
248,168,31984,1,2,0:0:0:0:
160,232,32198,2,0,L|154:311,1,80,0|2,1:0|0:0,0:0:0:0:
60,184,32627,6,0,P|40:120|60:16,1,160,2|0,1:2|1:0,0:0:0:0:
144,88,33270,1,2,0:0:0:0:
240,44,33484,2,0,P|268:32|328:36,1,80,0|2,1:0|0:0,0:0:0:0:
428,68,33912,2,0,L|424:128,3,40,2|2|2|2,1:2|0:0|0:0|0:0,0:0:0:0:
432,144,34341,6,0,P|372:128|284:192,2,160,2|0|0,1:2|1:0|1:0,0:0:0:0:
432,144,35627,1,0,1:0:0:0:
480,240,35841,1,0,0:0:0:0:
380,344,36055,6,0,L|296:336,1,80,2|0,1:2|0:0,0:0:0:0:
212,364,36484,2,0,P|196:296|212:200,1,160,8|0,1:2|1:0,0:0:0:0:
300,144,37127,1,2,0:0:0:0:
400,192,37341,2,0,L|412:288,1,80,8|2,1:2|0:0,0:0:0:0:
300,144,37770,6,0,P|364:92|448:96,2,160,2|8|0,1:2|1:2|1:0,0:0:0:0:
244,308,39055,2,0,L|248:368,3,40,10|2|2|2,1:2|0:2|0:2|0:2,0:0:0:0:
268,372,39484,5,2,0:2:0:0:
256,192,39591,12,0,40770,1:0:0:0:
48,148,41198,6,0,L|172:144,1,120.000004577637,8|8,3:0|3:0,0:0:0:0:
112,232,41841,1,8,3:0:0:0:
224,60,42055,6,0,P|252:96|264:168,1,108.000000411987,8|2,3:2|1:2,0:0:0:0:
244,256,42484,2,0,L|356:260,1,108.000000411987,0|0,1:0|1:0,0:0:0:0:
456,304,42912,6,0,P|468:260|456:152,1,132.00000402832,0|2,1:0|0:1,0:0:0:0:
476,144,43341,2,0,P|436:152|380:140,1,88.000002685547,8|0,0:0|0:0,0:0:0:0:
360,164,43662,2,0,P|348:120|360:12,1,132.00000402832,2|2,0:1|0:1,0:0:0:0:
472,32,44198,1,8,0:0:0:0:
476,144,44412,1,0,0:0:0:0:
360,164,44627,6,0,L|220:160,1,132.00000402832,0|2,1:0|0:1,0:0:0:0:
204,180,45055,2,0,P|196:140|204:84,1,88.000002685547,8|0,0:0|0:0,0:0:0:0:
216,64,45377,2,0,L|84:67,1,132.00000402832,2|2,0:1|0:1,0:0:0:0:
16,140,45912,1,8,0:0:0:0:
64,232,46127,1,0,0:0:0:0:
16,360,46341,6,0,L|156:352,1,132.00000402832,0|2,1:0|0:1,0:0:0:0:
164,324,46770,2,0,P|196:340|264:340,1,88.000002685547,8|0,0:0|0:0,0:0:0:0:
272,364,47091,2,0,P|320:336|400:336,1,132.00000402832,2|2,0:1|1:0,0:0:0:0:
504,368,47627,1,8,0:0:0:0:
480,264,47841,1,0,0:0:0:0:
500,104,48055,6,0,P|456:116|364:80,1,132.00000402832,0|2,1:0|0:1,0:0:0:0:
352,64,48484,2,0,L|360:164,1,88.000002685547,8|0,0:0|0:0,0:0:0:0:
376,184,48805,2,0,P|332:172|240:208,1,132.00000402832,2|2,0:1|0:1,0:0:0:0:
192,276,49341,1,8,0:0:0:0:
220,370,49555,1,0,0:0:0:0:
374,315,49770,6,0,L|376:157,1,132.00000402832,0|2,1:0|0:1,0:0:0:0:
352,156,50198,2,0,B|308:164|308:164|260:152,1,88.000002685547,8|0,0:0|0:0,0:0:0:0:
236,136,50520,2,0,L|234:-22,1,132.00000402832,2|2,0:1|0:1,0:0:0:0:
132,48,51055,1,8,0:0:0:0:
24,16,51270,1,0,0:0:0:0:
56,152,51484,6,0,P|64:196|52:300,1,132.00000402832,0|2,1:0|0:1,0:0:0:0:
48,316,51912,2,0,P|92:300|152:296,1,88.000002685547,8|0,0:0|0:0,0:0:0:0:
148,264,52234,2,0,P|212:276|280:320,1,132.00000402832,2|2,0:1|0:1,0:0:0:0:
352,384,52770,1,8,0:0:0:0:
452,344,52984,1,0,0:0:0:0:
504,192,53198,6,0,L|368:196,1,132.00000402832,0|2,1:0|0:1,0:0:0:0:
348,224,53627,2,0,P|312:216|264:176,1,88.000002685547,8|0,0:0|0:0,0:0:0:0:
240,200,53948,2,0,P|208:144|206:78,1,132.00000402832,2|2,0:1|1:0,0:0:0:0:
296,16,54484,1,8,0:0:0:0:
396,52,54698,1,0,0:0:0:0:
464,184,54912,6,0,P|464:252|452:312,1,120,2|2,1:2|0:1,0:0:0:0:
476,328,55341,2,0,L|384:320,1,80,8|0,0:0|0:0,0:0:0:0:
368,344,55662,2,0,P|357:284|358:225,1,120,2|2,0:1|0:1,0:0:0:0:
396,52,56198,6,0,L|264:60,1,120,0|0,1:0|0:0,0:0:0:0:
244,48,56627,5,0,1:0:0:0:
152,104,56841,1,8,0:2:0:0:
48,72,57055,1,0,0:0:0:0:
152,104,57270,1,0,0:0:0:0:
152,104,57377,2,0,L|160:192,2,80,8|8|8,0:2|0:2|0:2,0:0:0:0:
244,48,58020,2,0,L|249:-7,1,40,0|8,0:2|0:2,0:0:0:0:
340,116,58341,6,0,P|380:120|432:112,1,80,0|8,3:2|3:2,0:0:0:0:
508,220,58770,2,0,P|468:216|416:224,1,80,0|0,3:2|3:2,0:0:0:0:
400,240,59091,2,0,L|408:328,1,80,8|8,0:2|0:2,0:0:0:0:
316,380,59520,1,8,0:2:0:0:
216,332,59734,1,0,0:0:0:0:
216,332,59841,1,8,0:2:0:0:
284,168,60055,6,0,L|276:72,2,80,0|8|0,1:0|0:2|0:0,0:0:0:0:
192,232,60698,1,0,0:0:0:0:
192,232,60805,2,0,P|152:240|104:228,1,80,8|8,0:2|0:2,0:0:0:0:
24,164,61234,1,8,0:2:0:0:
57,57,61448,1,0,0:0:0:0:
57,57,61555,1,8,0:2:0:0:
196,22,61770,6,0,L|284:26,1,80,0|8,0:0|0:2,0:0:0:0:
408,108,62198,2,0,L|320:112,1,80,0|0,0:0|0:0,0:0:0:0:
304,132,62520,2,0,P|296:172|300:224,1,80,8|8,0:2|0:2,0:0:0:0:
384,280,62948,1,8,0:2:0:0:
484,228,63163,1,0,0:0:0:0:
484,228,63270,1,8,0:2:0:0:
424,364,63484,6,0,P|384:372|340:360,1,80,0|8,1:0|0:2,0:0:0:0:
248,312,63912,1,0,0:0:0:0:
144,352,64127,1,0,0:0:0:0:
144,352,64234,1,8,0:2:0:0:
52,288,64448,1,8,0:2:0:0:
84,180,64662,2,0,L|164:184,1,80,8|0,0:2|0:0,0:0:0:0:
184,196,64984,1,8,0:2:0:0:
296,144,65198,6,0,P|304:112|300:56,1,80,0|8,3:0|3:2,0:0:0:0:
184,196,65627,2,0,P|181:235|190:274,1,80,0|0,3:0|3:0,0:0:0:0:
204,296,65948,1,8,0:2:0:0:
304,340,66162,1,8,0:2:0:0:
404,288,66377,1,8,0:2:0:0:
404,176,66591,1,0,0:0:0:0:
404,176,66698,1,8,0:2:0:0:
312,88,66912,5,0,1:0:0:0:
208,172,67127,1,8,1:2:0:0:
112,76,67341,1,0,1:0:0:0:
12,168,67555,1,8,1:2:0:0:
120,240,67770,6,0,L|128:352,1,80,0|0,1:0|1:0,0:0:0:0:
132,336,68091,1,8,1:2:0:0:
137,350,68198,2,0,P|173:354|233:330,1,80,0|0,1:0|1:0,0:0:0:0:
303,258,68627,6,0,L|430:268,1,120.000004577637,0|8,1:0|0:0,0:0:0:0:
284,225,69270,6,0,L|454:238,1,160,0|2,1:0|0:0,0:0:0:0:
376,88,69912,5,6,1:1:0:0:
376,88,70341,6,0,L|224:75,1,143.999995605469,2|2,1:0|0:1,0:0:0:0:
204,52,70770,2,0,P|212:95|204:151,1,95.9999970703126,8|2,0:0|0:0,0:0:0:0:
320,272,71198,2,0,P|312:224|321:177,1,95.9999970703126,2|0,1:0|0:0,0:0:0:0:
376,88,71627,1,8,0:0:0:0:
476,60,71841,1,2,0:0:0:0:
459,189,72055,6,0,P|388:198|320:177,1,143.999995605469,2|2,1:0|0:1,0:0:0:0:
292,160,72484,2,0,L|300:264,1,95.9999970703126,8|2,0:0|0:0,0:0:0:0:
164,336,72912,2,0,L|171:240,1,95.9999970703126,2|0,1:0|0:0,0:0:0:0:
112,152,73341,1,8,0:0:0:0:
24,212,73555,1,2,0:0:0:0:
25,329,73770,6,0,P|94:348|164:335,1,143.999995605469,2|2,1:0|0:1,0:0:0:0:
196,320,74198,2,0,P|243:317|290:329,1,95.9999970703126,8|2,0:0|0:0,0:0:0:0:
452,256,74627,2,0,P|405:259|358:247,1,95.9999970703126,2|0,1:0|0:0,0:0:0:0:
292,168,75055,1,0,0:0:0:0:
320,68,75270,1,2,0:0:0:0:
412,184,75484,6,0,L|424:336,1,143.999995605469,2|2,1:0|0:1,0:0:0:0:
436,356,75912,2,0,P|392:364|340:352,1,95.9999970703126,8|2,0:0|0:0,0:0:0:0:
272,256,76341,2,0,L|273:157,1,95.9999970703126,2|0,1:0|0:0,0:0:0:0:
192,92,76770,1,8,0:0:0:0:
100,140,76984,1,2,0:0:0:0:
178,253,77198,6,0,P|224:263|271:256,1,95.9999970703126,2|0,1:0|0:0,0:0:0:0:
271,256,77520,1,2,0:1:0:0:
271,256,77627,2,0,L|270:355,1,95.9999970703126,8|2,0:0|0:0,0:0:0:0:
408,272,78055,2,0,L|409:173,1,95.9999970703126,2|0,1:0|0:0,0:0:0:0:
332,104,78484,1,8,0:0:0:0:
240,156,78698,1,2,0:0:0:0:
92,96,78912,6,0,P|80:136|88:192,1,95.9999970703126,2|0,1:0|0:0,0:0:0:0:
86,189,79234,1,2,0:1:0:0:
86,189,79341,2,0,P|98:229|90:285,1,95.9999970703126,8|2,0:0|0:0,0:0:0:0:
216,360,79770,2,0,P|208:312|221:266,1,95.9999970703126,2|0,1:0|0:0,0:0:0:0:
304,200,80198,1,8,0:0:0:0:
396,248,80412,1,2,0:0:0:0:
492,120,80627,6,0,L|396:128,1,95.9999970703126,2|0,1:0|0:0,0:0:0:0:
396,127,80948,1,2,0:1:0:0:
396,127,81055,2,0,B|388:80|388:80|396:24,1,95.9999970703126,8|2,0:0|0:0,0:0:0:0:
292,152,81484,2,0,B|300:199|300:199|292:255,1,95.9999970703126,2|0,1:0|0:0,0:0:0:0:
212,312,81912,1,8,0:0:0:0:
116,272,82127,1,2,0:0:0:0:
196,144,82341,6,0,L|292:152,1,95.9999970703126,2|0,1:0|0:0,0:0:0:0:
291,151,82662,1,2,0:1:0:0:
291,151,82770,2,0,B|299:104|299:104|291:48,1,95.9999970703126,8|2,0:0|0:0,0:0:0:0:
100,100,83198,2,0,B|92:147|92:147|100:203,1,95.9999970703126,2|0,1:0|0:0,0:0:0:0:
168,272,83627,1,8,0:0:0:0:
268,240,83841,1,2,0:0:0:0:
352,344,84055,6,0,L|476:336,1,120.000004577637,2|8,1:2|0:0,0:0:0:0:
471,336,84912,2,0,P|479:276|455:200,1,120.000004577637,2|8,1:2|0:0,0:0:0:0:
465,218,85770,6,0,L|341:210,1,120.000004577637,2|8,1:2|0:0,0:0:0:0:
144,112,86627,2,0,L|295:102,1,136.000002593994,2|8,1:2|0:0,0:0:0:0:
416,308,87484,6,0,L|292:300,1,120.000004577637,2|8,1:2|0:0,0:0:0:0:
296,300,88341,2,0,P|284:240|304:168,1,120.000004577637,2|8,1:2|0:0,0:0:0:0:
296,183,89198,6,0,L|420:175,1,120.000004577637,2|8,1:2|0:0,0:0:0:0:
208,96,90055,2,0,L|59:86,1,136.000002593994,2|8,1:2|0:0,0:0:0:0:
296,160,90912,6,0,P|312:112|292:28,1,120.000004577637,2|8,1:2|0:0,0:0:0:0:
301,44,91770,2,0,L|429:36,1,120.000004577637,2|8,1:2|0:0,0:0:0:0:
420,36,92627,6,0,P|408:94|425:151,1,120.000004577637,2|8,1:2|0:0,0:0:0:0:
488,360,93484,2,0,P|501:292|481:227,1,136.000002593994,2|8,1:2|0:0,0:0:0:0:
320,112,94341,5,0,1:0:0:0:
220,212,94555,1,0,1:0:0:0:
120,108,94770,1,8,1:2:0:0:
16,212,94984,1,0,1:0:0:0:
120,364,95198,6,0,L|120:216,1,143.999995605469,0|8,1:0|1:2,0:0:0:0:
120,192,95627,1,0,1:0:0:0:
244,100,96055,6,0,L|248:0,2,95.9999970703126,2|2|2,0:2|1:2|1:2,0:0:0:0:
324,164,96698,1,0,0:0:0:0:
412,100,96912,6,0,P|428:156|388:256,1,160,2|4,1:2|1:3,0:0:0:0:
324,164,97555,1,2,0:1:0:0:
394,248,97770,6,0,L|400:328,1,80,0|0,1:0|0:0,0:0:0:0:
296,296,98198,2,0,P|264:284|180:304,1,120,10|0,0:0|0:0,0:0:0:0:
182,302,98627,2,0,P|100:328|28:268,1,160,2|10,1:2|0:0,0:0:0:0:
116,232,99270,1,2,0:0:0:0:
52,156,99484,6,0,P|44:124|52:64,1,80,2|0,1:2|0:0,0:0:0:0:
140,32,99912,2,0,P|184:32|256:80,1,120,10|0,0:0|0:0,0:0:0:0:
248,69,100341,2,0,L|408:64,1,160,2|10,1:2|0:0,0:0:0:0:
484,132,100984,1,2,0:0:0:0:
424,216,101198,6,0,P|420:260|432:308,1,80,2|0,1:2|0:0,0:0:0:0:
320,372,101627,2,0,P|328:328|316:252,1,120,10|0,0:0|0:0,0:0:0:0:
316,254,102055,2,0,P|260:272|160:256,1,160,2|10,1:2|0:0,0:0:0:0:
72,200,102698,1,2,0:0:0:0:
116,108,102912,6,0,L|204:100,1,80,2|0,1:2|0:0,0:0:0:0:
296,56,103341,2,0,P|308:112|300:192,1,120,10|0,0:0|0:0,0:0:0:0:
304,174,103770,2,0,P|380:160|464:200,1,160,2|10,1:2|0:0,0:0:0:0:
508,268,104412,1,2,0:0:0:0:
452,348,104627,6,0,L|364:352,1,80,2|0,1:2|0:0,0:0:0:0:
272,384,105055,2,0,P|264:336|276:248,1,120,10|0,0:0|0:0,0:0:0:0:
270,265,105484,2,0,L|184:272,1,80,2|0,1:2|0:0,0:0:0:0:
104,208,105912,1,10,0:0:0:0:
128,104,106127,1,2,0:0:0:0:
224,60,106341,6,0,P|232:100|224:152,1,80,2|0,1:2|0:0,0:0:0:0:
308,36,106770,2,0,P|320:88|312:164,1,120,10|0,0:0|0:0,0:0:0:0:
314,153,107198,2,0,L|404:152,1,80,2|0,1:2|0:0,0:0:0:0:
476,208,107627,1,10,0:0:0:0:
448,300,107841,1,2,0:0:0:0:
332,256,108055,5,0,1:0:0:0:
256,192,108162,12,0,109341,1:0:0:0:
80,152,109770,6,0,B|156:132|156:132|232:160,1,160,0|0,1:0|0:0,0:0:0:0:
152,228,110412,1,8,3:0:0:0:
312,100,110627,6,0,P|328:140|320:212,1,103.999995239258,8|2,3:0|1:2,0:0:0:0:
288,304,111055,2,0,L|416:300,1,103.999995239258,0|0,1:0|1:0,0:0:0:0:
496,216,111484,6,0,P|504:144|488:76,1,132.00000402832,0|2,1:0|0:1,0:0:0:0:
500,52,111912,2,0,L|408:64,1,88.000002685547,8|0,0:0|0:0,0:0:0:0:
380,48,112234,2,0,P|367:112|375:177,1,132.00000402832,2|2,0:1|0:1,0:0:0:0:
412,272,112770,1,8,0:0:0:0:
376,364,112984,1,0,0:0:0:0:
240,308,113198,6,0,L|100:316,1,132.00000402832,0|2,1:0|0:1,0:0:0:0:
88,340,113627,2,0,P|96:296|80:232,1,88.000002685547,8|0,0:0|0:0,0:0:0:0:
76,224,113948,2,0,P|66:171|85:94,1,132.00000402832,2|2,0:1|0:1,0:0:0:0:
176,40,114484,1,8,0:0:0:0:
268,92,114698,1,0,0:0:0:0:
188,268,114912,6,0,L|180:128,1,132.00000402832,0|2,1:0|0:1,0:0:0:0:
184,104,115341,2,0,P|140:116|88:104,1,88.000002685547,8|0,0:0|0:0,0:0:0:0:
68,100,115662,2,0,L|76:240,1,132.00000402832,2|2,0:1|1:0,0:0:0:0:
108,328,116198,1,8,0:0:0:0:
188,268,116412,1,0,0:0:0:0:
316,328,116627,6,0,P|372:336|448:316,1,132.00000402832,0|2,1:0|0:1,0:0:0:0:
472,336,117055,2,0,L|464:248,1,88.000002685547,8|0,0:0|0:0,0:0:0:0:
484,220,117377,2,0,P|428:228|352:208,1,132.00000402832,2|2,0:1|0:1,0:0:0:0:
288,140,117912,1,8,0:0:0:0:
312,44,118127,1,0,0:0:0:0:
355,209,118341,6,0,P|364:272|351:353,1,132.00000402832,0|2,1:0|0:1,0:0:0:0:
372,368,118770,2,0,P|328:360|276:360,1,88.000002685547,8|0,0:0|0:0,0:0:0:0:
267,337,119091,2,0,P|211:353|127:345,1,132.00000402832,2|2,0:1|0:1,0:0:0:0:
72,292,119627,1,8,0:0:0:0:
80,204,119841,1,0,0:0:0:0:
184,92,120055,6,0,P|248:104|316:88,1,132.00000402832,0|2,1:0|0:1,0:0:0:0:
344,76,120484,2,0,L|332:176,1,88.000002685547,8|0,0:0|0:0,0:0:0:0:
328,196,120805,2,0,P|392:184|460:200,1,132.00000402832,2|2,0:1|0:1,0:0:0:0:
508,272,121341,1,8,0:0:0:0:
476,352,121555,1,0,0:0:0:0:
340,320,121770,6,0,L|192:328,1,132.00000402832,0|2,1:0|0:1,0:0:0:0:
184,344,122198,2,0,P|188:296|176:240,1,88.000002685547,8|0,0:0|0:0,0:0:0:0:
164,228,122520,2,0,P|224:236|300:216,1,132.00000402832,2|2,0:1|1:0,0:0:0:0:
356,148,123055,1,8,0:0:0:0:
344,52,123270,1,0,0:0:0:0:
224,104,123484,6,0,L|88:92,1,120,2|2,1:2|0:1,0:0:0:0:
72,88,123912,2,0,B|80:124|80:124|72:184,1,80,8|0,0:0|0:0,0:0:0:0:
64,198,124234,2,0,L|200:186,1,120,2|2,0:1|0:1,0:0:0:0:
312,128,124770,6,0,P|324:172|312:256,1,120,0|0,1:0|0:0,0:0:0:0:
304,280,125198,6,0,L|456:268,1,143.999995605469,2|2,1:2|1:2,0:0:0:0:
504,192,125841,1,0,0:0:0:0:
448,116,126055,2,0,P|408:104|360:108,1,71.9999978027344,2|0,1:2|0:0,0:0:0:0:
282,120,126484,2,0,P|246:119|212:108,1,71.9999978027344,2|0,1:2|0:0,0:0:0:0:
80,64,126912,6,0,L|88:216,1,143.999995605469,2|2,1:2|1:2,0:0:0:0:
164,268,127555,1,0,0:0:0:0:
247,216,127770,2,0,P|283:212|331:224,1,71.9999978027344,2|0,1:2|0:0,0:0:0:0:
396,276,128198,2,0,L|392:364,1,71.9999978027344,2|0,1:2|0:0,0:0:0:0:
476,224,128627,6,0,P|480:160|464:76,2,143.999995605469,2|2|2,1:2|1:2|1:2,0:0:0:0:
396,276,129698,1,0,0:0:0:0:
317,218,129912,2,0,P|282:211|247:216,1,71.9999978027344,2|0,1:2|0:0,0:0:0:0:
108,248,130341,6,0,L|112:328,2,71.9999978027344,2|0|2,1:2|0:0|1:2,0:0:0:0:
52,172,130984,1,0,0:0:0:0:
112,100,131198,2,0,P|152:92|196:100,1,71.9999978027344,2|0,1:2|0:0,0:0:0:0:
317,211,131627,2,0,P|277:219|233:211,1,71.9999978027344,2|0,1:2|0:0,0:0:0:0:
277,128,132055,6,0,L|281:16,1,95.9999970703126,2|10,0:0|0:0,0:0:0:0:
152,180,132912,2,0,L|155:275,1,95.9999970703126,2|10,0:0|0:0,0:0:0:0:
276,344,133770,6,0,P|364:356|436:272,1,191.999994140625,2|2,0:0|0:0,0:0:0:0:
448,180,135055,1,10,0:0:0:0:
340,92,135484,6,0,B|236:72|256:140|144:100,1,191.999994140625,2|2,0:0|0:0,0:0:0:0:
48,64,136770,1,10,0:0:0:0:
20,240,137198,6,0,P|76:240|128:224,1,95.9999970703126,2|10,0:0|0:0,0:0:0:0:
308,264,138055,2,0,P|252:264|200:280,1,95.9999970703126,2|10,0:0|0:0,0:0:0:0:
128,328,138698,1,0,0:0:0:0:
