osu file format v14

[General]
AudioFilename: audio.mp3
AudioLeadIn: 0
PreviewTime: 76320
Countdown: 0
SampleSet: Soft
StackLeniency: 0.7
Mode: 2
LetterboxInBreaks: 0
WidescreenStoryboard: 1

[Editor]
DistanceSpacing: 1
BeatDivisor: 4
GridSize: 4
TimelineZoom: 1

[Metadata]
Title:Breeze
TitleUnicode:Breeze
Artist:cYsmix
ArtistUnicode:cYsmix
Creator:wonjae
Version:Cup
Source:osu!
Tags:Rocma Nelly cyanine liyac featured artist osu sand paranoid grapes
BeatmapID:1761863
BeatmapSetID:840964

[Difficulty]
HPDrainRate:3
CircleSize:2.6
OverallDifficulty:5.7
ApproachRate:5.7
SliderMultiplier:1.55
SliderTickRate:1

[Events]
//Background and Video events
0,0,"sandboye.jpg",0,0
//Break Periods
2,43091,45225
//Storyboard Layer 0 (Background)
//Storyboard Layer 1 (Fail)
//Storyboard Layer 2 (Pass)
//Storyboard Layer 3 (Foreground)
//Storyboard Sound Samples

[TimingPoints]
1749,428.571428571429,4,2,2,40,1,0
8606,-100,4,2,2,50,0,0
13749,-100,4,2,2,70,0,0
14927,-100,4,2,2,60,0,0
15249,-100,4,2,2,50,0,0
15463,-100,4,2,2,40,0,0
16320,-100,4,2,2,35,0,0
17177,-100,4,2,2,30,0,0
21891,-100,4,2,2,40,0,0
29177,-100,4,2,2,60,0,0
30891,-100,4,2,2,65,0,0
32606,-100,4,2,2,70,0,0
34320,-100,4,2,2,75,0,0
36034,-100,4,2,2,60,0,0
37748,-100,4,2,2,65,0,0
39463,-100,4,2,2,70,0,0
41177,-100,4,2,2,75,0,0
42891,-100,4,2,2,40,0,0
45891,-100,4,2,2,20,0,0
47177,-100,4,2,2,31,0,0
48034,-100,4,2,2,41,0,0
48891,-100,4,2,2,45,0,0
49749,-100,4,2,2,50,0,0
63463,-100,4,2,2,60,0,0
63891,-100,4,2,2,65,0,0
64320,-100,4,2,2,70,0,0
64749,-100,4,2,2,75,0,0
65177,-100,4,2,2,80,0,0
65606,-100,4,2,2,75,0,0
66034,-100,4,2,2,70,0,0
66463,-100,4,2,2,65,0,0
66891,-100,4,2,2,60,0,0
67320,-100,4,2,2,55,0,0
67749,-100,4,2,2,50,0,0
68177,-100,4,2,2,45,0,0
68606,-100,4,2,2,40,0,0
70320,-100,4,2,2,60,0,0
72034,-100,4,2,2,70,0,0
73749,-100,4,2,2,80,0,0
75463,-100,4,2,2,90,0,0
75516,-100,4,2,2,60,0,0
75891,-100,4,2,2,90,0,0
75918,-100,4,2,2,60,0,0
76320,-100,4,2,2,80,0,0
76749,-100,4,2,2,70,0,0
77177,-100,4,2,2,60,0,0
78891,-100,4,2,2,65,0,0
80606,-100,4,2,2,70,0,0
82320,-100,4,2,2,75,0,0
84034,-100,4,2,2,75,0,0
89177,-100,4,2,2,80,0,0
90677,-100,4,2,2,75,0,0
90891,-100,4,2,2,80,0,0
102891,-100,4,2,2,70,0,0
103320,-100,4,2,2,60,0,0
103749,-100,4,2,2,50,0,0
104177,-100,4,2,2,40,0,0

[Colours]
Combo1 : 204,0,0
Combo2 : 251,203,60
Combo3 : 165,124,41
Combo4 : 75,66,121

[HitObjects]
393,286,1749,5,4,0:0:0:0:
209,357,2177,2,0,L|217:181,1,155,8|8,0:0|0:0,0:0:0:0:
388,96,3034,1,8,0:0:0:0:
388,96,3463,6,0,P|324:120|220:80,1,155,8|8,0:0|0:0,0:0:0:0:
77,245,4320,2,0,P|141:221|245:261,1,155,8|8,0:0|0:0,0:0:0:0:
222,241,5177,6,0,P|149:220|77:245,1,155,8|8,0:0|0:0,0:0:0:0:
268,152,6034,2,0,P|292:104|252:8,1,155,8|8,0:0|0:0,0:0:0:0:
259,13,6891,6,0,P|181:36|91:11,1,155,8|8,0:0|0:0,0:0:0:0:
243,214,7749,2,0,P|316:193|388:217,1,155,8|8,0:0|0:0,0:0:0:0:
322,294,8391,1,0,0:0:0:0:
249,360,8606,6,0,P|217:304|317:192,1,232.5,8|8,0:0|0:0,0:0:0:0:
412,212,9463,2,0,L|416:48,1,155,8|8,0:0|0:0,0:0:0:0:
246,38,10320,6,0,P|333:100|457:92,1,232.5,8|8,0:0|0:0,0:0:0:0:
389,88,11177,2,0,P|309:64|225:103,1,155,8|8,0:0|0:0,0:0:0:0:
84,51,12034,6,0,P|54:167|128:235,1,232.5,8|8,0:0|0:0,0:0:0:0:
237,243,12891,2,0,P|224:169|158:123,1,155,8|8,0:0|0:0,0:0:0:0:
327,70,13749,6,0,L|405:62,2,77.5,4|0|0,0:0|0:0|0:0,0:0:0:0:
169,66,14606,2,0,L|48:108,2,116.25,8|8|8,0:0|0:0|0:0,0:0:0:0:
242,54,15463,6,0,P|275:114|239:188,1,155,2|0,0:0|0:0,0:0:0:0:
107,188,16320,1,2,0:0:0:0:
155,213,16534,1,0,0:0:0:0:
204,241,16749,1,2,0:0:0:0:
367,236,17177,6,0,P|411:171|356:123,1,155,2|0,0:0|0:0,0:0:0:0:
228,118,18034,1,2,0:0:0:0:
67,159,18463,1,2,0:0:0:0:
66,95,18677,1,0,0:0:0:0:
149,87,18891,6,0,P|196:152|132:194,1,155,2|0,0:0|0:0,0:0:0:0:
29,194,19749,1,2,0:0:0:0:
181,292,20177,1,2,0:0:0:0:
248,292,20391,1,0,0:0:0:0:
317,295,20606,6,0,L|317:141,1,155,2|0,0:0|0:0,0:0:0:0:
169,129,21463,1,0,0:0:0:0:
307,119,21891,1,8,0:0:0:0:
373,111,22106,1,8,0:0:0:0:
443,112,22320,6,0,L|283:184,2,155,4|8|4,0:0|0:0|0:0,0:0:0:0:
267,191,23606,1,8,0:0:0:0:
107,309,24034,6,0,L|252:214,2,155,4|8|4,0:0|0:0|0:0,0:0:0:0:
273,200,25320,1,8,0:0:0:0:
429,245,25749,6,0,P|456:186|364:152,1,155,4|8,0:0|0:0,0:0:0:0:
228,155,26606,2,0,L|229:-15,1,155,4|8,0:0|0:0,0:0:0:0:
384,55,27463,2,0,P|482:102|378:219,1,310,4|8,0:0|0:0,0:0:0:0:
299,224,28534,1,8,0:0:0:0:
96,56,29177,6,0,P|148:80|252:48,1,155,4|4,0:0|0:0,0:0:0:0:
423,45,30034,2,0,P|371:21|267:53,1,155,4|0,0:0|0:0,0:0:0:0:
187,33,30677,1,4,0:0:0:0:
96,0,30891,6,0,L|92:172,1,155,4|4,0:0|0:0,0:0:0:0:
268,168,31749,2,0,L|272:340,1,155,4|0,0:0|0:0,0:0:0:0:
188,327,32391,1,4,0:0:0:0:
108,348,32606,5,4,0:0:0:0:
268,168,33034,2,0,L|354:170,2,77.5,4|0|4,0:0|0:0|0:0,0:0:0:0:
132,72,33891,1,0,0:0:0:0:
308,36,34320,6,0,P|368:56|484:16,1,155,4|4,0:0|0:0,0:0:0:0:
264,356,35177,2,0,P|195:316|194:235,1,155,4|0,0:0|0:0,0:0:0:0:
267,236,35820,1,8,0:0:0:0:
347,232,36034,5,4,0:0:0:0:
205,148,36462,2,0,L|119:150,2,77.5,4|0|4,0:0|0:0|0:0,0:0:0:0:
353,81,37319,1,0,0:0:0:0:
272,90,37534,1,4,0:0:0:0:
191,106,37749,6,0,L|349:111,1,155,4|4,0:0|0:0,0:0:0:0:
476,313,38606,2,0,L|290:317,1,155,4|0,0:0|0:0,0:0:0:0:
156,303,39463,6,0,P|143:252|334:113,1,310,8|8,0:0|0:0,0:0:0:0:
153,66,40749,1,8,0:0:0:0:
315,222,41177,1,2,0:0:0:0:
353,156,41391,1,0,0:0:0:0:
342,80,41605,1,2,0:0:0:0:
288,28,41819,1,0,0:0:0:0:
212,20,42034,1,8,0:0:0:0:
75,24,42463,5,8,0:0:0:0:
299,34,42891,1,4,0:0:0:0:
256,192,46320,12,0,49749,0:0:0:0:
439,223,50177,6,0,L|421:40,1,155,2|0,0:0|0:0,0:0:0:0:
277,100,51034,1,0,0:0:0:0:
137,69,51463,2,0,B|104:132|119:206|63:220|108:240|251:340,1,310,2|0,0:0|0:0,0:0:0:0:
369,338,52749,1,0,0:0:0:0:
220,318,53177,6,0,P|108:251|224:142,1,310,2|0,0:0|0:0,0:0:0:0:
326,160,54463,2,0,L|429:158,1,77.5,0|0,0:0|0:0,0:0:0:0:
333,75,54891,6,0,P|193:135|209:283,1,310,2|0,0:0|0:0,0:0:0:0:
350,285,56177,1,0,0:0:0:0:
179,281,56606,2,0,P|81:276|62:230,1,155,2|0,0:0|0:0,0:0:0:0:
266,284,57463,6,0,P|354:222|338:161,1,155
147,280,58320,2,0,P|56:220|115:48,1,310,2|0,0:0|0:0,0:0:0:0:
326,166,60034,6,0,B|347:253|343:296|319:310|83:296,1,310,2|0,0:0|0:0,0:0:0:0:
365,205,61749,6,0,L|344:39,1,155,2|0,0:0|0:0,0:0:0:0:
187,62,62606,2,0,L|29:125,1,155,2|0,0:0|0:0,0:0:0:0:
227,333,63463,6,0,L|223:157,1,155,8|8,0:0|0:0,0:0:0:0:
367,14,64320,2,0,L|356:171,1,155,8|8,0:0|0:0,0:0:0:0:
196,80,65177,6,0,L|42:77,2,155,8|8|8,0:0|0:0|0:0,0:0:0:0:
196,80,66463,1,8,0:0:0:0:
339,313,66891,6,0,P|379:257|251:81,1,310,8|8,0:0|0:0,0:0:0:0:
142,79,68177,1,8,0:0:0:0:
252,84,68606,6,0,L|240:246,1,155,8|0,0:0|0:0,0:0:0:0:
133,257,69463,1,8,0:0:0:0:
133,257,69891,1,8,0:0:0:0:
290,279,70320,6,0,P|344:242|279:217,1,155,8|8,0:0|0:0,0:0:0:0:
149,175,71177,2,0,L|127:100,2,77.5,8|0|8,0:0|0:0|0:0,0:0:0:0:
314,179,72034,6,0,P|362:271|321:320,1,155,8|8,0:0|0:0,0:0:0:0:
212,315,72891,2,0,L|126:250,2,77.5,8|0|8,0:0|0:0|0:0,0:0:0:0:
363,209,73749,6,0,L|362:104,1,77.5,8|0,0:0|0:0,0:0:0:0:
449,121,74177,2,0,L|448:20,1,77.5,8|0,0:0|0:0,0:0:0:0:
363,39,74606,2,0,P|320:112|367:132,1,155,8|8,0:0|0:0,0:0:0:0:
246,151,75463,6,0,L|62:147,1,155,8|8,0:0|0:0,0:0:0:0:
239,227,76320,1,8,0:0:0:0:
394,302,76749,1,8,0:0:0:0:
212,278,77177,6,0,P|147:212|172:148,1,155,2|2,0:0|0:0,0:0:0:0:
279,134,78034,1,2,0:0:0:0:
181,104,78356,1,8,0:0:0:0:
354,105,78891,6,0,L|438:103,2,77.5,2|0|2,0:0|0:0|0:0,0:0:0:0:
229,284,79749,2,0,L|222:145,1,116.25,2|8,0:0|0:0,0:0:0:0:
368,112,80606,6,0,L|452:110,1,77.5,2|0,0:0|0:0,0:0:0:0:
352,44,81034,2,0,L|184:48,1,155,2|2,0:0|0:0,0:0:0:0:
311,45,81784,1,8,0:0:0:0:
172,364,82320,5,2,0:0:0:0:
135,297,82534,1,0,0:0:0:0:
149,223,82748,1,2,0:0:0:0:
207,174,82962,1,0,0:0:0:0:
281,167,83177,2,0,L|287:-11,1,155,2|2,0:0|0:0,0:0:0:0:
180,16,83820,1,2,0:0:0:0:
73,55,84034,6,0,L|103:240,1,155,4|8,0:0|0:0,0:0:0:0:
245,274,84891,2,0,P|309:262|370:282,1,116.25,8|8,0:0|0:0,0:0:0:0:
237,196,85749,5,8,0:0:0:0:
184,133,85963,1,4,0:0:0:0:
184,66,86177,1,8,0:0:0:0:
337,69,86606,2,0,P|382:118|369:186,1,116.25,8|8,0:0|0:0,0:0:0:0:
217,221,87463,6,0,L|378:300,2,155,8|8|8,0:0|0:0|0:0,0:0:0:0:
83,194,88641,1,8,0:0:0:0:
276,77,89177,2,0,P|387:181|305:286,1,310,8|8,0:0|0:0,0:0:0:0:
210,302,90356,1,8,0:0:0:0:
314,278,90677,1,8,0:0:0:0:
416,336,90891,6,0,P|444:272|368:212,1,155,4|8,0:0|0:0,0:0:0:0:
317,205,91534,1,0,0:0:0:0:
241,197,91749,1,8,0:0:0:0:
108,128,92177,2,0,L|197:119,1,77.5,8|4,0:0|0:0,0:0:0:0:
280,148,92606,6,0,P|308:84|232:24,1,155,4|8,0:0|0:0,0:0:0:0:
181,17,93249,1,4,0:0:0:0:
105,9,93464,1,8,0:0:0:0:
272,28,93891,1,8,0:0:0:0:
424,360,94320,6,0,L|432:196,1,155,4|8,0:0|0:0,0:0:0:0:
353,196,94963,1,4,0:0:0:0:
432,204,95177,1,8,0:0:0:0:
272,180,95606,1,8,0:0:0:0:
190,165,95820,1,8,0:0:0:0:
272,180,96034,6,0,P|300:116|224:56,1,155,4|8,0:0|0:0,0:0:0:0:
173,49,96677,1,0,0:0:0:0:
97,41,96892,1,8,0:0:0:0:
264,60,97320,1,8,0:0:0:0:
355,71,97535,1,8,0:0:0:0:
441,108,97749,6,0,P|480:188|431:221,1,155,4|8,0:0|0:0,0:0:0:0:
284,290,98606,2,0,L|406:290,2,116.25,8|4|8,0:0|0:0|0:0,0:0:0:0:
180,222,99463,6,0,L|180:59,1,155,4|8,0:0|0:0,0:0:0:0:
328,147,100320,2,0,L|461:146,2,116.25,8|4|8,0:0|0:0|0:0,0:0:0:0:
239,211,101177,6,0,L|240:302,1,77.5,4|0,0:0|0:0,0:0:0:0:
320,206,101606,2,0,L|320:92,1,77.5,8|0,0:0|0:0,0:0:0:0:
239,98,102034,2,0,L|111:101,2,116.25,8|8|8,0:0|0:0|0:0,0:0:0:0:
313,42,102891,5,4,0:0:0:0:
148,161,103320,1,4,0:0:0:0:
306,277,103749,1,4,0:0:0:0:
141,161,104177,2,0,L|138:37,1,116.25,4|8,0:0|0:0,0:0:0:0:
