osu file format v14

[General]
AudioFilename: audio.mp3
AudioLeadIn: 0
PreviewTime: 89064
Countdown: 0
SampleSet: Soft
StackLeniency: 0.7
Mode: 3
LetterboxInBreaks: 0
SpecialStyle: 0
WidescreenStoryboard: 1

[Editor]
DistanceSpacing: 1
BeatDivisor: 8
GridSize: 4
TimelineZoom: 2.799999

[Metadata]
Title:Breeze
TitleUnicode:Breeze
Artist:cYsmix
ArtistUnicode:cYsmix
Creator:Soul Evans
Version:Naseem 'EZ'
Source:osu!
Tags:featured artist monthly beatmapping contest MBC sea arabia ocean Chronocide dudehacker
BeatmapID:1329111
BeatmapSetID:629575

[Difficulty]
HPDrainRate:6.5
CircleSize:4
OverallDifficulty:6.5
ApproachRate:5
SliderMultiplier:1.4
SliderTickRate:1

[Events]
//Background and Video events
0,0,"HQ.jpg",0,0
//Break Periods
//Storyboard Layer 0 (Background)
//Storyboard Layer 1 (Fail)
//Storyboard Layer 2 (Pass)
//Storyboard Layer 3 (Foreground)
//Storyboard Sound Samples

[TimingPoints]
1743,428.571428571429,4,2,1,60,1,0
29171,-100,4,2,1,60,0,1
42885,-100,4,2,1,60,0,0
89171,-100,4,2,1,60,0,1
102885,-100,4,2,1,60,0,0

[HitObjects]
64,192,1314,5,0,2:0:0:70:LR_Clap DS.wav
448,192,1314,1,0,2:0:0:0:
320,192,1743,1,0,2:0:0:70:LR_Kick Beat 2.wav
448,192,1957,1,0,0:0:0:0:
192,192,2171,1,0,2:0:0:70:LR2_KickBassD.wav
64,192,2385,1,0,0:0:0:0:
448,192,2600,1,0,2:0:0:70:LR_Clap DS.wav
192,192,2814,1,0,0:0:0:0:
320,192,3028,1,0,2:0:0:70:LR2_KickBassD.wav
192,192,3457,1,0,2:0:0:70:LR_Kick Beat 2.wav
320,192,3671,1,0,0:0:0:0:
64,192,3885,1,0,2:0:0:70:LR2_KickBassD.wav
192,192,4100,1,0,0:0:0:0:
448,192,4314,1,0,2:0:0:70:LR_Kick Beat 2.wav
320,192,4528,1,0,0:0:0:0:
64,192,4743,1,0,2:0:0:70:LR2_KickBassD.wav
320,192,5171,1,0,2:0:0:70:LR_Kick Beat 2.wav
192,192,5385,1,0,0:0:0:0:
448,192,5600,1,0,2:0:0:70:LR2_KickBassD.wav
320,192,5814,1,0,0:0:0:0:
192,192,6028,1,0,2:0:0:70:LR_Kick Beat 2.wav
448,192,6243,1,0,0:0:0:0:
64,192,6457,1,0,2:0:0:70:LR2_KickBassD.wav
320,192,6885,1,0,2:0:0:70:LR_Kick Beat 2.wav
192,192,7100,1,0,0:0:0:0:
448,192,7314,1,0,2:0:0:70:LR2_KickBassD.wav
64,192,7528,1,0,0:0:0:0:
192,192,7743,1,0,2:0:0:70:LR_Kick Beat 2.wav
320,192,7957,1,0,0:0:0:0:
64,192,8171,1,0,2:0:0:70:LR2_KickBassD.wav
448,192,8600,1,0,2:0:0:70:LR_Clap DS.wav
64,192,8814,1,0,0:0:0:0:
192,192,9028,1,0,2:0:0:70:LR2_KickBassD.wav
448,192,9243,1,0,0:0:0:0:
320,192,9457,1,0,2:0:0:70:LR_Kick Beat 2.wav
192,192,9671,1,0,0:0:0:0:
64,192,9885,1,0,2:0:0:70:LR2_KickBassD.wav
448,192,10314,1,0,2:0:0:70:LR_Kick Beat 2.wav
192,192,10528,1,0,0:0:0:0:
320,192,10743,1,0,2:0:0:70:LR2_KickBassD.wav
64,192,10957,1,0,0:0:0:0:
192,192,11171,1,0,2:0:0:70:LR_Kick Beat 2.wav
320,192,11385,1,0,0:0:0:0:
448,192,11600,1,0,2:0:0:70:LR2_KickBassD.wav
192,192,12028,1,0,2:0:0:70:LR_Kick Beat 2.wav
64,192,12243,1,0,0:0:0:0:
448,192,12457,1,0,2:0:0:70:LR2_KickBassD.wav
192,192,12671,1,0,0:0:0:0:
64,192,12885,1,0,2:0:0:70:LR_Kick Beat 2.wav
320,192,13100,1,0,0:0:0:0:
448,192,13314,1,0,2:0:0:70:LR2_KickBassD.wav
192,192,13528,1,0,0:0:0:0:
448,192,13743,128,0,14600:2:0:0:70:LR_Snare Fast.wav
64,192,14171,128,0,14600:2:0:0:70:LR_Snare Fast.wav
192,192,14385,128,0,14600:2:0:0:70:LR_Snare Fast.wav
320,192,14600,1,0,2:0:0:70:LR_Snare Fast.wav
192,192,14921,1,0,2:0:0:70:LR_Snare Fast.wav
64,192,15243,1,0,2:0:0:70:LR_Snare Fast.wav
320,192,15457,128,0,17171:2:0:0:70:LR_Kick Beat 2.wav
448,192,15457,1,0,0:0:0:0:
64,192,17171,1,0,2:0:0:70:LR_Kick Beat 2.wav
192,192,17600,1,0,2:0:0:70:LR2_KickBassD.wav
448,192,18028,1,0,2:0:0:70:LR_Kick Beat 2.wav
320,192,18457,1,0,2:0:0:70:LR2_KickBassD.wav
64,192,18885,1,0,2:0:0:70:LR_Kick Beat 2.wav
448,192,19314,1,0,2:0:0:70:LR2_KickBassD.wav
192,192,19743,1,0,2:0:0:70:LR_Kick Beat 2.wav
320,192,20171,1,0,2:0:0:70:LR2_KickBassD.wav
64,192,20600,1,0,2:0:0:70:LR_Kick Beat 2.wav
448,192,21028,1,0,2:0:0:70:LR2_KickBassD.wav
192,192,21457,1,0,2:0:0:70:LR_Kick Beat 2.wav
448,192,21885,1,0,2:0:0:100:LR_Snare Fast.wav
64,192,22100,1,0,2:0:0:100:LR_Snare Fast.wav
192,192,22314,1,0,0:0:0:0:
320,192,22314,1,0,2:0:0:70:LR_Kick Beat 2.wav
448,192,22743,1,0,2:0:0:70:LR_Clap Fast Low.wav
64,192,22957,1,0,2:0:0:100:LR_HiHat Click.wav
320,192,23171,1,0,2:0:0:70:LR_Kick Beat 2.wav
192,192,23385,1,0,2:0:0:100:LR_HiHat Click.wav
448,192,23600,1,0,2:0:0:70:LR_Clap Fast Low.wav
320,192,23814,1,0,2:0:0:0:
64,192,24028,1,0,2:0:0:70:LR_Kick Beat 2.wav
192,192,24028,1,0,0:0:0:0:
448,192,24457,1,0,2:0:0:70:LR_Clap Fast Low.wav
64,192,24671,1,0,2:0:0:100:LR_HiHat Click.wav
320,192,24885,1,0,2:0:0:70:LR_Kick Beat 2.wav
192,192,25100,1,0,2:0:0:100:LR_HiHat Click.wav
448,192,25314,1,0,2:0:0:70:LR_Clap Fast Low.wav
320,192,25528,1,0,2:0:0:0:
64,192,25743,1,0,2:0:0:70:LR_Kick Beat 2.wav
448,192,25743,1,0,0:0:0:0:
320,192,26171,1,0,2:0:0:70:LR_Clap Fast Low.wav
192,192,26385,1,0,2:0:0:100:LR_HiHat Click.wav
320,192,26600,1,0,2:0:0:70:LR_Kick Beat 2.wav
64,192,26814,1,0,2:0:0:100:LR_HiHat Click.wav
192,192,27028,1,0,2:0:0:70:LR_Clap Fast Low.wav
448,192,27243,1,0,2:0:0:0:
64,192,27457,128,0,27885:2:0:0:0:
320,192,27885,128,0,28314:2:0:0:0:
448,192,28314,128,0,28850:2:0:0:0:
64,192,28850,128,0,29171:0:0:0:0:
320,192,29171,1,0,2:0:0:70:LR_Snare Fast.wav
192,192,29171,1,0,0:0:0:0:
448,192,29600,1,0,2:0:0:70:LR_Snare Fast.wav
192,192,29814,1,0,2:0:0:0:
320,192,30028,1,0,2:0:0:70:LR_Snare Fast.wav
64,192,30243,1,0,2:0:0:0:
192,192,30457,1,0,2:0:0:70:LR_Snare Fast.wav
320,192,30671,1,0,2:0:0:0:
64,192,30885,1,0,2:0:0:70:LR_Snare Fast.wav
448,192,30885,1,0,0:0:0:0:
320,192,31314,1,0,2:0:0:70:LR_Snare Fast.wav
192,192,31528,1,0,2:0:0:0:
448,192,31743,1,0,2:0:0:70:LR_Snare Fast.wav
64,192,31957,1,0,2:0:0:0:
320,192,32171,1,0,2:0:0:70:LR_Snare Fast.wav
192,192,32385,1,0,2:0:0:0:
448,192,32600,1,0,2:0:0:70:LR_Snare Fast.wav
320,192,32600,1,0,0:0:0:0:
192,192,33028,1,0,2:0:0:70:LR_Snare Fast.wav
64,192,33243,1,0,2:0:0:0:
448,192,33457,1,0,2:0:0:70:LR_Snare Fast.wav
192,192,33671,1,0,2:0:0:0:
64,192,33885,1,0,2:0:0:70:LR_Snare Fast.wav
320,192,34100,1,0,2:0:0:0:
448,192,34314,1,0,2:0:0:70:LR_Snare Fast.wav
64,192,34314,1,0,0:0:0:0:
192,192,34743,1,0,2:0:0:70:LR_Snare Fast.wav
64,192,34957,1,0,2:0:0:0:
448,192,35171,1,0,2:0:0:70:LR_Snare Fast.wav
192,192,35385,1,0,2:0:0:0:
320,192,35600,1,0,2:0:0:70:LR_Snare Fast.wav
64,192,35814,1,0,2:0:0:0:
448,192,36028,1,0,2:0:0:70:LR_Snare Fast.wav
320,192,36028,1,0,0:0:0:0:
192,192,36457,1,0,2:0:0:70:LR_Snare Fast.wav
64,192,36671,1,0,2:0:0:0:
320,192,36885,1,0,2:0:0:70:LR_Snare Fast.wav
448,192,37100,1,0,2:0:0:0:
64,192,37314,1,0,2:0:0:70:LR_Snare Fast.wav
192,192,37528,1,0,2:0:0:0:
448,192,37743,128,0,38921:2:0:0:70:LR_Snare Fast.wav
320,192,37743,1,0,0:0:0:0:
64,192,38921,128,0,39243:2:0:0:70:LR_Snare Fast.wav
320,192,39243,128,0,39457:2:0:0:70:LR_Snare Fast.wav
192,192,39457,128,0,40314:2:0:0:70:LR_Snare Fast.wav
64,192,40314,128,0,40743:2:0:0:70:LR_Snare Fast.wav
320,192,40743,128,0,41171:2:0:0:70:LR_Snare Fast.wav
448,192,41171,128,0,42243:2:0:0:70:LR_Snare Fast.wav
192,192,42243,1,0,2:0:0:70:LR3_HiHat Normal.wav
320,192,42457,1,0,2:0:0:70:LR_Snare Fast.wav
64,192,42457,1,0,0:0:0:0:
192,192,42885,128,0,46314:2:0:0:70:LR3_BassDrop.wav
320,192,46635,128,0,49743:2:0:0:0:
192,192,49743,1,0,2:0:0:70:LR3_HiHat Normal.wav
64,192,50171,1,0,2:0:0:70:LR3_HiHat Normal.wav
320,192,50600,1,0,2:0:0:70:LR3_HiHat Normal.wav
192,192,51028,1,0,2:0:0:70:LR3_HiHat Normal.wav
448,192,51457,128,0,52314:2:0:0:70:LR3_HiHat Normal.wav
320,192,52314,1,0,2:0:0:70:LR3_HiHat Normal.wav
64,192,52528,1,0,2:0:0:70:LR_HiHat Click.wav
192,192,52743,1,0,2:0:0:70:LR3_HiHat Normal.wav
448,192,52957,1,0,2:0:0:70:LR_HiHat Click.wav
64,192,53171,128,0,53600:2:0:0:70:LR3_HiHat Normal.wav
192,192,53600,1,0,2:0:0:70:LR3_HiHat Normal.wav
320,192,54028,1,0,2:0:0:70:LR3_HiHat Normal.wav
64,192,54243,1,0,2:0:0:70:LR_HiHat Click.wav
192,192,54457,1,0,2:0:0:70:LR3_HiHat Normal.wav
448,192,54671,1,0,2:0:0:70:LR_HiHat Click.wav
320,192,54885,128,0,55743:2:0:0:70:LR3_HiHat Normal.wav
64,192,55743,1,0,2:0:0:70:LR3_HiHat Normal.wav
192,192,55957,1,0,2:0:0:70:LR_HiHat Click.wav
320,192,56171,1,0,2:0:0:70:LR3_HiHat Normal.wav
448,192,56385,128,0,57243:2:0:0:70:LR_HiHat Click.wav
192,192,57457,1,0,2:0:0:70:LR3_HiHat Normal.wav
320,192,57885,1,0,2:0:0:70:LR3_HiHat Normal.wav
448,192,58314,128,0,59171:2:0:0:70:LR3_HiHat Normal.wav
192,192,59171,128,0,60028:2:0:0:70:LR3_HiHat Normal.wav
320,192,60028,128,0,60885:2:0:0:70:LR3_HiHat Normal.wav
448,192,60885,128,0,61743:2:0:0:70:LR3_HiHat Normal.wav
320,192,61743,128,0,62600:2:0:0:70:LR3_HiHat Normal.wav
192,192,62600,128,0,63457:2:0:0:70:LR3_HiHat Normal.wav
64,192,63457,1,0,2:0:0:70:LR3_BassDrop.wav
448,192,63671,1,0,2:0:0:0:
192,192,63885,1,0,2:0:0:0:
320,192,64100,1,0,2:0:0:0:
64,192,64314,1,0,2:0:0:0:
448,192,64528,1,0,2:0:0:0:
192,192,64743,1,0,2:0:0:0:
320,192,64957,1,0,2:0:0:0:
448,192,65171,1,0,2:0:0:0:
192,192,65385,1,0,2:0:0:0:
64,192,65600,1,0,2:0:0:0:
448,192,65814,1,0,2:0:0:0:
320,192,66028,1,0,2:0:0:0:
192,192,66243,1,0,2:0:0:0:
448,192,66457,1,0,2:0:0:0:
64,192,66671,1,0,2:0:0:0:
320,192,66885,1,0,2:0:0:0:
192,192,67100,1,0,2:0:0:0:
448,192,67314,1,0,2:0:0:0:
64,192,67528,1,0,2:0:0:0:
320,192,67743,1,0,2:0:0:0:
192,192,67957,1,0,2:0:0:0:
64,192,68171,1,0,2:0:0:0:
320,192,68385,1,0,2:0:0:0:
448,192,68600,1,0,2:0:0:0:
64,192,68814,1,0,2:0:0:0:
192,192,69028,1,0,2:0:0:0:
320,192,69243,1,0,2:0:0:0:
64,192,69457,1,0,2:0:0:0:
448,192,69671,1,0,2:0:0:0:
192,192,69885,1,0,2:0:0:0:
320,192,70100,1,0,2:0:0:0:
64,192,70314,1,0,2:0:0:70:LR_Snare Fast.wav
192,192,70314,1,0,0:0:0:0:
448,192,70743,1,0,2:0:0:70:LR_Snare Fast.wav
192,192,71171,1,0,2:0:0:70:LR_Snare Fast.wav
448,192,71600,1,0,2:0:0:70:LR_Snare Fast.wav
64,192,72028,1,0,2:0:0:70:LR_Snare Fast.wav
320,192,72028,1,0,0:0:0:0:
192,192,72457,1,0,2:0:0:70:LR_Snare Fast.wav
320,192,72885,1,0,2:0:0:70:LR_Snare Fast.wav
448,192,73314,128,0,73743:2:0:0:70:LR_Snare Fast.wav
64,192,73743,1,0,2:0:0:70:LR_Snare Fast.wav
192,192,73743,1,0,0:0:0:0:
320,192,74171,1,0,2:0:0:70:LR_Snare Fast.wav
192,192,74600,1,0,2:0:0:70:LR_Snare Fast.wav
64,192,75028,1,0,2:0:0:70:LR_Snare Fast.wav
320,192,75457,128,0,75885:2:0:0:70:LR_Snare Fast.wav
448,192,75457,1,0,0:0:0:0:
64,192,75885,128,0,76314:0:0:0:70:LR_Snare Fast.wav
192,192,75885,1,0,0:0:0:0:
448,192,76314,128,0,76743:2:0:0:70:LR3_BassDrop.wav
192,192,76743,128,0,77171:2:0:0:0:
320,192,77171,1,0,2:0:0:70:LR2_KickBassD.wav
64,192,77600,1,0,2:0:0:70:LR_Kick Beat 2.wav
448,192,78028,1,0,2:0:0:70:LR2_KickBassD.wav
192,192,78457,1,0,2:0:0:70:LR_Kick Beat 2.wav
320,192,78885,1,0,2:0:0:70:LR2_KickBassD.wav
448,192,79100,1,0,2:0:0:0:
64,192,79314,1,0,2:0:0:70:LR_Kick Beat 2.wav
192,192,79528,1,0,2:0:0:0:
320,192,79743,1,0,2:0:0:70:LR_Kick Beat 2.wav
64,192,80171,1,0,2:0:0:70:LR2_KickBassD.wav
448,192,80600,1,0,2:0:0:70:LR_Kick Beat 2.wav
192,192,80814,1,0,2:0:0:0:
64,192,81028,1,0,2:0:0:70:LR2_KickBassD.wav
320,192,81243,1,0,2:0:0:0:
192,192,81457,1,0,2:0:0:70:LR_Kick Beat 2.wav
448,192,81885,1,0,2:0:0:70:LR2_KickBassD.wav
64,192,82314,1,0,2:0:0:70:LR_Kick Beat 2.wav
192,192,82528,1,0,2:0:0:0:
320,192,82743,1,0,2:0:0:70:LR2_KickBassD.wav
64,192,82957,1,0,2:0:0:0:
448,192,83171,1,0,2:0:0:70:LR_Kick Beat 2.wav
320,192,83600,128,0,83814:2:0:0:70:LR_Snare Fast.wav
448,192,83814,128,0,84028:2:0:0:70:LR_Snare Fast.wav
64,192,84028,1,0,2:0:0:70:LR_Kick Beat 2.wav
192,192,84028,1,0,0:0:0:0:
448,192,84457,1,0,2:0:0:70:LR_Clap Fast Low.wav
192,192,84885,1,0,2:0:0:70:LR_Kick Beat 2.wav
320,192,85100,1,0,2:0:0:0:
64,192,85314,1,0,2:0:0:70:LR_Clap Fast Low.wav
448,192,85743,1,0,2:0:0:70:LR_Kick Beat 2.wav
320,192,85743,1,0,0:0:0:0:
192,192,85957,1,0,2:0:0:0:
64,192,86171,1,0,2:0:0:70:LR_Clap Fast Low.wav
320,192,86600,1,0,2:0:0:70:LR_Kick Beat 2.wav
448,192,87028,1,0,2:0:0:70:LR_Clap Fast Low.wav
64,192,87457,1,0,2:0:0:70:LR_Kick Beat 2.wav
192,192,87457,1,0,0:0:0:0:
320,192,87885,1,0,2:0:0:70:LR_Clap Fast Low.wav
192,192,88314,1,0,2:0:0:70:LR_Kick Beat 2.wav
64,192,88743,1,0,2:0:0:70:LR_Clap Fast Low.wav
448,192,89171,128,0,90028:2:0:0:70:LR_Kick Beat 2.wav
64,192,90028,1,0,2:0:0:70:LR_Snare Fast.wav
192,192,90350,1,0,2:0:0:70:LR_Snare Fast.wav
320,192,90671,1,0,2:0:0:70:LR_Snare Fast.wav
64,192,90885,1,0,2:0:0:70:LR_Kick Beat 2.wav
192,192,90885,1,0,0:0:0:0:
448,192,91314,1,0,2:0:0:70:LR2_KickBassD.wav
192,192,91528,1,0,2:0:0:0:
64,192,91743,1,0,2:0:0:70:LR_Kick Beat 2.wav
320,192,91957,1,0,2:0:0:0:
192,192,92171,1,0,2:0:0:70:LR2_KickBassD.wav
448,192,92385,1,0,2:0:0:0:
64,192,92600,1,0,2:0:0:70:LR_Kick Beat 2.wav
320,192,92600,1,0,0:0:0:0:
448,192,93028,1,0,2:0:0:70:LR2_KickBassD.wav
192,192,93243,1,0,2:0:0:0:
320,192,93457,1,0,2:0:0:70:LR_Kick Beat 2.wav
64,192,93671,1,0,2:0:0:0:
192,192,93885,1,0,2:0:0:70:LR2_KickBassD.wav
320,192,94100,1,0,0:0:0:0:
64,192,94314,1,0,2:0:0:70:LR_Kick Beat 2.wav
192,192,94314,1,0,0:0:0:0:
448,192,94743,1,0,2:0:0:70:LR2_KickBassD.wav
192,192,94957,1,0,2:0:0:0:
64,192,95171,1,0,2:0:0:70:LR_Kick Beat 2.wav
320,192,95385,1,0,2:0:0:0:
192,192,95600,1,0,2:0:0:70:LR2_KickBassD.wav
448,192,95814,1,0,0:0:0:0:
64,192,96028,1,0,2:0:0:70:LR_Kick Beat 2.wav
320,192,96028,1,0,0:0:0:0:
448,192,96457,1,0,2:0:0:70:LR2_KickBassD.wav
192,192,96885,1,0,2:0:0:70:LR_Kick Beat 2.wav
64,192,97314,1,0,2:0:0:100:LR_Snare Fast.wav
448,192,97528,1,0,2:0:0:100:LR_Snare Fast.wav
192,192,97743,1,0,2:0:0:70:LR_Kick Beat 2.wav
320,192,97743,1,0,0:0:0:0:
448,192,98171,1,0,2:0:0:70:LR_Clap Fast Low.wav
64,192,98385,1,0,2:0:0:100:LR_HiHat Click.wav
320,192,98600,1,0,2:0:0:70:LR_Kick Beat 2.wav
192,192,98814,1,0,2:0:0:100:LR_HiHat Click.wav
448,192,99028,1,0,2:0:0:70:LR_Clap Fast Low.wav
320,192,99243,1,0,2:0:0:0:
64,192,99457,1,0,2:0:0:70:LR_Kick Beat 2.wav
192,192,99457,1,0,0:0:0:0:
448,192,99885,1,0,2:0:0:70:LR_Clap Fast Low.wav
64,192,100100,1,0,2:0:0:100:LR_HiHat Click.wav
320,192,100314,1,0,2:0:0:70:LR_Kick Beat 2.wav
192,192,100528,1,0,2:0:0:100:LR_HiHat Click.wav
448,192,100743,1,0,2:0:0:70:LR_Clap Fast Low.wav
320,192,100957,1,0,2:0:0:0:
64,192,101171,1,0,2:0:0:70:LR_Kick Beat 2.wav
192,192,101171,1,0,0:0:0:0:
448,192,101600,1,0,2:0:0:70:LR_Clap Fast Low.wav
192,192,101814,1,0,2:0:0:100:LR_HiHat Click.wav
320,192,102028,1,0,2:0:0:70:LR_Kick Beat 2.wav
64,192,102243,1,0,2:0:0:100:LR_HiHat Click.wav
192,192,102457,1,0,2:0:0:70:LR_Clap Fast Low.wav
448,192,102671,1,0,2:0:0:0:
64,192,102885,1,0,2:0:0:70:LR_Kick Beat 2.wav
448,192,103314,1,0,2:0:0:70:LR_Kick Beat 2.wav
320,192,103528,1,0,2:0:0:70:LR_Kick Beat 2.wav
192,192,103743,1,0,2:0:0:70:LR_Kick Beat 2.wav
64,192,104171,1,0,0:0:0:0:
448,192,104493,1,0,0:0:0:0:
