osu file format v14

[General]
AudioFilename: audio.mp3
AudioLeadIn: 0
PreviewTime: 89064
Countdown: 0
SampleSet: Soft
StackLeniency: 0.7
Mode: 3
LetterboxInBreaks: 0
SpecialStyle: 0
WidescreenStoryboard: 1

[Editor]
DistanceSpacing: 1
BeatDivisor: 4
GridSize: 4
TimelineZoom: 2.9

[Metadata]
Title:Breeze
TitleUnicode:Breeze
Artist:cYsmix
ArtistUnicode:cYsmix
Creator:Soul Evans
Version:Hayajan 'MX'
Source:osu!
Tags:featured artist monthly beatmapping contest MBC sea arabia ocean Chronocide dudehacker
BeatmapID:1349845
BeatmapSetID:629575

[Difficulty]
HPDrainRate:8
CircleSize:4
OverallDifficulty:8
ApproachRate:5
SliderMultiplier:1.4
SliderTickRate:1

[Events]
//Background and Video events
0,0,"HQ.jpg",0,0
//Break Periods
//Storyboard Layer 0 (Background)
//Storyboard Layer 1 (Fail)
//Storyboard Layer 2 (Pass)
//Storyboard Layer 3 (Foreground)
//Storyboard Sound Samples

[TimingPoints]
1743,428.571428571429,4,2,1,60,1,0
29171,-100,4,2,1,60,0,1
42885,-100,4,2,1,60,0,0
89171,-100,4,2,1,60,0,1
102885,-100,4,2,1,60,0,0

[HitObjects]
448,192,1314,5,0,2:0:0:70:LR_Clap DS.wav
320,192,1314,1,0,2:0:0:0:
64,192,1743,128,0,2171:2:0:0:70:LR3_HiHat Normal.wav
320,192,1743,1,0,2:0:0:70:LR_Kick Beat 2.wav
448,192,1850,1,0,2:0:0:0:
192,192,1957,1,0,2:0:0:0:
320,192,2064,1,0,2:0:0:0:
192,192,2171,1,0,2:0:0:70:LR3_HiHat Normal.wav
448,192,2171,1,0,2:0:0:70:LR2_KickBassD.wav
64,192,2385,1,0,2:0:0:0:
320,192,2493,1,0,0:0:0:0:
448,192,2600,1,0,2:0:0:70:LR_Clap DS.wav
192,192,2600,1,0,0:0:0:70:LR_Kick Beat 2.wav
64,192,2707,1,0,2:0:0:0:
320,192,2814,1,0,2:0:0:0:
448,192,2921,1,0,2:0:0:0:
192,192,3028,1,0,2:0:0:70:LR3_HiHat Normal.wav
64,192,3028,1,0,2:0:0:70:LR2_KickBassD.wav
320,192,3135,1,0,2:0:0:0:
192,192,3350,1,0,2:0:0:0:
320,192,3457,1,0,2:0:0:70:LR3_HiHat Normal.wav
64,192,3457,1,0,2:0:0:70:LR_Kick Beat 2.wav
448,192,3564,1,0,2:0:0:0:
192,192,3671,1,0,2:0:0:0:
320,192,3778,1,0,2:0:0:0:
64,192,3885,1,0,2:0:0:70:LR3_HiHat Normal.wav
192,192,3885,1,0,2:0:0:70:LR2_KickBassD.wav
448,192,3993,1,0,2:0:0:0:
320,192,4207,1,0,2:0:0:0:
192,192,4314,1,0,2:0:0:70:LR3_HiHat Normal.wav
448,192,4314,1,0,2:0:0:70:LR_Kick Beat 2.wav
64,192,4421,1,0,2:0:0:0:
320,192,4528,1,0,2:0:0:0:
192,192,4635,1,0,2:0:0:0:
320,192,4743,1,0,2:0:0:70:LR3_HiHat Normal.wav
64,192,4743,1,0,2:0:0:70:LR2_KickBassD.wav
448,192,4850,1,0,2:0:0:0:
64,192,5064,1,0,2:0:0:0:
320,192,5171,1,0,2:0:0:70:LR3_HiHat Normal.wav
448,192,5171,1,0,2:0:0:70:LR_Kick Beat 2.wav
192,192,5278,1,0,2:0:0:0:
64,192,5385,1,0,2:0:0:0:
320,192,5493,1,0,2:0:0:0:
448,192,5600,1,0,2:0:0:70:LR3_HiHat Normal.wav
192,192,5600,1,0,2:0:0:70:LR2_KickBassD.wav
64,192,5707,1,0,2:0:0:0:
320,192,5814,1,0,2:0:0:0:
448,192,5921,1,0,2:0:0:0:
192,192,6028,1,0,2:0:0:70:LR3_HiHat Normal.wav
64,192,6028,1,0,2:0:0:70:LR_Kick Beat 2.wav
320,192,6135,1,0,2:0:0:0:
192,192,6243,1,0,2:0:0:0:
320,192,6350,1,0,2:0:0:0:
192,192,6457,1,0,2:0:0:70:LR3_HiHat Normal.wav
448,192,6457,1,0,2:0:0:70:LR2_KickBassD.wav
64,192,6564,1,0,2:0:0:0:
448,192,6778,1,0,2:0:0:0:
64,192,6885,1,0,2:0:0:70:LR3_HiHat Normal.wav
192,192,6885,1,0,2:0:0:70:LR_Kick Beat 2.wav
320,192,6993,1,0,2:0:0:0:
192,192,7100,1,0,2:0:0:0:
320,192,7207,1,0,2:0:0:0:
448,192,7314,1,0,2:0:0:70:LR3_HiHat Normal.wav
64,192,7314,1,0,2:0:0:70:LR2_KickBassD.wav
192,192,7421,1,0,2:0:0:0:
320,192,7528,1,0,2:0:0:0:
64,192,7635,1,0,2:0:0:0:
192,192,7743,1,0,2:0:0:70:LR3_HiHat Normal.wav
448,192,7743,1,0,2:0:0:70:LR_Kick Beat 2.wav
320,192,7850,1,0,2:0:0:0:
192,192,7957,1,0,2:0:0:0:
64,192,8064,1,0,2:0:0:0:
448,192,8171,1,0,2:0:0:70:LR3_HiHat Normal.wav
320,192,8171,1,0,2:0:0:70:LR2_KickBassD.wav
192,192,8278,1,0,2:0:0:0:
448,192,8600,1,0,2:0:0:70:LR_Clap DS.wav
320,192,8600,1,0,2:0:0:70:LR3_HiHat Normal.wav
64,192,8600,128,0,12028:2:0:0:70:LR_Kick Beat 2.wav
192,192,8707,1,0,2:0:0:0:
448,192,8814,1,0,2:0:0:0:
192,192,8921,1,0,2:0:0:0:
320,192,9028,1,0,2:0:0:70:LR3_HiHat Normal.wav
448,192,9028,1,0,2:0:0:70:LR2_KickBassD.wav
448,192,9243,1,0,2:0:0:0:
192,192,9350,1,0,2:0:0:0:
448,192,9457,1,0,2:0:0:70:LR3_HiHat Normal.wav
320,192,9457,1,0,2:0:0:70:LR_Kick Beat 2.wav
192,192,9564,1,0,2:0:0:0:
320,192,9671,1,0,2:0:0:0:
448,192,9778,1,0,2:0:0:0:
192,192,9885,1,0,2:0:0:70:LR3_HiHat Normal.wav
320,192,9885,1,0,2:0:0:70:LR2_KickBassD.wav
448,192,9993,1,0,2:0:0:0:
448,192,10314,1,0,2:0:0:70:LR3_HiHat Normal.wav
320,192,10314,1,0,2:0:0:70:LR_Kick Beat 2.wav
192,192,10421,1,0,2:0:0:0:
448,192,10528,1,0,2:0:0:0:
192,192,10635,1,0,2:0:0:0:
320,192,10743,1,0,2:0:0:70:LR3_HiHat Normal.wav
448,192,10743,1,0,2:0:0:70:LR2_KickBassD.wav
192,192,10957,1,0,2:0:0:0:
448,192,11064,1,0,2:0:0:0:
192,192,11171,1,0,2:0:0:70:LR3_HiHat Normal.wav
320,192,11171,1,0,2:0:0:70:LR_Kick Beat 2.wav
448,192,11278,1,0,2:0:0:0:
320,192,11385,1,0,2:0:0:0:
192,192,11493,1,0,2:0:0:0:
320,192,11600,1,0,2:0:0:70:LR3_HiHat Normal.wav
448,192,11600,1,0,2:0:0:70:LR2_KickBassD.wav
192,192,11707,1,0,2:0:0:0:
320,192,12028,1,0,2:0:0:70:LR3_HiHat Normal.wav
192,192,12028,1,0,2:0:0:70:LR_Kick Beat 2.wav
448,192,12028,128,0,13635:2:0:0:0:
64,192,12135,1,0,2:0:0:0:
320,192,12243,1,0,2:0:0:0:
64,192,12350,1,0,2:0:0:0:
320,192,12457,1,0,2:0:0:70:LR3_HiHat Normal.wav
192,192,12457,1,0,2:0:0:70:LR2_KickBassD.wav
64,192,12671,1,0,2:0:0:0:
320,192,12778,1,0,2:0:0:0:
192,192,12885,1,0,2:0:0:70:LR3_HiHat Normal.wav
64,192,12885,1,0,2:0:0:70:LR_Kick Beat 2.wav
320,192,12993,1,0,2:0:0:0:
192,192,13100,1,0,2:0:0:0:
64,192,13207,1,0,2:0:0:0:
192,192,13314,1,0,2:0:0:70:LR3_HiHat Normal.wav
320,192,13314,1,0,2:0:0:70:LR2_KickBassD.wav
64,192,13528,128,0,13743:0:0:0:0:
320,192,13635,128,0,13743:0:0:0:0:
192,192,13743,128,0,14171:2:0:0:70:LR_Snare Fast.wav
448,192,13743,1,0,0:0:0:0:
64,192,13957,128,0,14600:2:0:0:70:LR_Snare Fast.wav
320,192,14171,128,0,14385:2:0:0:70:LR_Snare Fast.wav
448,192,14171,128,0,14493:2:0:0:0:
192,192,14385,128,0,14600:0:0:0:70:LR_Snare Fast.wav
448,192,14600,128,0,14814:2:0:0:70:LR_Snare Fast.wav
320,192,14600,128,0,14814:2:0:0:0:
192,192,14921,128,0,15135:2:0:0:70:LR_Snare Fast.wav
320,192,14921,128,0,15135:2:0:0:0:
64,192,15243,128,0,15457:2:0:0:70:LR_Snare Fast.wav
192,192,15243,128,0,15457:2:0:0:0:
320,192,15457,1,0,2:0:0:70:LR_Kick Beat 2.wav
448,192,15457,1,0,0:0:0:0:
192,192,15510,1,0,2:0:0:0:
64,192,15564,1,0,2:0:0:0:
320,192,15618,1,0,2:0:0:0:
192,192,15671,1,0,2:0:0:0:
448,192,15725,1,0,2:0:0:0:
320,192,15778,1,0,2:0:0:0:
64,192,15832,1,0,2:0:0:0:
192,192,15885,1,0,2:0:0:70:LR2_KickBassD.wav
448,192,15939,1,0,2:0:0:0:
320,192,15993,1,0,2:0:0:0:
64,192,16046,1,0,2:0:0:0:
192,192,16100,1,0,2:0:0:0:
320,192,16153,1,0,2:0:0:0:
448,192,16207,1,0,2:0:0:0:
192,192,16260,1,0,2:0:0:0:
64,192,16314,1,0,2:0:0:70:LR_Kick Beat 2.wav
320,192,16368,1,0,2:0:0:0:
448,192,16421,1,0,2:0:0:0:
192,192,16475,1,0,2:0:0:0:
64,192,16528,1,0,2:0:0:0:
320,192,16582,1,0,2:0:0:0:
192,192,16635,1,0,2:0:0:0:
448,192,16689,1,0,2:0:0:0:
64,192,16743,1,0,2:0:0:70:LR2_KickBassD.wav
320,192,16743,1,0,2:0:0:0:
320,192,16957,128,0,17064:0:0:0:0:
192,192,17064,128,0,17171:0:0:0:0:
448,192,17171,1,0,2:0:0:70:LR_Kick Beat 2.wav
320,192,17171,1,0,2:0:0:0:
64,192,17171,128,0,17385:2:0:0:0:
320,192,17385,128,0,17600:2:0:0:0:
448,192,17493,128,0,17600:2:0:0:0:
192,192,17600,1,0,2:0:0:70:LR2_KickBassD.wav
64,192,17600,1,0,2:0:0:0:
320,192,17814,128,0,18028:2:0:0:0:
192,192,18028,1,0,2:0:0:70:LR_Kick Beat 2.wav
64,192,18028,1,0,2:0:0:0:
448,192,18028,128,0,18243:2:0:0:0:
64,192,18243,128,0,18457:2:0:0:0:
192,192,18457,1,0,2:0:0:70:LR2_KickBassD.wav
320,192,18457,1,0,2:0:0:0:
448,192,18457,128,0,18564:0:0:0:0:
64,192,18564,128,0,18671:0:0:0:0:
192,192,18671,128,0,18778:0:0:0:0:
320,192,18778,128,0,18885:0:0:0:0:
448,192,18885,1,0,2:0:0:70:LR_Kick Beat 2.wav
192,192,18885,1,0,2:0:0:0:
64,192,18885,128,0,19100:2:0:0:0:
320,192,19100,128,0,19314:2:0:0:0:
448,192,19207,128,0,19314:2:0:0:0:
192,192,19314,1,0,2:0:0:70:LR2_KickBassD.wav
64,192,19314,1,0,2:0:0:0:
320,192,19528,128,0,19743:2:0:0:0:
192,192,19743,1,0,2:0:0:70:LR_Kick Beat 2.wav
64,192,19743,1,0,2:0:0:0:
448,192,19743,128,0,19957:2:0:0:0:
64,192,19957,128,0,20171:2:0:0:0:
192,192,20171,1,0,2:0:0:70:LR2_KickBassD.wav
320,192,20171,1,0,2:0:0:0:
448,192,20278,128,0,20385:0:0:0:0:
192,192,20385,128,0,20493:0:0:0:0:
320,192,20493,128,0,20600:0:0:0:0:
192,192,20600,1,0,2:0:0:70:LR_Kick Beat 2.wav
64,192,20600,1,0,2:0:0:0:
448,192,20600,128,0,20814:2:0:0:0:
192,192,20814,128,0,20921:2:0:0:0:
320,192,20921,128,0,21028:2:0:0:0:
448,192,21028,1,0,2:0:0:70:LR2_KickBassD.wav
64,192,21028,1,0,2:0:0:0:
192,192,21135,1,0,2:0:0:0:
320,192,21243,1,0,2:0:0:0:
448,192,21350,1,0,2:0:0:0:
192,192,21457,1,0,2:0:0:70:LR_Kick Beat 2.wav
64,192,21457,1,0,2:0:0:0:
320,192,21564,128,0,21885:2:0:0:0:
448,192,21885,1,0,2:0:0:100:LR_Snare Fast.wav
64,192,21885,1,0,2:0:0:0:
192,192,21885,1,0,2:0:0:0:
192,192,22100,1,0,2:0:0:100:LR_Snare Fast.wav
64,192,22100,1,0,2:0:0:0:
448,192,22100,1,0,2:0:0:0:
64,192,22314,1,0,2:0:0:70:LR_Kick Beat 2.wav
320,192,22314,1,0,2:0:0:0:
448,192,22314,128,0,22635:2:0:0:0:
192,192,22421,1,0,2:0:0:0:
64,192,22528,128,0,22743:0:0:0:0:
192,192,22635,128,0,22743:2:0:0:0:
320,192,22743,1,0,2:0:0:70:LR_Clap Fast Low.wav
448,192,22743,1,0,0:0:0:0:
64,192,22957,1,0,2:0:0:100:LR_HiHat Click.wav
448,192,22957,128,0,23171:2:0:0:0:
320,192,23064,1,0,2:0:0:0:
192,192,23171,1,0,2:0:0:70:LR_Kick Beat 2.wav
64,192,23171,1,0,2:0:0:0:
448,192,23385,1,0,2:0:0:100:LR_HiHat Click.wav
64,192,23385,128,0,23600:2:0:0:0:
192,192,23493,1,0,2:0:0:0:
320,192,23600,1,0,2:0:0:70:LR_Clap Fast Low.wav
448,192,23600,128,0,23814:2:0:0:0:
192,192,23814,128,0,23921:2:0:0:0:
320,192,23921,128,0,24028:2:0:0:0:
448,192,24028,1,0,2:0:0:70:LR_Kick Beat 2.wav
64,192,24028,128,0,24350:2:0:0:0:
192,192,24135,1,0,2:0:0:0:
320,192,24243,128,0,24457:0:0:0:0:
448,192,24350,128,0,24457:2:0:0:0:
192,192,24457,1,0,2:0:0:70:LR_Clap Fast Low.wav
64,192,24457,1,0,0:0:0:0:
192,192,24671,1,0,2:0:0:100:LR_HiHat Click.wav
64,192,24671,128,0,24885:2:0:0:0:
320,192,24778,1,0,2:0:0:0:
192,192,24885,1,0,2:0:0:70:LR_Kick Beat 2.wav
448,192,24885,128,0,25100:2:0:0:0:
320,192,25100,1,0,2:0:0:100:LR_HiHat Click.wav
64,192,25100,128,0,25314:2:0:0:0:
192,192,25207,1,0,2:0:0:0:
320,192,25314,1,0,2:0:0:70:LR_Clap Fast Low.wav
448,192,25314,128,0,25421:2:0:0:0:
192,192,25421,128,0,25528:2:0:0:0:
320,192,25528,128,0,25635:2:0:0:0:
448,192,25635,128,0,25743:2:0:0:0:
192,192,25743,1,0,2:0:0:70:LR_Kick Beat 2.wav
64,192,25743,128,0,26064:2:0:0:0:
320,192,25850,1,0,2:0:0:0:
448,192,25957,128,0,26171:0:0:0:0:
320,192,26064,128,0,26171:2:0:0:0:
64,192,26171,1,0,2:0:0:70:LR_Clap Fast Low.wav
192,192,26171,1,0,0:0:0:0:
320,192,26385,128,0,26600:2:0:0:100:LR_HiHat Click.wav
64,192,26493,128,0,26707:2:0:0:0:
448,192,26600,128,0,26814:2:0:0:70:LR_Kick Beat 2.wav
192,192,26600,128,0,26707:2:0:0:0:
320,192,26814,1,0,2:0:0:100:LR_HiHat Click.wav
64,192,26814,128,0,27135:2:0:0:0:
192,192,26921,1,0,2:0:0:0:
448,192,27028,1,0,2:0:0:70:LR_Clap Fast Low.wav
320,192,27028,1,0,2:0:0:0:
192,192,27135,128,0,27243:2:0:0:0:
320,192,27243,128,0,27350:2:0:0:0:
64,192,27350,128,0,27457:2:0:0:0:
320,192,27457,128,0,27564:2:0:0:0:
448,192,27564,128,0,27778:2:0:0:0:
64,192,27778,128,0,27885:2:0:0:0:
192,192,27885,128,0,27993:2:0:0:0:
448,192,27993,128,0,28064:2:0:0:0:
64,192,28064,128,0,28135:2:0:0:0:
448,192,28135,128,0,28207:2:0:0:0:
192,192,28207,128,0,28314:2:0:0:0:
320,192,28314,1,0,2:0:0:0:
448,192,28368,1,0,2:0:0:0:
192,192,28421,1,0,2:0:0:0:
320,192,28475,1,0,2:0:0:0:
64,192,28528,1,0,2:0:0:0:
192,192,28582,1,0,2:0:0:0:
448,192,28635,1,0,2:0:0:0:
64,192,28689,1,0,2:0:0:0:
192,192,28850,128,0,29064:2:0:0:0:
448,192,28957,128,0,29064:2:0:0:0:
320,192,29064,128,0,29171:2:0:0:0:
64,192,29171,1,0,2:0:0:70:LR_Snare Fast.wav
448,192,29171,1,0,2:0:0:70:LR_Clap DS.wav
320,192,29385,1,0,2:0:0:0:
192,192,29493,1,0,2:0:0:0:
448,192,29600,128,0,29814:2:0:0:70:LR_Clap DS.wav
64,192,29600,1,0,2:0:0:70:LR_Snare Fast.wav
320,192,29600,1,0,0:0:0:0:
64,192,29814,128,0,30028:2:0:0:0:
192,192,29814,1,0,2:0:0:0:
448,192,30028,128,0,30243:2:0:0:70:LR_Snare Fast.wav
320,192,30028,1,0,2:0:0:70:LR_Clap DS.wav
192,192,30243,128,0,30350:2:0:0:0:
64,192,30350,128,0,30564:2:0:0:0:
448,192,30457,1,0,2:0:0:70:LR_Snare Fast.wav
320,192,30457,1,0,2:0:0:70:LR_Clap DS.wav
192,192,30564,128,0,30671:2:0:0:0:
448,192,30671,128,0,30778:2:0:0:0:
320,192,30778,128,0,30885:2:0:0:0:
64,192,30885,128,0,31100:2:0:0:70:LR_Clap DS.wav
192,192,30885,1,0,2:0:0:70:LR_Snare Fast.wav
448,192,30885,1,0,0:0:0:0:
448,192,31100,1,0,2:0:0:0:
320,192,31207,1,0,2:0:0:0:
192,192,31314,1,0,2:0:0:70:LR_Clap DS.wav
64,192,31314,128,0,31528:2:0:0:70:LR_Snare Fast.wav
448,192,31314,1,0,0:0:0:0:
320,192,31421,1,0,2:0:0:0:
448,192,31528,128,0,31743:2:0:0:0:
192,192,31743,1,0,2:0:0:70:LR_Snare Fast.wav
64,192,31743,1,0,2:0:0:70:LR_Clap DS.wav
448,192,31850,1,0,2:0:0:0:
320,192,31957,128,0,32064:2:0:0:0:
64,192,32064,128,0,32278:2:0:0:0:
448,192,32171,1,0,2:0:0:70:LR_Clap DS.wav
192,192,32171,1,0,2:0:0:70:LR_Snare Fast.wav
320,192,32278,128,0,32385:2:0:0:0:
192,192,32385,128,0,32493:2:0:0:0:
448,192,32385,1,0,2:0:0:0:
64,192,32493,128,0,32600:2:0:0:0:
448,192,32600,128,0,32814:2:0:0:70:LR_Snare Fast.wav
320,192,32600,1,0,2:0:0:70:LR_Clap DS.wav
192,192,32600,1,0,0:0:0:0:
192,192,32814,1,0,2:0:0:0:
320,192,32921,1,0,0:0:0:0:
64,192,33028,128,0,33243:2:0:0:70:LR_Clap DS.wav
192,192,33028,1,0,2:0:0:70:LR_Snare Fast.wav
448,192,33028,1,0,0:0:0:0:
320,192,33135,1,0,2:0:0:0:
448,192,33243,128,0,33457:2:0:0:0:
320,192,33457,128,0,33671:2:0:0:70:LR_Snare Fast.wav
192,192,33457,1,0,2:0:0:70:LR_Clap DS.wav
64,192,33457,1,0,2:0:0:0:
192,192,33671,128,0,33778:2:0:0:0:
320,192,33778,128,0,33993:2:0:0:0:
448,192,33885,1,0,2:0:0:70:LR_Clap DS.wav
64,192,33885,1,0,2:0:0:70:LR_Snare Fast.wav
192,192,33993,128,0,34100:2:0:0:0:
448,192,34100,128,0,34207:2:0:0:0:
64,192,34100,1,0,2:0:0:0:
320,192,34207,128,0,34314:2:0:0:0:
64,192,34314,128,0,34528:2:0:0:70:LR_Snare Fast.wav
192,192,34314,1,0,2:0:0:70:LR_Clap DS.wav
448,192,34314,1,0,0:0:0:0:
320,192,34528,1,0,2:0:0:0:
448,192,34635,1,0,2:0:0:0:
320,192,34743,128,0,34957:2:0:0:70:LR_Clap DS.wav
64,192,34743,1,0,2:0:0:70:LR_Snare Fast.wav
192,192,34743,1,0,0:0:0:0:
448,192,34957,128,0,35171:2:0:0:0:
192,192,35171,128,0,35385:2:0:0:70:LR_Snare Fast.wav
64,192,35171,1,0,2:0:0:70:LR_Clap DS.wav
320,192,35171,1,0,0:0:0:0:
320,192,35385,128,0,35493:2:0:0:0:
448,192,35493,128,0,35707:2:0:0:0:
192,192,35600,1,0,2:0:0:70:LR_Clap DS.wav
64,192,35600,1,0,2:0:0:70:LR_Snare Fast.wav
320,192,35707,128,0,35814:2:0:0:0:
448,192,35814,128,0,35921:2:0:0:0:
64,192,35814,1,0,2:0:0:0:
192,192,35921,128,0,36028:2:0:0:0:
320,192,36028,1,0,2:0:0:70:LR_Snare Fast.wav
64,192,36028,1,0,2:0:0:70:LR_Clap DS.wav
448,192,36243,1,0,2:0:0:0:
64,192,36350,1,0,0:0:0:0:
192,192,36457,128,0,36671:2:0:0:70:LR_Clap DS.wav
320,192,36457,1,0,2:0:0:70:LR_Snare Fast.wav
448,192,36457,1,0,0:0:0:0:
64,192,36671,128,0,36885:2:0:0:0:
448,192,36671,1,0,2:0:0:0:
320,192,36885,128,0,37207:2:0:0:70:LR_Snare Fast.wav
192,192,36885,1,0,2:0:0:70:LR_Clap DS.wav
448,192,36885,1,0,0:0:0:0:
64,192,37100,1,0,2:0:0:0:
192,192,37207,128,0,37528:2:0:0:0:
448,192,37314,1,0,2:0:0:70:LR_Snare Fast.wav
320,192,37421,128,0,37528:2:0:0:0:
448,192,37528,128,0,37635:2:0:0:0:
64,192,37528,1,0,2:0:0:0:
192,192,37635,128,0,37743:2:0:0:0:
64,192,37743,128,0,38921:2:0:0:70:LR_Snare Fast.wav
320,192,37743,128,0,38171:2:0:0:70:LR_Clap DS.wav
448,192,37743,1,0,0:0:0:0:
448,192,38171,1,0,2:0:0:70:LR_Clap DS.wav
192,192,38171,1,0,2:0:0:70:LR_Snare Fast.wav
448,192,38385,1,0,2:0:0:0:
192,192,38600,1,0,2:0:0:70:LR_Snare Fast.wav
320,192,38600,1,0,2:0:0:70:LR_Clap DS.wav
192,192,38814,128,0,38921:2:0:0:0:
448,192,38921,128,0,39243:2:0:0:0:
320,192,38921,128,0,39028:2:0:0:0:
192,192,39028,1,0,0:0:0:70:LR_Clap DS.wav
64,192,39028,1,0,0:0:0:70:LR_Snare Fast.wav
320,192,39243,128,0,39457:2:0:0:0:
64,192,39243,1,0,2:0:0:0:
192,192,39350,1,0,2:0:0:0:
64,192,39457,128,0,40314:2:0:0:70:LR_Snare Fast.wav
448,192,39457,1,0,2:0:0:0:
192,192,39564,1,0,2:0:0:70:LR_Snare Fast.wav
320,192,39671,1,0,2:0:0:70:LR_Snare Fast.wav
448,192,39778,1,0,2:0:0:70:LR_Snare Fast.wav
192,192,39885,1,0,2:0:0:70:LR_Snare Fast.wav
320,192,39993,1,0,2:0:0:70:LR_Snare Fast.wav
192,192,40100,1,0,2:0:0:70:LR_Snare Fast.wav
448,192,40207,1,0,2:0:0:70:LR_Snare Fast.wav
192,192,40314,128,0,40743:2:0:0:70:LR_Snare Fast.wav
320,192,40314,1,0,2:0:0:0:
448,192,40421,1,0,2:0:0:70:LR_Snare Fast.wav
64,192,40528,1,0,2:0:0:70:LR_Snare Fast.wav
448,192,40635,1,0,2:0:0:70:LR_Snare Fast.wav
320,192,40743,128,0,41171:2:0:0:70:LR_Snare Fast.wav
192,192,40850,1,0,2:0:0:70:LR_Snare Fast.wav
64,192,40957,1,0,2:0:0:70:LR_Snare Fast.wav
192,192,41064,1,0,2:0:0:70:LR_Snare Fast.wav
64,192,41171,1,0,2:0:0:70:LR_Snare Fast.wav
448,192,41171,128,0,42243:0:0:0:0:
192,192,41225,1,0,2:0:0:70:LR_Snare Fast.wav
320,192,41278,1,0,2:0:0:70:LR_Snare Fast.wav
64,192,41332,1,0,2:0:0:70:LR_Snare Fast.wav
192,192,41385,1,0,2:0:0:70:LR_Snare Fast.wav
320,192,41439,1,0,2:0:0:70:LR_Snare Fast.wav
64,192,41493,1,0,2:0:0:70:LR_Snare Fast.wav
192,192,41546,1,0,2:0:0:70:LR_Snare Fast.wav
320,192,41600,1,0,2:0:0:70:LR_Snare Fast.wav
64,192,41653,1,0,2:0:0:70:LR_Snare Fast.wav
192,192,41707,1,0,2:0:0:70:LR_Snare Fast.wav
320,192,41760,1,0,2:0:0:70:LR_Snare Fast.wav
64,192,41814,1,0,2:0:0:70:LR_Snare Fast.wav
192,192,41868,1,0,2:0:0:70:LR_Snare Fast.wav
320,192,41921,1,0,2:0:0:70:LR_Snare Fast.wav
64,192,41975,1,0,2:0:0:70:LR_Snare Fast.wav
192,192,42028,128,0,42243:0:0:0:0:
320,192,42028,128,0,42243:0:0:0:0:
64,192,42243,1,0,0:0:0:70:LR_Snare Fast.wav
448,192,42457,1,0,2:0:0:70:LR_Snare Fast.wav
64,192,42457,1,0,2:0:0:70:LR_Kick Beat 2.wav
320,192,42457,1,0,2:0:0:0:
320,192,42885,128,0,46314:2:0:0:70:LR3_BassDrop.wav
192,192,42885,1,0,0:0:0:0:
64,192,43743,128,0,49743:0:0:0:0:
448,192,46635,128,0,49635:2:0:0:0:
448,192,49743,1,0,2:0:0:70:LR3_HiHat Normal.wav
192,192,49743,1,0,2:0:0:0:
320,192,49850,1,0,2:0:0:0:
64,192,49957,1,0,2:0:0:70:LR_HiHat Click.wav
192,192,50064,1,0,2:0:0:0:
320,192,50171,1,0,2:0:0:70:LR3_HiHat Normal.wav
64,192,50171,1,0,2:0:0:0:
448,192,50171,1,0,2:0:0:0:
192,192,50278,1,0,2:0:0:0:
64,192,50385,1,0,2:0:0:70:LR_HiHat Click.wav
320,192,50493,1,0,2:0:0:0:
64,192,50600,1,0,2:0:0:70:LR3_HiHat Normal.wav
448,192,50600,1,0,2:0:0:0:
192,192,50600,1,0,2:0:0:0:
320,192,50707,1,0,2:0:0:0:
192,192,50814,1,0,2:0:0:70:LR_HiHat Click.wav
448,192,50921,1,0,2:0:0:0:
64,192,51028,1,0,2:0:0:70:LR3_HiHat Normal.wav
192,192,51028,1,0,2:0:0:0:
320,192,51028,1,0,2:0:0:0:
448,192,51135,1,0,2:0:0:0:
64,192,51243,1,0,2:0:0:70:LR_HiHat Click.wav
320,192,51350,1,0,2:0:0:0:
64,192,51457,1,0,2:0:0:70:LR3_HiHat Normal.wav
448,192,51457,128,0,52314:2:0:0:0:
192,192,51457,1,0,0:0:0:0:
320,192,51564,1,0,2:0:0:0:
192,192,51671,1,0,2:0:0:70:LR_HiHat Click.wav
320,192,51778,1,0,2:0:0:0:
64,192,51885,1,0,2:0:0:70:LR3_HiHat Normal.wav
192,192,51993,1,0,2:0:0:0:
64,192,52100,1,0,2:0:0:70:LR_HiHat Click.wav
192,192,52207,1,0,2:0:0:0:
320,192,52314,1,0,2:0:0:70:LR3_HiHat Normal.wav
192,192,52421,1,0,2:0:0:0:
64,192,52528,1,0,2:0:0:70:LR_HiHat Click.wav
320,192,52528,1,0,2:0:0:0:
448,192,52528,1,0,0:0:0:0:
320,192,52635,1,0,2:0:0:0:
448,192,52743,1,0,2:0:0:70:LR3_HiHat Normal.wav
64,192,52743,1,0,2:0:0:0:
192,192,52743,1,0,0:0:0:0:
192,192,52850,1,0,2:0:0:0:
448,192,52957,1,0,2:0:0:70:LR_HiHat Click.wav
64,192,52957,1,0,2:0:0:0:
320,192,52957,1,0,0:0:0:0:
192,192,53064,1,0,2:0:0:0:
64,192,53171,1,0,2:0:0:70:LR3_HiHat Normal.wav
320,192,53171,128,0,53707:2:0:0:0:
448,192,53171,1,0,0:0:0:0:
192,192,53278,1,0,2:0:0:0:
64,192,53385,1,0,2:0:0:70:LR_HiHat Click.wav
448,192,53493,1,0,2:0:0:0:
192,192,53600,1,0,2:0:0:70:LR3_HiHat Normal.wav
64,192,53707,1,0,2:0:0:0:
448,192,53814,1,0,2:0:0:70:LR_HiHat Click.wav
320,192,53921,1,0,2:0:0:0:
448,192,54028,1,0,2:0:0:70:LR3_HiHat Normal.wav
192,192,54028,1,0,2:0:0:0:
64,192,54028,1,0,0:0:0:0:
64,192,54135,1,0,2:0:0:0:
320,192,54243,1,0,2:0:0:70:LR_HiHat Click.wav
192,192,54243,1,0,2:0:0:0:
448,192,54243,1,0,0:0:0:0:
192,192,54350,1,0,2:0:0:0:
64,192,54457,1,0,2:0:0:70:LR3_HiHat Normal.wav
320,192,54457,1,0,2:0:0:0:
448,192,54457,1,0,0:0:0:0:
320,192,54564,1,0,2:0:0:0:
64,192,54671,1,0,2:0:0:70:LR_HiHat Click.wav
448,192,54671,1,0,2:0:0:0:
192,192,54671,1,0,0:0:0:0:
320,192,54778,1,0,2:0:0:0:
192,192,54885,1,0,2:0:0:70:LR3_HiHat Normal.wav
448,192,54885,128,0,55743:2:0:0:0:
64,192,54885,1,0,0:0:0:0:
320,192,54993,1,0,2:0:0:0:
192,192,55100,1,0,2:0:0:70:LR_HiHat Click.wav
64,192,55207,1,0,2:0:0:0:
320,192,55314,1,0,2:0:0:70:LR3_HiHat Normal.wav
64,192,55421,1,0,2:0:0:0:
192,192,55528,1,0,2:0:0:70:LR_HiHat Click.wav
320,192,55635,1,0,0:0:0:0:
64,192,55743,1,0,2:0:0:70:LR3_HiHat Normal.wav
192,192,55743,1,0,2:0:0:0:
192,192,55850,1,0,2:0:0:0:
320,192,55957,1,0,2:0:0:70:LR_HiHat Click.wav
64,192,55957,1,0,2:0:0:0:
448,192,55957,1,0,0:0:0:0:
320,192,56064,1,0,2:0:0:0:
448,192,56171,1,0,2:0:0:70:LR3_HiHat Normal.wav
64,192,56171,1,0,2:0:0:0:
192,192,56171,1,0,0:0:0:0:
320,192,56278,1,0,2:0:0:0:
448,192,56385,1,0,2:0:0:70:LR_HiHat Click.wav
64,192,56385,128,0,57243:2:0:0:0:
192,192,56493,1,0,2:0:0:0:
320,192,56600,1,0,2:0:0:70:LR3_HiHat Normal.wav
192,192,56707,1,0,2:0:0:0:
448,192,56814,1,0,2:0:0:70:LR_HiHat Click.wav
320,192,56921,1,0,2:0:0:0:
448,192,57028,1,0,2:0:0:70:LR3_HiHat Normal.wav
192,192,57135,1,0,2:0:0:0:
320,192,57243,1,0,2:0:0:70:LR_HiHat Click.wav
448,192,57350,1,0,2:0:0:0:
192,192,57457,1,0,2:0:0:70:LR3_HiHat Normal.wav
320,192,57457,1,0,2:0:0:0:
64,192,57457,128,0,57778:2:0:0:0:
448,192,57564,1,0,2:0:0:0:
192,192,57671,1,0,2:0:0:70:LR_HiHat Click.wav
320,192,57778,1,0,2:0:0:0:
64,192,57885,1,0,2:0:0:70:LR3_HiHat Normal.wav
192,192,57885,1,0,2:0:0:0:
448,192,57885,128,0,58207:2:0:0:0:
320,192,57993,1,0,2:0:0:0:
64,192,58100,1,0,2:0:0:70:LR_HiHat Click.wav
192,192,58207,1,0,2:0:0:0:
64,192,58314,1,0,2:0:0:70:LR3_HiHat Normal.wav
320,192,58314,1,0,2:0:0:0:
448,192,58314,1,0,2:0:0:0:
192,192,58421,1,0,2:0:0:0:
320,192,58528,1,0,2:0:0:70:LR_HiHat Click.wav
64,192,58635,1,0,2:0:0:0:
192,192,58743,1,0,2:0:0:70:LR3_HiHat Normal.wav
448,192,58743,1,0,2:0:0:0:
320,192,58850,1,0,2:0:0:0:
64,192,58957,1,0,2:0:0:70:LR_HiHat Click.wav
192,192,59064,1,0,2:0:0:0:
448,192,59171,1,0,2:0:0:70:LR3_HiHat Normal.wav
320,192,59171,1,0,2:0:0:0:
64,192,59171,1,0,2:0:0:0:
192,192,59278,1,0,2:0:0:0:
64,192,59385,1,0,2:0:0:70:LR_HiHat Click.wav
320,192,59493,1,0,2:0:0:0:
192,192,59600,1,0,2:0:0:70:LR3_HiHat Normal.wav
448,192,59600,1,0,2:0:0:0:
320,192,59707,1,0,2:0:0:0:
192,192,59814,1,0,2:0:0:70:LR_HiHat Click.wav
448,192,59921,1,0,2:0:0:0:
320,192,60028,1,0,2:0:0:70:LR3_HiHat Normal.wav
64,192,60028,1,0,2:0:0:0:
192,192,60028,1,0,2:0:0:0:
448,192,60135,1,0,2:0:0:0:
64,192,60243,1,0,2:0:0:70:LR_HiHat Click.wav
320,192,60350,1,0,2:0:0:0:
448,192,60457,1,0,2:0:0:70:LR3_HiHat Normal.wav
192,192,60457,1,0,2:0:0:0:
64,192,60564,1,0,2:0:0:0:
320,192,60671,1,0,2:0:0:70:LR_HiHat Click.wav
192,192,60778,1,0,2:0:0:0:
448,192,60885,1,0,2:0:0:70:LR3_HiHat Normal.wav
320,192,60885,1,0,2:0:0:0:
64,192,60885,1,0,2:0:0:0:
192,192,60993,1,0,2:0:0:0:
64,192,61100,1,0,2:0:0:70:LR_HiHat Click.wav
320,192,61100,1,0,2:0:0:0:
448,192,61207,1,0,2:0:0:0:
192,192,61314,1,0,2:0:0:70:LR3_HiHat Normal.wav
64,192,61314,1,0,2:0:0:0:
320,192,61421,1,0,2:0:0:0:
448,192,61528,1,0,2:0:0:70:LR_HiHat Click.wav
192,192,61528,1,0,2:0:0:0:
64,192,61635,1,0,2:0:0:0:
192,192,61743,1,0,2:0:0:70:LR3_HiHat Normal.wav
448,192,61743,1,0,2:0:0:0:
320,192,61743,1,0,2:0:0:0:
64,192,61850,1,0,2:0:0:0:
192,192,61957,1,0,2:0:0:70:LR_HiHat Click.wav
320,192,61957,1,0,2:0:0:0:
448,192,62064,1,0,2:0:0:0:
64,192,62171,1,0,2:0:0:70:LR3_HiHat Normal.wav
320,192,62171,128,0,62278:0:0:0:0:
448,192,62278,128,0,62385:0:0:0:0:
192,192,62385,128,0,62493:2:0:0:70:LR_HiHat Click.wav
64,192,62493,128,0,62600:2:0:0:0:
320,192,62600,1,0,2:0:0:70:LR3_HiHat Normal.wav
448,192,62600,128,0,62814:2:0:0:0:
192,192,62707,1,0,2:0:0:0:
64,192,62814,128,0,63028:2:0:0:70:LR_HiHat Click.wav
320,192,62921,1,0,2:0:0:0:
192,192,63028,1,0,2:0:0:70:LR3_HiHat Normal.wav
448,192,63028,128,0,63243:2:0:0:0:
320,192,63135,1,0,2:0:0:0:
64,192,63243,1,0,2:0:0:70:LR_HiHat Click.wav
192,192,63243,128,0,63457:2:0:0:0:
320,192,63350,1,0,2:0:0:0:
448,192,63457,1,0,2:0:0:70:LR3_BassDrop.wav
64,192,63457,128,0,63778:2:0:0:0:
320,192,63564,128,0,63671:2:0:0:0:
192,192,63671,128,0,63778:2:0:0:0:
448,192,63778,128,0,63885:2:0:0:0:
320,192,63885,128,0,64207:2:0:0:0:
64,192,63993,128,0,64100:2:0:0:0:
448,192,64100,128,0,64207:2:0:0:0:
192,192,64207,128,0,64314:2:0:0:0:
64,192,64314,128,0,64635:2:0:0:0:
448,192,64421,128,0,64528:2:0:0:0:
192,192,64528,128,0,64635:2:0:0:0:
320,192,64635,128,0,64743:2:0:0:0:
448,192,64743,128,0,65064:2:0:0:0:
64,192,64850,128,0,64957:2:0:0:0:
320,192,64957,128,0,65064:2:0:0:0:
192,192,65064,128,0,65171:2:0:0:0:
64,192,65171,128,0,65493:2:0:0:0:
320,192,65278,128,0,65385:2:0:0:0:
192,192,65385,128,0,65493:2:0:0:0:
448,192,65493,128,0,65600:2:0:0:0:
320,192,65600,128,0,65921:2:0:0:0:
64,192,65707,128,0,65814:2:0:0:0:
192,192,65814,128,0,65921:2:0:0:0:
448,192,65921,128,0,66028:2:0:0:0:
64,192,66028,128,0,66350:2:0:0:0:
320,192,66135,128,0,66243:2:0:0:0:
192,192,66243,128,0,66350:2:0:0:0:
448,192,66350,128,0,66457:2:0:0:0:
64,192,66457,1,0,2:0:0:0:
192,192,66457,1,0,2:0:0:0:
320,192,66564,1,0,2:0:0:0:
64,192,66671,1,0,2:0:0:0:
448,192,66671,1,0,2:0:0:0:
192,192,66778,1,0,2:0:0:0:
320,192,66885,1,0,2:0:0:0:
448,192,66885,1,0,2:0:0:0:
192,192,66993,1,0,2:0:0:0:
64,192,67100,1,0,2:0:0:0:
448,192,67100,1,0,2:0:0:0:
320,192,67207,1,0,2:0:0:0:
192,192,67314,1,0,2:0:0:0:
64,192,67314,1,0,2:0:0:0:
320,192,67421,1,0,2:0:0:0:
448,192,67528,1,0,2:0:0:0:
192,192,67528,1,0,2:0:0:0:
64,192,67635,1,0,2:0:0:0:
320,192,67743,1,0,2:0:0:0:
448,192,67743,1,0,2:0:0:0:
192,192,67850,1,0,2:0:0:0:
64,192,67957,1,0,2:0:0:0:
320,192,67957,1,0,2:0:0:0:
192,192,68064,1,0,2:0:0:0:
448,192,68171,1,0,2:0:0:0:
320,192,68171,1,0,2:0:0:0:
192,192,68278,1,0,2:0:0:0:
64,192,68385,1,0,2:0:0:0:
320,192,68385,1,0,2:0:0:0:
192,192,68493,1,0,2:0:0:0:
64,192,68600,1,0,2:0:0:0:
448,192,68600,128,0,68814:2:0:0:0:
192,192,68814,128,0,69028:2:0:0:0:
320,192,68814,1,0,2:0:0:0:
320,192,69028,128,0,69243:2:0:0:0:
64,192,69028,1,0,2:0:0:0:
64,192,69243,128,0,69457:2:0:0:0:
448,192,69243,1,0,2:0:0:0:
320,192,69457,128,0,69671:2:0:0:0:
192,192,69457,1,0,2:0:0:0:
192,192,69671,128,0,69885:2:0:0:0:
448,192,69671,1,0,2:0:0:0:
448,192,69885,128,0,70100:2:0:0:0:
64,192,69885,1,0,2:0:0:0:
64,192,70100,128,0,70314:2:0:0:0:
320,192,70100,1,0,2:0:0:0:
192,192,70314,1,0,2:0:0:70:LR_Snare Fast.wav
448,192,70314,1,0,2:0:0:70:LR_Clap DS.wav
320,192,70421,1,0,2:0:0:70:LR_Snare Fast.wav
64,192,70528,1,0,2:0:0:70:LR_Snare Fast.wav
192,192,70635,1,0,2:0:0:70:LR_Snare Fast.wav
448,192,70743,1,0,2:0:0:70:LR_Snare Fast.wav
320,192,70743,1,0,2:0:0:70:LR_Clap DS.wav
64,192,70743,1,0,2:0:0:0:
192,192,70850,1,0,2:0:0:70:LR_Snare Fast.wav
320,192,70957,1,0,2:0:0:70:LR_Snare Fast.wav
448,192,71064,1,0,2:0:0:70:LR_Snare Fast.wav
192,192,71171,1,0,2:0:0:70:LR_Snare Fast.wav
320,192,71171,1,0,2:0:0:70:LR_Clap DS.wav
64,192,71171,1,0,2:0:0:0:
448,192,71278,1,0,2:0:0:70:LR_Snare Fast.wav
64,192,71385,1,0,2:0:0:70:LR_Snare Fast.wav
192,192,71493,1,0,2:0:0:70:LR_Snare Fast.wav
320,192,71600,1,0,2:0:0:70:LR_Snare Fast.wav
448,192,71600,1,0,2:0:0:70:LR_Clap DS.wav
64,192,71600,1,0,2:0:0:0:
192,192,71814,1,0,2:0:0:0:
320,192,71921,1,0,2:0:0:0:
192,192,72028,1,0,2:0:0:70:LR_Snare Fast.wav
448,192,72028,1,0,2:0:0:70:LR_Clap DS.wav
64,192,72028,1,0,2:0:0:0:
320,192,72135,1,0,2:0:0:70:LR_Snare Fast.wav
192,192,72243,1,0,2:0:0:70:LR_Snare Fast.wav
64,192,72350,1,0,2:0:0:70:LR_Snare Fast.wav
448,192,72457,1,0,2:0:0:70:LR_Snare Fast.wav
320,192,72457,1,0,2:0:0:70:LR_Clap DS.wav
192,192,72457,1,0,2:0:0:0:
64,192,72564,1,0,2:0:0:70:LR_Snare Fast.wav
448,192,72671,1,0,2:0:0:70:LR_Snare Fast.wav
320,192,72778,1,0,2:0:0:70:LR_Snare Fast.wav
192,192,72885,1,0,2:0:0:70:LR_Snare Fast.wav
448,192,72885,1,0,2:0:0:70:LR_Clap DS.wav
64,192,72885,1,0,2:0:0:0:
320,192,72993,1,0,2:0:0:70:LR_Snare Fast.wav
192,192,73100,1,0,2:0:0:70:LR_Snare Fast.wav
64,192,73207,1,0,2:0:0:70:LR_Snare Fast.wav
448,192,73314,1,0,2:0:0:70:LR_Snare Fast.wav
320,192,73314,1,0,2:0:0:70:LR_Clap DS.wav
192,192,73368,1,0,2:0:0:70:LR_Snare Fast.wav
64,192,73421,1,0,2:0:0:70:LR_Snare Fast.wav
320,192,73475,1,0,2:0:0:70:LR_Snare Fast.wav
192,192,73528,1,0,2:0:0:0:
448,192,73635,1,0,2:0:0:0:
192,192,73743,1,0,2:0:0:70:LR_Snare Fast.wav
320,192,73743,1,0,2:0:0:0:
64,192,73743,1,0,2:0:0:70:LR_Clap DS.wav
448,192,73850,1,0,2:0:0:70:LR_Snare Fast.wav
192,192,73957,1,0,2:0:0:70:LR_Snare Fast.wav
64,192,74064,1,0,2:0:0:70:LR_Snare Fast.wav
192,192,74171,1,0,2:0:0:70:LR_Snare Fast.wav
448,192,74171,1,0,2:0:0:70:LR_Clap DS.wav
320,192,74171,1,0,2:0:0:0:
64,192,74278,1,0,2:0:0:70:LR_Snare Fast.wav
448,192,74385,1,0,2:0:0:70:LR_Snare Fast.wav
320,192,74493,1,0,2:0:0:70:LR_Snare Fast.wav
192,192,74600,1,0,2:0:0:70:LR_Snare Fast.wav
448,192,74600,1,0,2:0:0:70:LR_Clap DS.wav
64,192,74600,1,0,2:0:0:0:
320,192,74707,1,0,2:0:0:70:LR_Snare Fast.wav
64,192,74814,1,0,2:0:0:70:LR_Snare Fast.wav
192,192,74921,1,0,2:0:0:70:LR_Snare Fast.wav
320,192,75028,1,0,2:0:0:70:LR_Snare Fast.wav
448,192,75028,1,0,2:0:0:0:
64,192,75028,1,0,2:0:0:70:LR_Clap DS.wav
192,192,75135,1,0,2:0:0:70:LR_Snare Fast.wav
448,192,75243,1,0,2:0:0:70:LR_Snare Fast.wav
320,192,75350,1,0,2:0:0:70:LR_Snare Fast.wav
448,192,75457,1,0,2:0:0:70:LR_Snare Fast.wav
64,192,75457,128,0,76314:2:0:0:0:
192,192,75457,128,0,76314:2:0:0:70:LR_Clap DS.wav
448,192,75885,128,0,76207:2:0:0:70:LR_Snare Fast.wav
320,192,75885,128,0,76207:2:0:0:0:
320,192,76314,128,0,77171:2:0:0:70:LR3_BassDrop.wav
448,192,76314,1,0,2:0:0:0:
192,192,76743,128,0,77171:2:0:0:0:
64,192,77171,128,0,78028:2:0:0:70:LR2_KickBassD.wav
448,192,77171,1,0,2:0:0:70:LR_Kick Beat 2.wav
320,192,77385,1,0,2:0:0:0:
192,192,77493,1,0,2:0:0:0:
320,192,77600,1,0,2:0:0:70:LR_Kick Beat 2.wav
448,192,77600,1,0,2:0:0:70:LR2_KickBassD.wav
192,192,77814,1,0,2:0:0:0:
320,192,77921,1,0,2:0:0:0:
192,192,78028,1,0,2:0:0:70:LR2_KickBassD.wav
448,192,78028,1,0,2:0:0:70:LR_Kick Beat 2.wav
320,192,78243,1,0,2:0:0:0:
192,192,78350,1,0,2:0:0:0:
64,192,78457,1,0,2:0:0:70:LR_Kick Beat 2.wav
448,192,78457,1,0,2:0:0:70:LR2_KickBassD.wav
192,192,78671,1,0,2:0:0:0:
320,192,78778,1,0,2:0:0:0:
64,192,78885,1,0,2:0:0:70:LR2_KickBassD.wav
192,192,78885,1,0,2:0:0:70:LR_Kick Beat 2.wav
320,192,79100,128,0,79207:2:0:0:0:
192,192,79207,128,0,79314:2:0:0:0:
64,192,79314,1,0,2:0:0:70:LR_Kick Beat 2.wav
448,192,79314,1,0,2:0:0:70:LR2_KickBassD.wav
320,192,79528,1,0,2:0:0:0:
64,192,79528,1,0,2:0:0:0:
192,192,79635,1,0,2:0:0:0:
320,192,79743,1,0,2:0:0:70:LR_Kick Beat 2.wav
448,192,79743,1,0,2:0:0:70:LR2_KickBassD.wav
192,192,79957,128,0,80064:0:0:0:0:
320,192,80064,128,0,80171:0:0:0:0:
448,192,80171,1,0,2:0:0:70:LR2_KickBassD.wav
64,192,80171,1,0,2:0:0:70:LR_Kick Beat 2.wav
192,192,80278,128,0,80385:0:0:0:0:
320,192,80385,1,0,2:0:0:0:
448,192,80493,1,0,2:0:0:0:
320,192,80600,1,0,2:0:0:70:LR_Kick Beat 2.wav
192,192,80600,1,0,2:0:0:70:LR2_KickBassD.wav
448,192,80814,128,0,80921:2:0:0:0:
320,192,80921,128,0,81028:2:0:0:0:
192,192,81028,1,0,2:0:0:70:LR2_KickBassD.wav
64,192,81028,1,0,2:0:0:70:LR_Kick Beat 2.wav
64,192,81243,1,0,2:0:0:0:
320,192,81243,1,0,2:0:0:0:
448,192,81350,1,0,2:0:0:0:
192,192,81457,1,0,2:0:0:70:LR_Kick Beat 2.wav
64,192,81457,1,0,2:0:0:70:LR2_KickBassD.wav
192,192,81671,128,0,81778:2:0:0:0:
320,192,81778,128,0,81885:2:0:0:0:
64,192,81885,1,0,2:0:0:70:LR2_KickBassD.wav
448,192,81885,1,0,2:0:0:70:LR_Kick Beat 2.wav
192,192,81993,128,0,82100:2:0:0:0:
320,192,82100,1,0,2:0:0:0:
448,192,82207,1,0,2:0:0:0:
64,192,82314,1,0,2:0:0:70:LR_Kick Beat 2.wav
192,192,82314,1,0,2:0:0:70:LR2_KickBassD.wav
320,192,82528,1,0,2:0:0:0:
448,192,82528,1,0,2:0:0:0:
64,192,82528,1,0,2:0:0:0:
192,192,82635,1,0,2:0:0:0:
320,192,82743,1,0,2:0:0:70:LR2_KickBassD.wav
64,192,82743,1,0,2:0:0:70:LR_Kick Beat 2.wav
448,192,82850,1,0,2:0:0:0:
192,192,82957,1,0,2:0:0:0:
320,192,82957,1,0,2:0:0:0:
64,192,82957,1,0,2:0:0:0:
448,192,83064,1,0,2:0:0:0:
64,192,83171,1,0,2:0:0:70:LR_Kick Beat 2.wav
192,192,83171,1,0,2:0:0:70:LR2_KickBassD.wav
320,192,83278,1,0,2:0:0:0:
448,192,83385,1,0,2:0:0:0:
64,192,83385,128,0,83493:2:0:0:0:
320,192,83493,128,0,83600:2:0:0:0:
448,192,83600,1,0,2:0:0:100:LR_Snare Fast.wav
192,192,83600,1,0,2:0:0:0:
64,192,83600,1,0,2:0:0:0:
64,192,83814,1,0,2:0:0:100:LR_Snare Fast.wav
448,192,83814,1,0,2:0:0:0:
192,192,83814,128,0,83921:0:0:0:0:
448,192,84028,128,0,84243:2:0:0:70:LR_Kick Beat 2.wav
320,192,84028,1,0,2:0:0:0:
192,192,84243,128,0,84350:2:0:0:0:
64,192,84243,1,0,2:0:0:0:
320,192,84350,128,0,84457:2:0:0:0:
64,192,84457,128,0,84671:2:0:0:70:LR_Clap Fast Low.wav
448,192,84457,1,0,2:0:0:0:
192,192,84457,1,0,0:0:0:0:
192,192,84671,128,0,84778:2:0:0:0:
448,192,84778,128,0,84885:2:0:0:0:
64,192,84885,128,0,85100:2:0:0:70:LR_Kick Beat 2.wav
320,192,84885,1,0,2:0:0:0:
192,192,85100,128,0,85207:2:0:0:0:
320,192,85207,128,0,85421:2:0:0:0:
448,192,85207,1,0,2:0:0:0:
64,192,85314,1,0,2:0:0:70:LR_Clap Fast Low.wav
192,192,85314,1,0,0:0:0:0:
448,192,85421,128,0,85528:2:0:0:0:
192,192,85528,128,0,85635:2:0:0:0:
64,192,85635,128,0,85743:2:0:0:0:
320,192,85743,128,0,85957:2:0:0:70:LR_Kick Beat 2.wav
448,192,85743,1,0,2:0:0:0:
192,192,85957,128,0,86171:2:0:0:0:
64,192,86171,128,0,86385:2:0:0:70:LR_Clap Fast Low.wav
320,192,86171,1,0,2:0:0:0:
448,192,86171,1,0,0:0:0:0:
448,192,86385,1,0,2:0:0:0:
320,192,86385,128,0,86600:2:0:0:0:
192,192,86493,128,0,86600:2:0:0:0:
64,192,86600,128,0,86814:2:0:0:70:LR_Kick Beat 2.wav
448,192,86600,1,0,0:0:0:0:
320,192,86814,128,0,86921:2:0:0:0:
448,192,86921,128,0,87243:2:0:0:0:
64,192,87028,1,0,2:0:0:70:LR_Clap Fast Low.wav
192,192,87028,1,0,0:0:0:0:
192,192,87243,128,0,87350:2:0:0:0:
320,192,87350,128,0,87457:2:0:0:0:
64,192,87457,128,0,87885:2:0:0:70:LR_Kick Beat 2.wav
448,192,87457,1,0,2:0:0:0:
192,192,87671,1,0,2:0:0:0:
192,192,87885,128,0,88100:2:0:0:70:LR_Clap Fast Low.wav
448,192,87885,1,0,0:0:0:0:
320,192,87885,1,0,0:0:0:0:
448,192,88100,128,0,88314:2:0:0:0:
64,192,88314,128,0,88528:2:0:0:70:LR_Kick Beat 2.wav
320,192,88314,1,0,0:0:0:0:
320,192,88528,128,0,88635:2:0:0:0:
448,192,88635,128,0,88743:2:0:0:0:
192,192,88743,128,0,88957:2:0:0:70:LR_Clap Fast Low.wav
64,192,88743,1,0,0:0:0:0:
320,192,88743,1,0,0:0:0:0:
64,192,88957,128,0,89064:2:0:0:0:
192,192,89064,128,0,89171:2:0:0:0:
320,192,89171,128,0,89921:2:0:0:70:LR_Kick Beat 2.wav
448,192,89171,128,0,89921:2:0:0:0:
192,192,89600,128,0,90028:2:0:0:0:
64,192,89600,128,0,90028:2:0:0:0:
320,192,90028,1,0,2:0:0:0:
448,192,90028,128,0,90350:2:0:0:70:LR_Snare Fast.wav
192,192,90350,128,0,90671:2:0:0:70:LR_Snare Fast.wav
320,192,90671,128,0,90885:2:0:0:70:LR_Snare Fast.wav
448,192,90885,1,0,2:0:0:70:LR_Kick Beat 2.wav
192,192,90885,1,0,2:0:0:0:
64,192,90885,128,0,91100:2:0:0:0:
320,192,91100,128,0,91314:2:0:0:0:
448,192,91207,128,0,91314:2:0:0:0:
192,192,91314,1,0,2:0:0:70:LR2_KickBassD.wav
64,192,91314,1,0,2:0:0:0:
320,192,91528,128,0,91743:2:0:0:0:
192,192,91743,1,0,2:0:0:70:LR_Kick Beat 2.wav
64,192,91743,1,0,2:0:0:0:
448,192,91743,128,0,91957:2:0:0:0:
64,192,91957,128,0,92171:2:0:0:0:
192,192,92171,1,0,2:0:0:70:LR2_KickBassD.wav
320,192,92171,1,0,2:0:0:0:
448,192,92171,128,0,92385:0:0:0:0:
64,192,92278,1,0,0:0:0:0:
192,192,92385,128,0,92493:0:0:0:0:
320,192,92493,128,0,92600:0:0:0:0:
448,192,92600,1,0,2:0:0:70:LR_Kick Beat 2.wav
192,192,92600,1,0,2:0:0:0:
64,192,92600,128,0,92814:2:0:0:0:
320,192,92814,128,0,93028:2:0:0:0:
448,192,92921,128,0,93028:2:0:0:0:
192,192,93028,1,0,2:0:0:70:LR2_KickBassD.wav
64,192,93028,1,0,2:0:0:0:
320,192,93243,128,0,93457:2:0:0:0:
192,192,93457,1,0,2:0:0:70:LR_Kick Beat 2.wav
64,192,93457,1,0,2:0:0:0:
448,192,93457,128,0,93671:2:0:0:0:
64,192,93671,128,0,93885:2:0:0:0:
192,192,93885,1,0,2:0:0:70:LR2_KickBassD.wav
320,192,93885,1,0,2:0:0:0:
448,192,93885,128,0,93993:0:0:0:0:
64,192,93993,1,0,2:0:0:0:
192,192,94100,128,0,94207:0:0:0:0:
320,192,94207,128,0,94314:0:0:0:0:
192,192,94314,1,0,2:0:0:70:LR_Kick Beat 2.wav
448,192,94314,128,0,94528:2:0:0:0:
64,192,94314,1,0,0:0:0:0:
64,192,94528,128,0,94743:2:0:0:0:
192,192,94635,128,0,94743:2:0:0:0:
448,192,94743,1,0,2:0:0:70:LR2_KickBassD.wav
320,192,94743,1,0,2:0:0:0:
64,192,94957,1,0,2:0:0:0:
192,192,95064,128,0,95171:2:0:0:0:
448,192,95171,1,0,2:0:0:70:LR_Kick Beat 2.wav
320,192,95171,1,0,2:0:0:0:
64,192,95278,128,0,95385:2:0:0:0:
320,192,95385,128,0,95493:0:0:0:0:
448,192,95493,128,0,95600:0:0:0:0:
320,192,95600,1,0,0:0:0:70:LR2_KickBassD.wav
64,192,95600,1,0,0:0:0:0:
192,192,95707,128,0,95814:2:0:0:0:
320,192,95814,128,0,95921:2:0:0:0:
64,192,95921,128,0,96028:2:0:0:0:
448,192,96028,128,0,96350:2:0:0:70:LR_Kick Beat 2.wav
192,192,96028,1,0,2:0:0:0:
320,192,96028,1,0,2:0:0:0:
64,192,96350,128,0,96457:2:0:0:0:
320,192,96457,1,0,2:0:0:70:LR2_KickBassD.wav
192,192,96457,128,0,96885:2:0:0:0:
448,192,96457,1,0,0:0:0:0:
448,192,96671,128,0,96885:2:0:0:0:
64,192,96885,1,0,2:0:0:70:LR_Kick Beat 2.wav
320,192,96885,128,0,97314:2:0:0:0:
64,192,97100,128,0,97314:2:0:0:0:
192,192,97314,1,0,2:0:0:100:LR_Snare Fast.wav
448,192,97314,1,0,2:0:0:0:
192,192,97528,1,0,2:0:0:100:LR_Snare Fast.wav
64,192,97528,1,0,2:0:0:0:
448,192,97528,1,0,2:0:0:0:
448,192,97743,128,0,97957:2:0:0:70:LR_Kick Beat 2.wav
64,192,97743,1,0,2:0:0:0:
320,192,97743,1,0,2:0:0:0:
192,192,97957,128,0,98171:2:0:0:0:
320,192,98064,128,0,98171:2:0:0:0:
64,192,98171,1,0,2:0:0:70:LR_Clap Fast Low.wav
448,192,98171,1,0,2:0:0:0:
192,192,98385,128,0,98493:2:0:0:100:LR_HiHat Click.wav
320,192,98493,128,0,98600:2:0:0:0:
64,192,98600,1,0,2:0:0:70:LR_Kick Beat 2.wav
192,192,98600,1,0,2:0:0:0:
448,192,98600,128,0,98814:2:0:0:0:
64,192,98814,128,0,99028:2:0:0:100:LR_HiHat Click.wav
192,192,98921,1,0,2:0:0:0:
448,192,99028,128,0,99243:2:0:0:70:LR_Clap Fast Low.wav
320,192,99028,1,0,2:0:0:0:
192,192,99243,128,0,99350:2:0:0:0:
320,192,99350,128,0,99457:2:0:0:0:
64,192,99457,128,0,99778:2:0:0:70:LR_Kick Beat 2.wav
448,192,99457,1,0,2:0:0:0:
192,192,99457,1,0,0:0:0:0:
192,192,99671,128,0,99885:2:0:0:0:
320,192,99778,128,0,99885:2:0:0:0:
448,192,99885,1,0,2:0:0:70:LR_Clap Fast Low.wav
64,192,99885,1,0,2:0:0:0:
64,192,100100,128,0,100207:2:0:0:100:LR_HiHat Click.wav
320,192,100207,128,0,100314:2:0:0:0:
448,192,100314,128,0,100528:2:0:0:70:LR_Kick Beat 2.wav
192,192,100314,1,0,2:0:0:0:
64,192,100314,1,0,2:0:0:0:
64,192,100528,128,0,100743:2:0:0:100:LR_HiHat Click.wav
320,192,100528,1,0,2:0:0:0:
192,192,100635,1,0,2:0:0:0:
448,192,100743,128,0,100850:2:0:0:70:LR_Clap Fast Low.wav
320,192,100743,1,0,2:0:0:0:
192,192,100850,128,0,100957:2:0:0:0:
320,192,100957,128,0,101064:2:0:0:0:
448,192,101064,128,0,101171:2:0:0:0:
64,192,101171,128,0,101493:2:0:0:70:LR_Kick Beat 2.wav
192,192,101171,1,0,2:0:0:0:
320,192,101171,1,0,0:0:0:0:
320,192,101385,128,0,101600:2:0:0:0:
192,192,101493,128,0,101600:2:0:0:0:
448,192,101600,1,0,2:0:0:70:LR_Clap Fast Low.wav
64,192,101600,1,0,2:0:0:0:
192,192,101814,128,0,102028:2:0:0:100:LR_HiHat Click.wav
448,192,102028,128,0,102243:2:0:0:70:LR_Kick Beat 2.wav
64,192,102028,1,0,2:0:0:0:
320,192,102028,1,0,0:0:0:0:
64,192,102243,128,0,102457:2:0:0:100:LR_HiHat Click.wav
320,192,102243,1,0,2:0:0:0:
192,192,102350,1,0,2:0:0:0:
448,192,102457,1,0,2:0:0:70:LR_Clap Fast Low.wav
320,192,102457,1,0,2:0:0:0:
192,192,102564,128,0,102885:2:0:0:0:
320,192,102671,128,0,102885:2:0:0:0:
448,192,102778,128,0,102885:2:0:0:0:
64,192,102885,128,0,103207:2:0:0:0:
320,192,103207,128,0,103314:2:0:0:0:
448,192,103314,1,0,2:0:0:70:LR_Kick Beat 2.wav
192,192,103314,128,0,103635:2:0:0:0:
64,192,103314,128,0,103635:2:0:0:70:LR3_BassDrop.wav
320,192,103528,1,0,2:0:0:70:LR_Kick Beat 2.wav
448,192,103635,128,0,103743:2:0:0:0:
192,192,103743,1,0,2:0:0:70:LR_Kick Beat 2.wav
64,192,103743,128,0,104064:2:0:0:70:LR3_BassDrop.wav
320,192,103743,128,0,104064:2:0:0:0:
448,192,104064,128,0,104171:2:0:0:0:
192,192,104171,128,0,104493:2:0:0:0:
64,192,104171,128,0,104493:2:0:0:70:LR3_BassDrop.wav
448,192,104493,128,0,104600:2:0:0:70:LR3_BassDrop.wav
