osu file format v14

[General]
AudioFilename: audio.mp3
AudioLeadIn: 0
PreviewTime: 89064
Countdown: 0
SampleSet: Soft
StackLeniency: 0.7
Mode: 3
LetterboxInBreaks: 0
SpecialStyle: 0
WidescreenStoryboard: 1

[Editor]
DistanceSpacing: 1
BeatDivisor: 8
GridSize: 4
TimelineZoom: 1.8

[Metadata]
Title:Breeze
TitleUnicode:Breeze
Artist:cYsmix
ArtistUnicode:cYsmix
Creator:Soul Evans
Version:Chrono's A'sifa 'HD'
Source:osu!
Tags:featured artist monthly beatmapping contest MBC sea arabia ocean Chronocide dudehacker
BeatmapID:1329109
BeatmapSetID:629575

[Difficulty]
HPDrainRate:7.5
CircleSize:4
OverallDifficulty:7.5
ApproachRate:5
SliderMultiplier:1.4
SliderTickRate:1

[Events]
//Background and Video events
0,0,"HQ.jpg",0,0
//Break Periods
2,43085,48543
//Storyboard Layer 0 (Background)
//Storyboard Layer 1 (Fail)
//Storyboard Layer 2 (Pass)
//Storyboard Layer 3 (Foreground)
//Storyboard Sound Samples

[TimingPoints]
1743,428.571428571429,4,2,1,60,1,0
29171,-100,4,2,1,60,0,1
42885,-100,4,2,1,60,0,0
89171,-100,4,2,1,60,0,1
102885,-100,4,2,1,60,0,0

[HitObjects]
448,192,1314,5,0,2:0:0:70:LR_Clap DS.wav
320,192,1314,1,0,0:0:0:0:
192,192,1743,1,0,2:0:0:70:LR3_HiHat Normal.wav
64,192,1743,128,0,2064:2:0:0:70:LR_Kick Beat 2.wav
448,192,1957,1,0,2:0:0:0:
320,192,2064,1,0,2:0:0:0:
192,192,2171,1,0,2:0:0:70:LR3_HiHat Normal.wav
64,192,2171,1,0,2:0:0:70:LR2_KickBassD.wav
64,192,2385,1,0,2:0:0:0:
192,192,2493,1,0,2:0:0:0:
448,192,2600,1,0,2:0:0:70:LR_Clap DS.wav
320,192,2600,1,0,0:0:0:70:LR_Kick Beat 2.wav
192,192,2707,1,0,2:0:0:0:
320,192,2814,1,0,2:0:0:0:
64,192,2921,1,0,2:0:0:0:
320,192,3028,1,0,2:0:0:70:LR3_HiHat Normal.wav
448,192,3028,1,0,2:0:0:70:LR2_KickBassD.wav
192,192,3243,1,0,2:0:0:0:
320,192,3350,1,0,2:0:0:0:
192,192,3457,1,0,2:0:0:70:LR3_HiHat Normal.wav
64,192,3457,1,0,2:0:0:70:LR_Kick Beat 2.wav
448,192,3564,1,0,2:0:0:0:
64,192,3671,1,0,2:0:0:0:
448,192,3778,1,0,2:0:0:0:
192,192,3885,1,0,2:0:0:70:LR3_HiHat Normal.wav
320,192,3885,1,0,2:0:0:70:LR2_KickBassD.wav
64,192,4100,1,0,2:0:0:0:
448,192,4207,1,0,2:0:0:0:
192,192,4314,1,0,2:0:0:70:LR3_HiHat Normal.wav
64,192,4314,1,0,2:0:0:70:LR_Kick Beat 2.wav
448,192,4421,1,0,2:0:0:0:
64,192,4528,1,0,2:0:0:0:
448,192,4635,1,0,2:0:0:0:
192,192,4743,1,0,2:0:0:70:LR3_HiHat Normal.wav
320,192,4743,1,0,2:0:0:70:LR2_KickBassD.wav
64,192,4957,1,0,2:0:0:0:
192,192,5064,1,0,2:0:0:0:
320,192,5171,1,0,2:0:0:70:LR3_HiHat Normal.wav
448,192,5171,1,0,2:0:0:70:LR_Kick Beat 2.wav
192,192,5278,1,0,2:0:0:0:
320,192,5385,1,0,2:0:0:0:
192,192,5493,1,0,2:0:0:0:
320,192,5600,1,0,2:0:0:70:LR3_HiHat Normal.wav
448,192,5600,1,0,2:0:0:70:LR2_KickBassD.wav
64,192,5814,1,0,2:0:0:0:
448,192,5921,1,0,2:0:0:0:
320,192,6028,1,0,2:0:0:70:LR3_HiHat Normal.wav
192,192,6028,1,0,2:0:0:70:LR_Kick Beat 2.wav
64,192,6135,1,0,2:0:0:0:
448,192,6243,1,0,2:0:0:0:
64,192,6350,1,0,2:0:0:0:
320,192,6457,1,0,2:0:0:70:LR3_HiHat Normal.wav
448,192,6457,1,0,2:0:0:70:LR2_KickBassD.wav
64,192,6671,1,0,2:0:0:0:
192,192,6778,1,0,2:0:0:0:
320,192,6885,1,0,2:0:0:70:LR3_HiHat Normal.wav
448,192,6885,1,0,2:0:0:70:LR_Kick Beat 2.wav
192,192,6993,1,0,2:0:0:0:
320,192,7100,1,0,2:0:0:0:
192,192,7207,1,0,2:0:0:0:
320,192,7314,1,0,2:0:0:70:LR3_HiHat Normal.wav
448,192,7314,1,0,2:0:0:70:LR2_KickBassD.wav
64,192,7528,1,0,2:0:0:0:
448,192,7635,1,0,2:0:0:0:
320,192,7743,1,0,2:0:0:70:LR3_HiHat Normal.wav
192,192,7743,1,0,2:0:0:70:LR_Kick Beat 2.wav
64,192,7850,1,0,2:0:0:0:
448,192,7957,1,0,2:0:0:0:
64,192,8064,1,0,2:0:0:0:
320,192,8171,1,0,2:0:0:70:LR3_HiHat Normal.wav
448,192,8171,1,0,2:0:0:70:LR2_KickBassD.wav
192,192,8385,1,0,2:0:0:0:
64,192,8493,1,0,2:0:0:0:
192,192,8600,1,0,2:0:0:70:LR_Clap DS.wav
320,192,8600,1,0,2:0:0:70:LR3_HiHat Normal.wav
448,192,8600,1,0,2:0:0:70:LR_Kick Beat 2.wav
64,192,8707,1,0,2:0:0:0:
320,192,8814,1,0,2:0:0:0:
192,192,8921,1,0,2:0:0:0:
320,192,9028,1,0,2:0:0:70:LR3_HiHat Normal.wav
448,192,9028,1,0,2:0:0:70:LR2_KickBassD.wav
192,192,9243,1,0,2:0:0:0:
64,192,9350,1,0,2:0:0:0:
448,192,9457,1,0,2:0:0:70:LR3_HiHat Normal.wav
320,192,9457,1,0,2:0:0:70:LR_Kick Beat 2.wav
192,192,9564,1,0,2:0:0:0:
320,192,9671,1,0,2:0:0:0:
192,192,9778,1,0,2:0:0:0:
64,192,9885,1,0,2:0:0:70:LR3_HiHat Normal.wav
448,192,9885,1,0,2:0:0:70:LR2_KickBassD.wav
192,192,10100,1,0,2:0:0:0:
320,192,10207,1,0,2:0:0:0:
192,192,10314,1,0,2:0:0:70:LR3_HiHat Normal.wav
64,192,10314,1,0,2:0:0:70:LR_Kick Beat 2.wav
320,192,10421,1,0,2:0:0:0:
448,192,10528,1,0,2:0:0:0:
192,192,10635,1,0,2:0:0:0:
320,192,10743,1,0,2:0:0:70:LR3_HiHat Normal.wav
64,192,10743,1,0,2:0:0:70:LR2_KickBassD.wav
192,192,10957,1,0,2:0:0:0:
64,192,11064,1,0,2:0:0:0:
320,192,11171,1,0,2:0:0:70:LR3_HiHat Normal.wav
448,192,11171,1,0,2:0:0:70:LR_Kick Beat 2.wav
192,192,11278,1,0,2:0:0:0:
320,192,11385,1,0,2:0:0:0:
192,192,11493,1,0,2:0:0:0:
448,192,11600,1,0,2:0:0:70:LR3_HiHat Normal.wav
64,192,11600,1,0,2:0:0:70:LR2_KickBassD.wav
320,192,11814,1,0,2:0:0:0:
192,192,11921,1,0,2:0:0:0:
64,192,12028,1,0,2:0:0:70:LR3_HiHat Normal.wav
320,192,12028,1,0,2:0:0:70:LR_Kick Beat 2.wav
448,192,12135,1,0,2:0:0:0:
192,192,12243,1,0,2:0:0:0:
320,192,12350,1,0,2:0:0:0:
64,192,12457,1,0,2:0:0:70:LR3_HiHat Normal.wav
448,192,12457,1,0,2:0:0:70:LR2_KickBassD.wav
320,192,12671,1,0,2:0:0:0:
448,192,12778,1,0,2:0:0:0:
192,192,12885,1,0,2:0:0:70:LR3_HiHat Normal.wav
64,192,12885,1,0,2:0:0:70:LR_Kick Beat 2.wav
320,192,12993,1,0,2:0:0:0:
192,192,13100,1,0,2:0:0:0:
320,192,13207,1,0,2:0:0:0:
64,192,13314,1,0,2:0:0:70:LR3_HiHat Normal.wav
448,192,13314,1,0,2:0:0:70:LR2_KickBassD.wav
320,192,13528,1,0,2:0:0:0:
192,192,13635,1,0,2:0:0:0:
64,192,13743,128,0,14493:2:0:0:70:LR_Snare Fast.wav
448,192,13743,128,0,14600:2:0:0:0:
192,192,14171,128,0,14493:2:0:0:70:LR_Snare Fast.wav
320,192,14171,128,0,14600:2:0:0:0:
192,192,14600,128,0,14814:2:0:0:70:LR_Snare Fast.wav
64,192,14600,128,0,14814:2:0:0:0:
320,192,14921,128,0,15135:2:0:0:70:LR_Snare Fast.wav
192,192,14921,128,0,15135:2:0:0:0:
320,192,15243,128,0,15350:2:0:0:70:LR_Snare Fast.wav
448,192,15243,128,0,15350:2:0:0:0:
320,192,15457,128,0,15778:2:0:0:70:LR_Kick Beat 2.wav
64,192,15457,128,0,16207:2:0:0:0:
192,192,15457,1,0,2:0:0:0:
448,192,15457,1,0,2:0:0:0:
448,192,15885,1,0,2:0:0:70:LR2_KickBassD.wav
320,192,15885,128,0,16421:2:0:0:0:
64,192,16314,128,0,16421:2:0:0:70:LR_Kick Beat 2.wav
192,192,16314,1,0,2:0:0:0:
192,192,16528,128,0,16635:2:0:0:0:
448,192,16743,128,0,16850:2:0:0:70:LR2_KickBassD.wav
64,192,16743,1,0,2:0:0:0:
192,192,16957,128,0,17064:2:0:0:0:
320,192,17064,128,0,17171:2:0:0:0:
64,192,17171,128,0,17493:2:0:0:70:LR_Kick Beat 2.wav
448,192,17171,1,0,2:0:0:0:
448,192,17493,128,0,17600:2:0:0:0:
64,192,17600,1,0,2:0:0:70:LR2_KickBassD.wav
192,192,17600,1,0,2:0:0:0:
448,192,17814,128,0,17921:2:0:0:0:
320,192,17921,128,0,18028:2:0:0:0:
192,192,18028,1,0,2:0:0:70:LR_Kick Beat 2.wav
64,192,18028,128,0,18135:2:0:0:0:
448,192,18243,128,0,18457:2:0:0:0:
64,192,18457,128,0,18564:2:0:0:70:LR2_KickBassD.wav
192,192,18457,1,0,2:0:0:0:
320,192,18564,128,0,18671:2:0:0:0:
192,192,18671,128,0,18778:2:0:0:0:
448,192,18778,128,0,18885:2:0:0:0:
320,192,18885,1,0,2:0:0:70:LR_Kick Beat 2.wav
64,192,18885,128,0,18993:2:0:0:0:
192,192,18993,128,0,19207:2:0:0:0:
448,192,19207,128,0,19314:2:0:0:0:
192,192,19314,1,0,2:0:0:70:LR2_KickBassD.wav
64,192,19314,1,0,2:0:0:0:
64,192,19528,128,0,19635:2:0:0:0:
448,192,19635,128,0,19743:2:0:0:0:
192,192,19743,128,0,19850:2:0:0:70:LR_Kick Beat 2.wav
320,192,19743,1,0,2:0:0:0:
64,192,19957,128,0,20171:2:0:0:0:
320,192,20171,1,0,2:0:0:70:LR2_KickBassD.wav
448,192,20171,1,0,2:0:0:0:
192,192,20278,128,0,20385:2:0:0:0:
320,192,20385,128,0,20493:2:0:0:0:
448,192,20493,128,0,20600:2:0:0:0:
192,192,20600,1,0,2:0:0:70:LR_Kick Beat 2.wav
64,192,20600,128,0,20921:2:0:0:0:
448,192,20921,128,0,21028:2:0:0:0:
64,192,21028,1,0,2:0:0:70:LR2_KickBassD.wav
192,192,21028,128,0,21243:2:0:0:0:
320,192,21243,128,0,21350:2:0:0:0:
64,192,21350,128,0,21457:2:0:0:0:
448,192,21457,128,0,21564:2:0:0:70:LR_Kick Beat 2.wav
192,192,21457,1,0,2:0:0:0:
320,192,21564,128,0,21885:2:0:0:0:
192,192,21885,1,0,2:0:0:100:LR_Snare Fast.wav
64,192,21885,1,0,2:0:0:0:
448,192,21885,1,0,2:0:0:0:
64,192,22100,1,0,2:0:0:100:LR_Snare Fast.wav
448,192,22100,1,0,2:0:0:0:
192,192,22100,1,0,2:0:0:0:
320,192,22314,1,0,2:0:0:70:LR_Kick Beat 2.wav
192,192,22314,1,0,2:0:0:0:
64,192,22314,128,0,22421:2:0:0:0:
448,192,22421,128,0,22635:2:0:0:0:
192,192,22635,128,0,22743:2:0:0:0:
320,192,22743,1,0,2:0:0:70:LR_Clap Fast Low.wav
64,192,22743,1,0,2:0:0:0:
64,192,22957,128,0,23171:2:0:0:100:LR_HiHat Click.wav
192,192,23064,128,0,23171:2:0:0:0:
320,192,23171,1,0,2:0:0:70:LR_Kick Beat 2.wav
448,192,23171,1,0,2:0:0:0:
448,192,23385,128,0,23600:2:0:0:100:LR_HiHat Click.wav
64,192,23600,128,0,23707:2:0:0:70:LR_Clap Fast Low.wav
192,192,23600,1,0,2:0:0:0:
320,192,23814,128,0,23921:2:0:0:0:
192,192,23921,128,0,24028:2:0:0:0:
64,192,24028,1,0,2:0:0:70:LR_Kick Beat 2.wav
448,192,24028,128,0,24350:2:0:0:0:
64,192,24350,128,0,24457:2:0:0:0:
320,192,24457,1,0,2:0:0:70:LR_Clap Fast Low.wav
192,192,24457,1,0,2:0:0:0:
192,192,24671,128,0,24778:2:0:0:100:LR_HiHat Click.wav
320,192,24778,128,0,24885:2:0:0:0:
448,192,24885,1,0,2:0:0:70:LR_Kick Beat 2.wav
64,192,24885,128,0,24993:2:0:0:0:
320,192,25100,128,0,25314:2:0:0:100:LR_HiHat Click.wav
64,192,25314,128,0,25421:2:0:0:70:LR_Clap Fast Low.wav
192,192,25314,1,0,2:0:0:0:
448,192,25421,128,0,25528:2:0:0:0:
192,192,25528,128,0,25635:2:0:0:0:
320,192,25635,128,0,25743:2:0:0:0:
448,192,25743,1,0,2:0:0:70:LR_Kick Beat 2.wav
64,192,25743,128,0,26064:2:0:0:0:
448,192,26064,128,0,26171:2:0:0:0:
320,192,26171,1,0,2:0:0:70:LR_Clap Fast Low.wav
192,192,26171,1,0,2:0:0:0:
64,192,26385,128,0,26493:2:0:0:100:LR_HiHat Click.wav
192,192,26493,128,0,26600:2:0:0:0:
320,192,26600,1,0,2:0:0:70:LR_Kick Beat 2.wav
448,192,26600,128,0,26707:2:0:0:0:
64,192,26814,128,0,27028:2:0:0:100:LR_HiHat Click.wav
192,192,27028,1,0,2:0:0:70:LR_Clap Fast Low.wav
448,192,27028,1,0,2:0:0:0:
64,192,27135,128,0,27243:2:0:0:0:
320,192,27243,128,0,27350:2:0:0:0:
448,192,27350,128,0,27457:2:0:0:0:
192,192,27457,128,0,27564:2:0:0:0:
64,192,27564,128,0,27778:2:0:0:0:
448,192,27778,128,0,27885:2:0:0:0:
320,192,27885,1,0,2:0:0:0:
192,192,27993,1,0,2:0:0:0:
320,192,28064,1,0,2:0:0:0:
64,192,28135,1,0,2:0:0:0:
192,192,28207,1,0,0:0:0:0:
448,192,28314,1,0,2:0:0:0:
320,192,28368,1,0,2:0:0:0:
64,192,28421,1,0,2:0:0:0:
192,192,28475,1,0,2:0:0:0:
448,192,28528,1,0,0:0:0:0:
320,192,28582,1,0,0:0:0:0:
64,192,28635,1,0,0:0:0:0:
192,192,28689,1,0,2:0:0:0:
320,192,28850,1,0,2:0:0:0:
448,192,28957,1,0,2:0:0:0:
320,192,29064,1,0,2:0:0:0:
192,192,29171,1,0,2:0:0:70:LR_Snare Fast.wav
64,192,29171,1,0,2:0:0:70:LR_Clap DS.wav
448,192,29385,1,0,2:0:0:0:
320,192,29600,1,0,2:0:0:70:LR_Clap DS.wav
64,192,29600,1,0,2:0:0:70:LR_Snare Fast.wav
448,192,29814,1,0,2:0:0:0:
192,192,29814,1,0,2:0:0:0:
320,192,29921,1,0,2:0:0:0:
64,192,30028,1,0,2:0:0:70:LR_Snare Fast.wav
448,192,30028,1,0,2:0:0:70:LR_Clap DS.wav
320,192,30243,1,0,2:0:0:0:
64,192,30243,1,0,2:0:0:0:
192,192,30350,1,0,2:0:0:0:
448,192,30350,1,0,2:0:0:0:
320,192,30457,1,0,2:0:0:70:LR_Snare Fast.wav
64,192,30564,1,0,2:0:0:0:
192,192,30564,1,0,2:0:0:0:
448,192,30671,1,0,2:0:0:0:
320,192,30671,1,0,2:0:0:0:
192,192,30778,1,0,2:0:0:0:
448,192,30885,1,0,2:0:0:70:LR_Clap DS.wav
64,192,30885,1,0,2:0:0:70:LR_Snare Fast.wav
320,192,31100,1,0,2:0:0:0:
192,192,31314,1,0,2:0:0:70:LR_Clap DS.wav
64,192,31314,1,0,2:0:0:70:LR_Snare Fast.wav
448,192,31528,1,0,2:0:0:0:
320,192,31528,1,0,2:0:0:0:
192,192,31743,1,0,2:0:0:70:LR_Snare Fast.wav
64,192,31743,1,0,2:0:0:70:LR_Clap DS.wav
320,192,31957,1,0,2:0:0:0:
448,192,31957,1,0,2:0:0:0:
64,192,32064,1,0,2:0:0:0:
320,192,32171,1,0,2:0:0:70:LR_Clap DS.wav
448,192,32171,1,0,2:0:0:70:LR_Snare Fast.wav
192,192,32278,1,0,2:0:0:0:
64,192,32385,1,0,2:0:0:0:
320,192,32385,1,0,2:0:0:0:
448,192,32493,1,0,2:0:0:0:
64,192,32600,1,0,2:0:0:70:LR_Snare Fast.wav
192,192,32600,1,0,2:0:0:70:LR_Clap DS.wav
320,192,32814,1,0,2:0:0:0:
192,192,33028,1,0,2:0:0:70:LR_Clap DS.wav
448,192,33028,1,0,2:0:0:70:LR_Snare Fast.wav
192,192,33243,1,0,2:0:0:0:
320,192,33243,1,0,2:0:0:0:
64,192,33457,1,0,2:0:0:70:LR_Snare Fast.wav
448,192,33457,1,0,2:0:0:70:LR_Clap DS.wav
320,192,33671,1,0,2:0:0:0:
64,192,33671,1,0,2:0:0:0:
448,192,33778,1,0,2:0:0:0:
320,192,33885,1,0,2:0:0:70:LR_Clap DS.wav
192,192,33885,1,0,2:0:0:70:LR_Snare Fast.wav
64,192,33993,1,0,2:0:0:0:
448,192,34100,1,0,2:0:0:0:
192,192,34100,1,0,2:0:0:0:
320,192,34207,1,0,2:0:0:0:
192,192,34314,1,0,2:0:0:70:LR_Snare Fast.wav
64,192,34314,1,0,2:0:0:70:LR_Clap DS.wav
320,192,34528,1,0,2:0:0:0:
192,192,34743,1,0,2:0:0:70:LR_Clap DS.wav
64,192,34743,1,0,2:0:0:70:LR_Snare Fast.wav
192,192,34957,1,0,2:0:0:0:
448,192,34957,1,0,2:0:0:0:
64,192,35171,1,0,2:0:0:70:LR_Snare Fast.wav
320,192,35171,1,0,2:0:0:70:LR_Clap DS.wav
192,192,35385,1,0,2:0:0:0:
320,192,35385,1,0,2:0:0:0:
448,192,35493,1,0,2:0:0:0:
64,192,35493,1,0,2:0:0:0:
320,192,35600,1,0,2:0:0:70:LR_Clap DS.wav
192,192,35600,1,0,2:0:0:70:LR_Snare Fast.wav
64,192,35707,1,0,2:0:0:0:
320,192,35814,1,0,2:0:0:0:
448,192,35814,1,0,2:0:0:0:
192,192,35921,1,0,2:0:0:0:
64,192,36028,1,0,2:0:0:70:LR_Snare Fast.wav
448,192,36028,1,0,2:0:0:70:LR_Clap DS.wav
320,192,36243,1,0,2:0:0:0:
192,192,36457,1,0,2:0:0:70:LR_Clap DS.wav
64,192,36457,1,0,2:0:0:70:LR_Snare Fast.wav
192,192,36671,1,0,2:0:0:0:
448,192,36671,1,0,2:0:0:0:
320,192,36885,1,0,2:0:0:70:LR_Snare Fast.wav
64,192,36885,1,0,2:0:0:70:LR_Clap DS.wav
192,192,37100,1,0,2:0:0:0:
320,192,37100,1,0,2:0:0:0:
64,192,37207,1,0,2:0:0:0:
448,192,37207,1,0,2:0:0:0:
320,192,37314,1,0,2:0:0:70:LR_Clap DS.wav
192,192,37314,1,0,2:0:0:70:LR_Snare Fast.wav
64,192,37421,1,0,2:0:0:0:
192,192,37528,1,0,2:0:0:0:
448,192,37528,1,0,2:0:0:0:
320,192,37635,1,0,2:0:0:0:
192,192,37743,1,0,2:0:0:70:LR_Snare Fast.wav
64,192,37743,1,0,2:0:0:70:LR_Clap DS.wav
320,192,37957,1,0,2:0:0:0:
448,192,38171,1,0,2:0:0:70:LR_Clap DS.wav
192,192,38171,1,0,2:0:0:70:LR_Snare Fast.wav
320,192,38385,1,0,2:0:0:0:
64,192,38385,1,0,2:0:0:0:
192,192,38600,1,0,2:0:0:70:LR_Snare Fast.wav
448,192,38600,1,0,2:0:0:70:LR_Clap DS.wav
64,192,38814,1,0,2:0:0:0:
192,192,38814,1,0,2:0:0:0:
448,192,38921,1,0,2:0:0:0:
320,192,38921,1,0,2:0:0:0:
192,192,39028,1,0,2:0:0:70:LR_Clap DS.wav
64,192,39028,1,0,2:0:0:70:LR_Snare Fast.wav
448,192,39135,1,0,2:0:0:0:
320,192,39243,1,0,2:0:0:0:
64,192,39243,1,0,2:0:0:0:
192,192,39350,1,0,2:0:0:0:
448,192,39350,1,0,2:0:0:0:
320,192,39457,1,0,2:0:0:70:LR_Snare Fast.wav
64,192,39457,1,0,2:0:0:0:
192,192,39564,1,0,2:0:0:70:LR_Snare Fast.wav
320,192,39671,1,0,2:0:0:70:LR_Snare Fast.wav
192,192,39778,1,0,2:0:0:70:LR_Snare Fast.wav
320,192,39885,1,0,2:0:0:70:LR_Snare Fast.wav
192,192,39993,1,0,2:0:0:70:LR_Snare Fast.wav
320,192,40100,1,0,2:0:0:70:LR_Snare Fast.wav
192,192,40207,1,0,2:0:0:70:LR_Snare Fast.wav
320,192,40314,1,0,2:0:0:70:LR_Snare Fast.wav
448,192,40314,1,0,2:0:0:0:
64,192,40421,1,0,2:0:0:70:LR_Snare Fast.wav
448,192,40528,1,0,2:0:0:70:LR_Snare Fast.wav
64,192,40635,1,0,2:0:0:70:LR_Snare Fast.wav
192,192,40743,1,0,2:0:0:70:LR_Snare Fast.wav
320,192,40743,1,0,2:0:0:0:
448,192,40850,1,0,2:0:0:70:LR_Snare Fast.wav
320,192,40957,1,0,2:0:0:70:LR_Snare Fast.wav
448,192,41064,1,0,2:0:0:70:LR_Snare Fast.wav
192,192,41171,128,0,42135:2:0:0:70:LR_Snare Fast.wav
64,192,41171,128,0,42135:2:0:0:0:
448,192,42028,128,0,42243:2:0:0:70:LR_Snare Fast.wav
320,192,42028,128,0,42243:2:0:0:0:
192,192,42243,1,0,2:0:0:70:LR3_HiHat Normal.wav
64,192,42243,1,0,2:0:0:70:LR_Snare Fast.wav
448,192,42457,1,0,2:0:0:70:LR_Snare Fast.wav
64,192,42457,1,0,2:0:0:70:LR_Kick Beat 2.wav
320,192,42457,1,0,2:0:0:0:
320,192,42885,1,0,2:0:0:70:LR3_BassDrop.wav
64,192,42885,1,0,2:0:0:0:
448,192,49743,5,0,2:0:0:70:LR3_HiHat Normal.wav
192,192,49850,5,0,2:0:0:0:
320,192,49957,1,0,2:0:0:70:LR_HiHat Click.wav
64,192,50064,1,0,2:0:0:0:
448,192,50171,128,0,50600:2:0:0:70:LR3_HiHat Normal.wav
320,192,50278,1,0,0:0:0:0:
192,192,50385,1,0,2:0:0:70:LR_HiHat Click.wav
320,192,50493,1,0,0:0:0:0:
64,192,50600,128,0,51028:2:0:0:70:LR3_HiHat Normal.wav
192,192,50707,1,0,0:0:0:0:
320,192,50814,1,0,2:0:0:70:LR_HiHat Click.wav
448,192,50921,1,0,0:0:0:0:
192,192,51028,128,0,51457:2:0:0:70:LR3_HiHat Normal.wav
320,192,51135,1,0,0:0:0:0:
448,192,51243,1,0,2:0:0:70:LR_HiHat Click.wav
320,192,51350,1,0,0:0:0:0:
64,192,51457,128,0,52314:2:0:0:70:LR3_HiHat Normal.wav
448,192,51564,1,0,0:0:0:0:
320,192,51671,1,0,2:0:0:70:LR_HiHat Click.wav
192,192,51778,1,0,0:0:0:0:
448,192,51885,1,0,2:0:0:70:LR3_HiHat Normal.wav
320,192,51993,1,0,0:0:0:0:
448,192,52100,1,0,2:0:0:70:LR_HiHat Click.wav
192,192,52207,1,0,0:0:0:0:
320,192,52314,1,0,2:0:0:70:LR3_HiHat Normal.wav
192,192,52421,1,0,0:0:0:0:
64,192,52528,128,0,52743:2:0:0:70:LR_HiHat Click.wav
320,192,52635,1,0,0:0:0:0:
192,192,52743,128,0,52957:2:0:0:70:LR3_HiHat Normal.wav
64,192,52850,1,0,0:0:0:0:
448,192,52957,128,0,53171:2:0:0:70:LR_HiHat Click.wav
192,192,53064,1,0,0:0:0:0:
320,192,53171,128,0,53707:2:0:0:70:LR3_HiHat Normal.wav
64,192,53278,1,0,0:0:0:0:
192,192,53385,1,0,2:0:0:70:LR_HiHat Click.wav
64,192,53493,1,0,0:0:0:0:
448,192,53600,1,0,2:0:0:70:LR3_HiHat Normal.wav
192,192,53707,1,0,0:0:0:0:
64,192,53814,1,0,2:0:0:70:LR_HiHat Click.wav
320,192,53921,1,0,0:0:0:0:
64,192,54028,128,0,54243:2:0:0:70:LR3_HiHat Normal.wav
448,192,54135,1,0,0:0:0:0:
192,192,54243,128,0,54457:2:0:0:70:LR_HiHat Click.wav
320,192,54350,1,0,0:0:0:0:
448,192,54457,128,0,54671:2:0:0:70:LR3_HiHat Normal.wav
192,192,54564,1,0,0:0:0:0:
64,192,54671,128,0,54885:2:0:0:70:LR_HiHat Click.wav
320,192,54778,1,0,0:0:0:0:
448,192,54885,128,0,55743:2:0:0:70:LR3_HiHat Normal.wav
192,192,54993,1,0,0:0:0:0:
320,192,55100,1,0,2:0:0:70:LR_HiHat Click.wav
64,192,55207,1,0,0:0:0:0:
192,192,55314,1,0,2:0:0:70:LR3_HiHat Normal.wav
64,192,55421,1,0,0:0:0:0:
320,192,55528,1,0,2:0:0:70:LR_HiHat Click.wav
192,192,55635,1,0,0:0:0:0:
64,192,55743,128,0,55957:2:0:0:70:LR3_HiHat Normal.wav
320,192,55850,1,0,0:0:0:0:
192,192,55957,128,0,56171:2:0:0:70:LR_HiHat Click.wav
448,192,56064,1,0,0:0:0:0:
320,192,56171,128,0,56385:2:0:0:70:LR3_HiHat Normal.wav
192,192,56278,1,0,0:0:0:0:
64,192,56385,128,0,57243:2:0:0:70:LR_HiHat Click.wav
448,192,56493,1,0,0:0:0:0:
320,192,56600,1,0,2:0:0:70:LR3_HiHat Normal.wav
192,192,56707,1,0,0:0:0:0:
448,192,56814,1,0,2:0:0:70:LR_HiHat Click.wav
320,192,56921,1,0,0:0:0:0:
192,192,57028,1,0,2:0:0:70:LR3_HiHat Normal.wav
448,192,57135,1,0,0:0:0:0:
320,192,57243,1,0,2:0:0:70:LR_HiHat Click.wav
448,192,57350,1,0,0:0:0:0:
320,192,57457,128,0,57885:2:0:0:70:LR3_HiHat Normal.wav
64,192,57564,1,0,0:0:0:0:
192,192,57671,1,0,2:0:0:70:LR_HiHat Click.wav
64,192,57778,1,0,0:0:0:0:
448,192,57885,128,0,58314:2:0:0:70:LR3_HiHat Normal.wav
192,192,57993,1,0,0:0:0:0:
320,192,58100,1,0,2:0:0:70:LR_HiHat Click.wav
192,192,58207,1,0,0:0:0:0:
64,192,58314,128,0,59064:2:0:0:70:LR3_HiHat Normal.wav
320,192,58421,1,0,0:0:0:0:
448,192,58528,1,0,2:0:0:70:LR_HiHat Click.wav
192,192,58635,1,0,0:0:0:0:
320,192,58743,1,0,2:0:0:70:LR3_HiHat Normal.wav
448,192,58850,1,0,0:0:0:0:
320,192,58957,1,0,2:0:0:70:LR_HiHat Click.wav
448,192,59064,1,0,0:0:0:0:
192,192,59171,128,0,59921:2:0:0:70:LR3_HiHat Normal.wav
320,192,59278,1,0,0:0:0:0:
448,192,59385,1,0,2:0:0:70:LR_HiHat Click.wav
64,192,59493,1,0,0:0:0:0:
320,192,59600,1,0,2:0:0:70:LR3_HiHat Normal.wav
448,192,59707,1,0,0:0:0:0:
320,192,59814,1,0,2:0:0:70:LR_HiHat Click.wav
64,192,59921,1,0,0:0:0:0:
320,192,60028,128,0,60778:2:0:0:70:LR3_HiHat Normal.wav
192,192,60135,1,0,0:0:0:0:
64,192,60243,1,0,2:0:0:70:LR_HiHat Click.wav
192,192,60350,1,0,0:0:0:0:
448,192,60457,1,0,2:0:0:70:LR3_HiHat Normal.wav
64,192,60564,1,0,0:0:0:0:
192,192,60671,1,0,2:0:0:70:LR_HiHat Click.wav
64,192,60778,1,0,0:0:0:0:
448,192,60885,128,0,61635:2:0:0:70:LR3_HiHat Normal.wav
192,192,60993,1,0,0:0:0:0:
64,192,61100,1,0,2:0:0:70:LR_HiHat Click.wav
320,192,61207,1,0,0:0:0:0:
192,192,61314,1,0,2:0:0:70:LR3_HiHat Normal.wav
64,192,61421,1,0,0:0:0:0:
192,192,61528,1,0,2:0:0:70:LR_HiHat Click.wav
64,192,61635,1,0,0:0:0:0:
448,192,61743,128,0,62600:2:0:0:70:LR3_HiHat Normal.wav
192,192,61850,1,0,0:0:0:0:
320,192,61957,1,0,2:0:0:70:LR_HiHat Click.wav
64,192,62064,1,0,0:0:0:0:
192,192,62171,1,0,2:0:0:70:LR3_HiHat Normal.wav
64,192,62278,1,0,0:0:0:0:
320,192,62385,1,0,2:0:0:70:LR_HiHat Click.wav
192,192,62493,1,0,0:0:0:0:
64,192,62600,128,0,63457:2:0:0:70:LR3_HiHat Normal.wav
320,192,62707,1,0,0:0:0:0:
448,192,62814,1,0,2:0:0:70:LR_HiHat Click.wav
192,192,62921,1,0,0:0:0:0:
320,192,63028,1,0,2:0:0:70:LR3_HiHat Normal.wav
448,192,63135,1,0,0:0:0:0:
320,192,63243,1,0,2:0:0:70:LR_HiHat Click.wav
192,192,63350,1,0,0:0:0:0:
320,192,63457,1,0,2:0:0:70:LR3_BassDrop.wav
448,192,63457,1,0,2:0:0:0:
192,192,63564,1,0,2:0:0:0:
64,192,63671,1,0,2:0:0:0:
192,192,63778,1,0,2:0:0:0:
320,192,63885,1,0,2:0:0:0:
448,192,63993,1,0,2:0:0:0:
64,192,64100,1,0,2:0:0:0:
192,192,64207,1,0,2:0:0:0:
448,192,64314,1,0,2:0:0:0:
320,192,64421,1,0,2:0:0:0:
64,192,64528,1,0,2:0:0:0:
192,192,64635,1,0,2:0:0:0:
320,192,64743,1,0,2:0:0:0:
192,192,64850,1,0,2:0:0:0:
64,192,64957,1,0,2:0:0:0:
320,192,65064,1,0,2:0:0:0:
448,192,65171,1,0,2:0:0:0:
192,192,65278,1,0,2:0:0:0:
64,192,65385,1,0,2:0:0:0:
448,192,65493,1,0,2:0:0:0:
320,192,65600,1,0,2:0:0:0:
192,192,65707,1,0,2:0:0:0:
64,192,65814,1,0,2:0:0:0:
320,192,65921,1,0,2:0:0:0:
64,192,66028,1,0,2:0:0:0:
448,192,66135,1,0,2:0:0:0:
320,192,66243,1,0,2:0:0:0:
448,192,66350,1,0,2:0:0:0:
192,192,66457,1,0,2:0:0:0:
320,192,66564,1,0,2:0:0:0:
192,192,66671,1,0,2:0:0:0:
448,192,66778,1,0,2:0:0:0:
320,192,66885,1,0,2:0:0:0:
448,192,66993,1,0,2:0:0:0:
192,192,67100,1,0,2:0:0:0:
320,192,67207,1,0,2:0:0:0:
192,192,67314,1,0,2:0:0:0:
64,192,67421,1,0,2:0:0:0:
192,192,67528,1,0,2:0:0:0:
64,192,67635,1,0,2:0:0:0:
320,192,67743,1,0,2:0:0:0:
192,192,67850,1,0,2:0:0:0:
320,192,67957,1,0,2:0:0:0:
64,192,68064,1,0,2:0:0:0:
448,192,68171,1,0,2:0:0:0:
192,192,68171,1,0,2:0:0:0:
320,192,68385,1,0,2:0:0:0:
64,192,68385,1,0,2:0:0:0:
448,192,68600,1,0,2:0:0:0:
192,192,68600,1,0,2:0:0:0:
320,192,68814,1,0,2:0:0:0:
64,192,68814,1,0,2:0:0:0:
448,192,69028,1,0,2:0:0:0:
192,192,69028,1,0,2:0:0:0:
320,192,69243,1,0,2:0:0:0:
64,192,69243,1,0,2:0:0:0:
448,192,69457,1,0,2:0:0:0:
192,192,69457,1,0,2:0:0:0:
192,192,69671,1,0,2:0:0:0:
320,192,69671,1,0,2:0:0:0:
448,192,69885,1,0,2:0:0:0:
64,192,69885,1,0,2:0:0:0:
320,192,70100,1,0,2:0:0:0:
192,192,70100,1,0,2:0:0:0:
448,192,70314,1,0,2:0:0:70:LR_Snare Fast.wav
64,192,70314,1,0,2:0:0:70:LR_Clap DS.wav
320,192,70421,1,0,2:0:0:70:LR_Snare Fast.wav
192,192,70528,1,0,2:0:0:70:LR_Snare Fast.wav
64,192,70635,1,0,2:0:0:70:LR_Snare Fast.wav
320,192,70743,1,0,2:0:0:70:LR_Snare Fast.wav
448,192,70743,1,0,2:0:0:70:LR_Clap DS.wav
192,192,70850,1,0,2:0:0:70:LR_Snare Fast.wav
320,192,70957,1,0,2:0:0:70:LR_Snare Fast.wav
448,192,71064,1,0,2:0:0:70:LR_Snare Fast.wav
64,192,71171,1,0,2:0:0:70:LR_Snare Fast.wav
192,192,71171,1,0,2:0:0:70:LR_Clap DS.wav
320,192,71278,1,0,2:0:0:70:LR_Snare Fast.wav
192,192,71385,1,0,2:0:0:70:LR_Snare Fast.wav
64,192,71493,1,0,2:0:0:70:LR_Snare Fast.wav
448,192,71600,1,0,2:0:0:70:LR_Snare Fast.wav
320,192,71600,1,0,2:0:0:70:LR_Clap DS.wav
320,192,71814,1,0,2:0:0:0:
448,192,72028,1,0,2:0:0:70:LR_Snare Fast.wav
64,192,72028,1,0,2:0:0:70:LR_Clap DS.wav
320,192,72135,1,0,2:0:0:70:LR_Snare Fast.wav
192,192,72243,1,0,2:0:0:70:LR_Snare Fast.wav
320,192,72350,1,0,2:0:0:70:LR_Snare Fast.wav
64,192,72457,1,0,2:0:0:70:LR_Snare Fast.wav
448,192,72457,1,0,2:0:0:70:LR_Clap DS.wav
192,192,72564,1,0,2:0:0:70:LR_Snare Fast.wav
320,192,72671,1,0,2:0:0:70:LR_Snare Fast.wav
192,192,72778,1,0,2:0:0:70:LR_Snare Fast.wav
448,192,72885,1,0,2:0:0:70:LR_Snare Fast.wav
64,192,72885,1,0,2:0:0:70:LR_Clap DS.wav
320,192,72993,1,0,2:0:0:70:LR_Snare Fast.wav
192,192,73100,1,0,2:0:0:70:LR_Snare Fast.wav
64,192,73207,1,0,2:0:0:70:LR_Snare Fast.wav
448,192,73314,1,0,2:0:0:70:LR_Snare Fast.wav
320,192,73368,1,0,2:0:0:70:LR_Snare Fast.wav
192,192,73421,1,0,2:0:0:70:LR_Snare Fast.wav
64,192,73475,1,0,2:0:0:70:LR_Snare Fast.wav
448,192,73528,1,0,0:0:0:0:
448,192,73743,1,0,2:0:0:70:LR_Snare Fast.wav
192,192,73743,1,0,2:0:0:0:
320,192,73850,1,0,2:0:0:70:LR_Snare Fast.wav
64,192,73957,1,0,2:0:0:70:LR_Snare Fast.wav
320,192,74064,1,0,2:0:0:70:LR_Snare Fast.wav
192,192,74171,1,0,2:0:0:70:LR_Snare Fast.wav
448,192,74171,1,0,2:0:0:0:
64,192,74278,1,0,2:0:0:70:LR_Snare Fast.wav
320,192,74385,1,0,2:0:0:70:LR_Snare Fast.wav
64,192,74493,1,0,2:0:0:70:LR_Snare Fast.wav
448,192,74600,1,0,2:0:0:70:LR_Snare Fast.wav
192,192,74600,1,0,2:0:0:0:
320,192,74707,1,0,2:0:0:70:LR_Snare Fast.wav
64,192,74814,1,0,2:0:0:70:LR_Snare Fast.wav
320,192,74921,1,0,2:0:0:70:LR_Snare Fast.wav
192,192,75028,1,0,2:0:0:70:LR_Snare Fast.wav
448,192,75028,1,0,2:0:0:0:
64,192,75135,1,0,2:0:0:70:LR_Snare Fast.wav
448,192,75243,1,0,2:0:0:70:LR_Snare Fast.wav
320,192,75350,1,0,2:0:0:70:LR_Snare Fast.wav
64,192,75457,128,0,76207:2:0:0:70:LR_Snare Fast.wav
192,192,75457,128,0,76207:2:0:0:0:
448,192,75885,128,0,76314:2:0:0:70:LR_Snare Fast.wav
320,192,75885,128,0,76314:2:0:0:0:
64,192,76314,1,0,2:0:0:70:LR3_BassDrop.wav
192,192,76314,1,0,2:0:0:0:
192,192,76743,1,0,2:0:0:0:
320,192,76743,1,0,2:0:0:0:
448,192,77171,1,0,2:0:0:70:LR2_KickBassD.wav
320,192,77171,1,0,2:0:0:70:LR_Kick Beat 2.wav
64,192,77385,1,0,2:0:0:0:
320,192,77493,1,0,2:0:0:0:
192,192,77600,1,0,2:0:0:70:LR_Kick Beat 2.wav
64,192,77600,1,0,2:0:0:70:LR2_KickBassD.wav
320,192,77814,1,0,2:0:0:0:
192,192,77921,1,0,2:0:0:0:
320,192,78028,1,0,2:0:0:70:LR2_KickBassD.wav
448,192,78028,1,0,2:0:0:70:LR_Kick Beat 2.wav
192,192,78243,1,0,2:0:0:0:
448,192,78350,1,0,2:0:0:0:
320,192,78457,1,0,2:0:0:70:LR_Kick Beat 2.wav
64,192,78457,1,0,2:0:0:70:LR2_KickBassD.wav
320,192,78671,1,0,2:0:0:0:
192,192,78778,1,0,2:0:0:0:
448,192,78885,1,0,2:0:0:70:LR2_KickBassD.wav
320,192,78885,1,0,2:0:0:70:LR_Kick Beat 2.wav
192,192,79100,1,0,2:0:0:0:
448,192,79100,1,0,2:0:0:0:
320,192,79207,1,0,2:0:0:0:
192,192,79314,1,0,2:0:0:70:LR_Kick Beat 2.wav
64,192,79314,1,0,2:0:0:70:LR2_KickBassD.wav
64,192,79528,1,0,2:0:0:0:
320,192,79528,1,0,2:0:0:0:
192,192,79635,1,0,2:0:0:0:
320,192,79743,1,0,2:0:0:70:LR_Kick Beat 2.wav
448,192,79743,1,0,2:0:0:70:LR2_KickBassD.wav
64,192,79957,1,0,2:0:0:0:
448,192,79957,1,0,2:0:0:0:
320,192,80064,1,0,2:0:0:0:
192,192,80171,1,0,2:0:0:70:LR2_KickBassD.wav
64,192,80171,1,0,2:0:0:70:LR_Kick Beat 2.wav
448,192,80278,1,0,2:0:0:0:
64,192,80385,1,0,2:0:0:0:
192,192,80493,1,0,2:0:0:0:
320,192,80600,1,0,2:0:0:70:LR_Kick Beat 2.wav
448,192,80600,1,0,2:0:0:70:LR2_KickBassD.wav
64,192,80814,1,0,2:0:0:0:
448,192,80814,1,0,2:0:0:0:
320,192,80921,1,0,2:0:0:0:
192,192,81028,1,0,2:0:0:70:LR2_KickBassD.wav
64,192,81028,1,0,2:0:0:70:LR_Kick Beat 2.wav
64,192,81243,1,0,2:0:0:0:
448,192,81243,1,0,2:0:0:0:
320,192,81350,1,0,2:0:0:0:
192,192,81457,1,0,2:0:0:70:LR_Kick Beat 2.wav
64,192,81457,1,0,2:0:0:70:LR2_KickBassD.wav
192,192,81671,1,0,2:0:0:0:
448,192,81671,1,0,2:0:0:0:
320,192,81778,1,0,2:0:0:0:
64,192,81778,1,0,2:0:0:0:
192,192,81885,1,0,2:0:0:70:LR2_KickBassD.wav
448,192,81885,1,0,2:0:0:70:LR_Kick Beat 2.wav
64,192,81993,1,0,2:0:0:0:
448,192,82100,1,0,2:0:0:0:
320,192,82207,1,0,2:0:0:0:
192,192,82314,1,0,2:0:0:70:LR_Kick Beat 2.wav
64,192,82314,1,0,2:0:0:70:LR2_KickBassD.wav
64,192,82528,1,0,2:0:0:0:
448,192,82528,1,0,2:0:0:0:
320,192,82528,1,0,2:0:0:0:
192,192,82635,1,0,2:0:0:0:
320,192,82743,1,0,2:0:0:70:LR2_KickBassD.wav
448,192,82743,1,0,2:0:0:70:LR_Kick Beat 2.wav
64,192,82850,1,0,2:0:0:0:
192,192,82957,1,0,2:0:0:0:
320,192,82957,1,0,2:0:0:0:
448,192,82957,1,0,2:0:0:0:
64,192,83064,1,0,2:0:0:0:
320,192,83171,1,0,2:0:0:70:LR_Kick Beat 2.wav
448,192,83171,1,0,2:0:0:70:LR2_KickBassD.wav
192,192,83278,1,0,2:0:0:0:
64,192,83385,1,0,2:0:0:0:
448,192,83385,1,0,2:0:0:0:
320,192,83493,1,0,2:0:0:0:
448,192,83600,1,0,2:0:0:100:LR_Snare Fast.wav
64,192,83600,1,0,2:0:0:0:
192,192,83600,1,0,2:0:0:0:
320,192,83814,1,0,2:0:0:100:LR_Snare Fast.wav
192,192,83814,1,0,2:0:0:0:
64,192,83814,1,0,2:0:0:0:
448,192,84028,128,0,84135:2:0:0:70:LR_Kick Beat 2.wav
320,192,84028,128,0,84135:2:0:0:0:
192,192,84028,1,0,2:0:0:0:
64,192,84243,128,0,84350:2:0:0:0:
320,192,84243,128,0,84350:2:0:0:0:
448,192,84457,128,0,84564:2:0:0:70:LR_Clap Fast Low.wav
192,192,84457,128,0,84564:2:0:0:0:
64,192,84457,1,0,2:0:0:0:
64,192,84671,128,0,84778:2:0:0:0:
320,192,84671,128,0,84778:2:0:0:0:
192,192,84885,128,0,84993:2:0:0:70:LR_Kick Beat 2.wav
320,192,84885,128,0,84993:2:0:0:0:
448,192,84885,1,0,2:0:0:0:
448,192,85100,1,0,2:0:0:0:
64,192,85100,128,0,85314:2:0:0:0:
320,192,85207,1,0,2:0:0:0:
192,192,85207,128,0,85314:2:0:0:0:
448,192,85314,128,0,85528:2:0:0:70:LR_Clap Fast Low.wav
320,192,85421,128,0,85528:2:0:0:0:
64,192,85421,1,0,2:0:0:0:
192,192,85528,1,0,2:0:0:0:
64,192,85635,1,0,2:0:0:0:
448,192,85743,128,0,85850:2:0:0:70:LR_Kick Beat 2.wav
320,192,85743,128,0,85850:2:0:0:0:
192,192,85743,128,0,85850:2:0:0:0:
64,192,85957,128,0,86064:2:0:0:0:
320,192,85957,128,0,86064:2:0:0:0:
320,192,86171,128,0,86278:2:0:0:70:LR_Clap Fast Low.wav
448,192,86171,128,0,86278:2:0:0:0:
192,192,86171,128,0,86278:2:0:0:0:
64,192,86385,128,0,86600:2:0:0:0:
192,192,86493,128,0,86600:2:0:0:0:
320,192,86600,128,0,86707:2:0:0:70:LR_Kick Beat 2.wav
448,192,86600,128,0,86707:2:0:0:0:
64,192,86814,128,0,87028:2:0:0:0:
192,192,86921,128,0,87028:2:0:0:0:
448,192,87028,1,0,2:0:0:70:LR_Clap Fast Low.wav
320,192,87028,1,0,2:0:0:0:
448,192,87243,128,0,87457:2:0:0:0:
320,192,87350,128,0,87457:2:0:0:0:
192,192,87457,128,0,87671:2:0:0:70:LR_Kick Beat 2.wav
64,192,87457,128,0,87671:2:0:0:0:
448,192,87671,1,0,2:0:0:0:
448,192,87885,128,0,88100:2:0:0:70:LR_Clap Fast Low.wav
320,192,87885,128,0,88100:2:0:0:0:
64,192,88100,1,0,2:0:0:0:
64,192,88314,128,0,88528:2:0:0:70:LR_Kick Beat 2.wav
448,192,88314,128,0,88528:2:0:0:0:
320,192,88528,1,0,2:0:0:0:
192,192,88635,1,0,2:0:0:0:
64,192,88743,1,0,2:0:0:70:LR_Clap Fast Low.wav
448,192,88743,1,0,2:0:0:0:
192,192,88957,1,0,2:0:0:0:
448,192,88957,1,0,2:0:0:0:
320,192,89064,1,0,2:0:0:0:
64,192,89064,1,0,2:0:0:0:
448,192,89171,128,0,90028:2:0:0:70:LR_Kick Beat 2.wav
192,192,89171,128,0,90028:0:0:0:0:
64,192,90028,128,0,90243:2:0:0:70:LR_Snare Fast.wav
320,192,90028,128,0,90243:0:0:0:0:
192,192,90350,128,0,90564:2:0:0:70:LR_Snare Fast.wav
448,192,90350,128,0,90564:2:0:0:0:
320,192,90671,128,0,90885:2:0:0:70:LR_Snare Fast.wav
448,192,90671,128,0,90885:2:0:0:0:
192,192,90885,128,0,91207:2:0:0:70:LR_Kick Beat 2.wav
64,192,90885,128,0,91207:2:0:0:0:
448,192,91314,1,0,2:0:0:70:LR2_KickBassD.wav
320,192,91314,1,0,2:0:0:0:
192,192,91528,128,0,91635:2:0:0:0:
320,192,91528,128,0,91635:2:0:0:0:
64,192,91743,1,0,2:0:0:70:LR_Kick Beat 2.wav
448,192,91743,1,0,2:0:0:0:
320,192,91957,1,0,2:0:0:0:
192,192,91957,1,0,2:0:0:0:
64,192,92064,1,0,2:0:0:0:
448,192,92064,1,0,2:0:0:0:
320,192,92171,1,0,2:0:0:70:LR2_KickBassD.wav
192,192,92171,1,0,2:0:0:0:
448,192,92278,1,0,2:0:0:0:
320,192,92385,1,0,2:0:0:0:
64,192,92385,1,0,2:0:0:0:
192,192,92493,1,0,2:0:0:0:
448,192,92493,1,0,2:0:0:0:
320,192,92600,128,0,92814:2:0:0:70:LR_Kick Beat 2.wav
64,192,92600,128,0,92814:2:0:0:0:
192,192,92921,1,0,2:0:0:0:
320,192,93028,1,0,2:0:0:70:LR2_KickBassD.wav
448,192,93028,1,0,2:0:0:0:
64,192,93243,128,0,93350:2:0:0:0:
320,192,93243,128,0,93350:2:0:0:0:
448,192,93350,1,0,2:0:0:0:
192,192,93457,1,0,2:0:0:70:LR_Kick Beat 2.wav
64,192,93457,1,0,2:0:0:0:
192,192,93671,128,0,93778:2:0:0:0:
448,192,93671,128,0,93778:2:0:0:0:
64,192,93778,1,0,2:0:0:0:
448,192,93885,1,0,2:0:0:70:LR2_KickBassD.wav
320,192,93885,1,0,2:0:0:0:
192,192,93993,1,0,2:0:0:0:
320,192,94100,1,0,2:0:0:0:
64,192,94207,128,0,94314:2:0:0:0:
192,192,94207,128,0,94314:2:0:0:0:
320,192,94314,128,0,94635:2:0:0:70:LR_Kick Beat 2.wav
448,192,94314,128,0,94635:2:0:0:0:
64,192,94635,1,0,2:0:0:0:
192,192,94743,1,0,2:0:0:70:LR2_KickBassD.wav
448,192,94743,1,0,2:0:0:0:
320,192,94957,1,0,2:0:0:0:
192,192,94957,1,0,2:0:0:0:
448,192,95064,128,0,95171:2:0:0:0:
64,192,95064,128,0,95171:2:0:0:0:
320,192,95171,1,0,2:0:0:70:LR_Kick Beat 2.wav
192,192,95385,1,0,2:0:0:0:
448,192,95385,1,0,2:0:0:0:
320,192,95493,1,0,2:0:0:0:
64,192,95493,1,0,2:0:0:0:
192,192,95600,1,0,2:0:0:70:LR2_KickBassD.wav
448,192,95600,1,0,2:0:0:0:
320,192,95707,128,0,95814:0:0:0:0:
448,192,95814,128,0,95921:2:0:0:0:
64,192,95921,128,0,96028:2:0:0:0:
192,192,96028,1,0,2:0:0:70:LR_Kick Beat 2.wav
320,192,96028,128,0,96350:2:0:0:0:
64,192,96350,128,0,96457:2:0:0:0:
320,192,96457,128,0,96671:2:0:0:70:LR2_KickBassD.wav
448,192,96457,1,0,2:0:0:0:
192,192,96671,128,0,96778:2:0:0:0:
64,192,96671,128,0,96778:2:0:0:0:
448,192,96778,128,0,96885:2:0:0:0:
320,192,96885,1,0,2:0:0:70:LR_Kick Beat 2.wav
64,192,96885,1,0,2:0:0:0:
192,192,96993,1,0,2:0:0:0:
320,192,97100,1,0,2:0:0:0:
448,192,97100,1,0,2:0:0:0:
64,192,97207,1,0,2:0:0:0:
192,192,97314,1,0,2:0:0:100:LR_Snare Fast.wav
320,192,97314,1,0,2:0:0:0:
448,192,97314,1,0,2:0:0:0:
192,192,97528,1,0,2:0:0:100:LR_Snare Fast.wav
320,192,97528,1,0,2:0:0:0:
448,192,97528,1,0,2:0:0:0:
64,192,97743,128,0,98064:2:0:0:70:LR_Kick Beat 2.wav
192,192,97743,128,0,98064:2:0:0:0:
448,192,98064,128,0,98171:2:0:0:0:
320,192,98171,1,0,2:0:0:70:LR_Clap Fast Low.wav
192,192,98171,1,0,2:0:0:0:
64,192,98385,1,0,2:0:0:100:LR_HiHat Click.wav
320,192,98385,1,0,2:0:0:0:
192,192,98493,1,0,2:0:0:0:
448,192,98493,1,0,2:0:0:0:
64,192,98600,128,0,98707:2:0:0:70:LR_Kick Beat 2.wav
320,192,98600,128,0,98707:2:0:0:0:
448,192,98814,1,0,2:0:0:100:LR_HiHat Click.wav
192,192,98921,1,0,2:0:0:0:
64,192,98921,1,0,2:0:0:0:
320,192,99028,128,0,99243:2:0:0:70:LR_Clap Fast Low.wav
448,192,99028,128,0,99243:2:0:0:0:
64,192,99243,1,0,2:0:0:0:
192,192,99350,1,0,2:0:0:0:
448,192,99350,1,0,2:0:0:0:
320,192,99457,128,0,99778:2:0:0:70:LR_Kick Beat 2.wav
64,192,99457,128,0,99778:2:0:0:0:
448,192,99778,128,0,99885:2:0:0:0:
192,192,99885,1,0,2:0:0:70:LR_Clap Fast Low.wav
64,192,99885,1,0,2:0:0:0:
64,192,100100,1,0,2:0:0:100:LR_HiHat Click.wav
448,192,100100,1,0,2:0:0:0:
320,192,100207,1,0,2:0:0:0:
192,192,100207,1,0,2:0:0:0:
448,192,100314,128,0,100421:2:0:0:70:LR_Kick Beat 2.wav
64,192,100314,128,0,100421:2:0:0:0:
320,192,100528,1,0,2:0:0:100:LR_HiHat Click.wav
448,192,100528,1,0,2:0:0:0:
192,192,100635,1,0,2:0:0:0:
64,192,100635,1,0,2:0:0:0:
448,192,100743,128,0,100957:2:0:0:70:LR_Clap Fast Low.wav
320,192,100743,128,0,100957:2:0:0:0:
64,192,100850,1,0,2:0:0:0:
192,192,100957,1,0,2:0:0:0:
448,192,101064,1,0,2:0:0:0:
64,192,101064,1,0,2:0:0:0:
320,192,101171,128,0,101493:2:0:0:70:LR_Kick Beat 2.wav
192,192,101171,128,0,101493:2:0:0:0:
448,192,101493,128,0,101600:2:0:0:0:
192,192,101600,1,0,2:0:0:70:LR_Clap Fast Low.wav
64,192,101600,1,0,2:0:0:0:
448,192,101814,128,0,102028:2:0:0:100:LR_HiHat Click.wav
320,192,101921,128,0,102028:2:0:0:0:
192,192,102028,1,0,2:0:0:70:LR_Kick Beat 2.wav
64,192,102028,128,0,102135:2:0:0:0:
448,192,102243,128,0,102457:2:0:0:100:LR_HiHat Click.wav
320,192,102350,1,0,2:0:0:0:
192,192,102457,1,0,2:0:0:70:LR_Clap Fast Low.wav
64,192,102564,128,0,102885:2:0:0:0:
320,192,102671,1,0,2:0:0:0:
448,192,102778,1,0,2:0:0:0:
320,192,102885,1,0,2:0:0:0:
192,192,102885,128,0,103207:2:0:0:0:
448,192,103207,128,0,103314:2:0:0:0:
64,192,103314,128,0,103635:2:0:0:70:LR3_BassDrop.wav
448,192,103635,128,0,103743:2:0:0:0:
64,192,103743,128,0,104064:2:0:0:70:LR3_BassDrop.wav
448,192,104064,128,0,104171:2:0:0:0:
64,192,104171,128,0,104493:2:0:0:70:LR3_BassDrop.wav
448,192,104493,128,0,104600:2:0:0:0:
