osu file format v14

[General]
AudioFilename: audio.mp3
AudioLeadIn: 0
PreviewTime: -1
Countdown: 1
SampleSet: Normal
StackLeniency: 0.7
Mode: 0
LetterboxInBreaks: 0
WidescreenStoryboard: 1

[Editor]
DistanceSpacing: 1
BeatDivisor: 4
GridSize: 4
TimelineZoom: 1

[Metadata]
Title:Breeze
TitleUnicode:Breeze
Artist:cYsmix
ArtistUnicode:cYsmix
Creator:PotatoKid12
Version:Easy
Source:
Tags:
BeatmapID:1251013
BeatmapSetID:590773

[Difficulty]
HPDrainRate:3
CircleSize:3
OverallDifficulty:1
ApproachRate:2
SliderMultiplier:1.4
SliderTickRate:1

[Events]
//Background and Video events
0,0,"bf34af5e29b65cefb02accee9f8fa175.jpg",0,0
//Break Periods
2,41378,48190
//Storyboard Layer 0 (Background)
//Storyboard Layer 1 (Fail)
//Storyboard Layer 2 (Pass)
//Storyboard Layer 3 (Foreground)
//Storyboard Sound Samples

[TimingPoints]
1750.17857142857,428.571428571429,4,1,0,100,1,0

[Colours]
Combo1 : 36,56,234
Combo2 : 0,64,128
Combo3 : 0,0,160
Combo4 : 0,0,64
Combo5 : 0,0,0
Combo6 : 0,128,192

[HitObjects]
204,152,1750,6,0,P|252:96|324:128,2,140
176,228,3035,1,0,0:0:0:0:
276,280,3464,2,0,L|412:224,1,140
376,140,4321,1,2,0:0:0:0:
276,84,4750,1,2,0:0:0:0:
168,72,5178,2,0,P|116:100|144:176,1,140
152,244,6035,6,0,P|216:300|276:268,1,140
320,236,6893,1,2,0:0:0:0:
268,164,7321,1,2,0:0:0:0:
220,92,7750,1,2,0:0:0:0:
104,128,8607,2,0,L|108:272,1,140
320,208,9464,2,0,L|392:140,2,70
256,272,10321,1,0,0:0:0:0:
148,212,10750,2,0,L|248:100,1,140
352,72,12035,5,2,0:0:0:0:
424,136,12464,1,2,0:0:0:0:
372,212,12893,1,2,0:0:0:0:
296,264,13321,1,2,0:0:0:0:
256,192,13750,12,0,14821,0:0:0:0:
224,232,15464,5,2,0:0:0:0:
312,180,15893,1,2,0:0:0:0:
408,224,16321,1,2,0:0:0:0:
312,288,16750,2,0,L|148:252,1,140
88,188,17607,1,0,0:0:0:0:
120,80,18035,2,0,P|176:48|236:96,1,140
288,176,18893,5,2,0:0:0:0:
364,268,19321,1,2,0:0:0:0:
256,324,19750,1,2,0:0:0:0:
164,256,20178,2,0,L|88:200,2,70
296,288,21035,5,0,0:0:0:0:
364,220,21464,2,0,L|360:80,1,140
240,48,22321,6,0,L|144:164,1,140
136,236,23178,1,2,0:0:0:0:
272,192,23607,1,2,0:0:0:0:
344,288,24035,2,0,P|408:272|376:88,1,280
364,184,25321,1,0,0:0:0:0:
256,80,25750,2,0,P|176:56|152:116,1,140
128,176,26607,2,0,L|248:268,1,140
256,192,27464,12,0,28428,0:0:0:0:
256,192,29178,6,0,L|184:72,1,140
316,48,30035,1,2,0:0:0:0:
408,120,30464,2,0,L|428:192,2,70
324,236,31321,5,2,0:0:0:0:
200,244,31750,2,0,P|160:256|112:168,1,140
208,112,33035,1,2,0:0:0:0:
272,56,33464,1,2,0:0:0:0:
336,96,33893,1,2,0:0:0:0:
392,172,34321,6,0,L|360:316,2,140
436,88,35607,1,2,0:0:0:0:
348,64,36035,2,0,P|300:40|236:88,1,140
208,160,36893,1,2,0:0:0:0:
172,272,37321,2,0,L|336:304,1,140
392,224,38178,5,2,0:0:0:0:
344,108,38607,1,2,0:0:0:0:
224,88,39035,2,0,L|156:120,1,70
240,272,39893,2,0,L|292:216,1,70
460,228,40750,2,0,L|400:296,1,70
332,244,41178,5,2,0:0:0:0:
256,192,49750,6,0,L|304:136,1,70
388,184,50607,2,0,L|344:248,1,70
252,180,51464,6,0,P|188:232|208:64,1,420
172,144,53178,1,2,0:0:0:0:
236,256,54035,6,0,L|348:140,2,140
160,260,55750,1,0,0:0:0:0:
140,132,56178,1,0,0:0:0:0:
200,60,56607,2,0,L|368:84,1,140
424,100,57464,2,0,L|356:252,1,140
284,280,58321,1,0,0:0:0:0:
256,196,58750,1,0,0:0:0:0:
216,116,59178,1,0,0:0:0:0:
140,184,60035,2,0,L|256:300,1,140
360,216,60893,5,0,0:0:0:0:
424,116,61750,2,0,L|288:72,1,140
188,76,62607,1,2,0:0:0:0:
88,108,63464,2,0,L|136:220,1,105
264,268,64750,1,2,0:0:0:0:
368,240,65178,2,0,L|376:164,1,70
376,88,66035,2,0,L|304:64,1,70
192,80,66893,5,2,0:0:0:0:
100,168,67321,1,2,0:0:0:0:
188,256,67750,1,2,0:0:0:0:
280,176,68178,1,2,0:0:0:0:
324,80,68607,2,0,L|356:216,1,140
276,296,69464,1,2,0:0:0:0:
160,184,69893,1,2,0:0:0:0:
140,68,70321,2,0,L|416:116,1,280
408,264,72035,2,0,L|112:200,1,280
92,116,73750,5,2,0:0:0:0:
148,56,74178,1,2,0:0:0:0:
208,112,74607,1,2,0:0:0:0:
268,52,75035,1,2,0:0:0:0:
364,112,75464,2,0,L|364:264,1,140
284,256,76321,2,0,L|192:248,2,70
136,208,77178,6,0,P|104:120|152:76,1,140
220,56,78035,2,0,P|288:40|352:96,1,140
376,172,78893,1,2,0:0:0:0:
240,184,79750,1,2,0:0:0:0:
92,192,80607,6,0,L|216:272,1,140
284,296,81464,2,0,P|328:256|304:188,1,140
240,148,82321,2,0,P|200:84|252:44,1,140
356,60,83178,1,2,0:0:0:0:
408,192,83607,1,2,0:0:0:0:
296,276,84035,6,0,L|144:256,1,140
60,228,84893,2,0,L|124:96,1,140
220,64,85750,1,2,0:0:0:0:
324,144,86178,1,2,0:0:0:0:
120,196,87464,6,0,L|232:96,1,140
256,196,88750,1,0,0:0:0:0:
208,96,89178,2,0,P|264:52|316:252,1,385
212,244,90893,6,0,L|304:132,1,140
424,152,91750,1,2,0:0:0:0:
344,248,92178,1,2,0:0:0:0:
264,328,92607,2,0,L|140:232,1,140
88,144,93464,2,0,P|120:104|204:104,1,140
256,192,94321,5,2,0:0:0:0:
344,100,94750,1,2,0:0:0:0:
404,168,95178,2,0,P|436:232|280:240,1,280
240,192,96464,5,0,0:0:0:0:
184,112,96893,1,0,0:0:0:0:
264,56,97321,2,0,L|320:108,2,70
144,80,98178,6,0,L|248:184,1,140
180,228,99035,1,2,0:0:0:0:
280,268,99464,2,0,L|400:184,1,140
368,80,100321,2,0,L|228:180,1,140
244,264,101607,1,0,0:0:0:0:
256,192,102035,12,2,104178,0:0:0:0:
