osu file format v14

[General]
AudioFilename: audio.mp3
AudioLeadIn: 0
PreviewTime: 76107
Countdown: 0
SampleSet: Soft
StackLeniency: 0.7
Mode: 3
LetterboxInBreaks: 0
SpecialStyle: 0
WidescreenStoryboard: 0

[Editor]
DistanceSpacing: 1
BeatDivisor: 8
GridSize: 4
TimelineZoom: 3.199999

[Metadata]
Title:Breeze
TitleUnicode:Breeze
Artist:cYsmix
ArtistUnicode:cYsmix
Creator:AncuL
Version:Extra
Source:osu!
Tags:featured artist monthly beatmapping contest sea arabia mappers' guild
BeatmapID:1353487
BeatmapSetID:638012

[Difficulty]
HPDrainRate:8
CircleSize:7
OverallDifficulty:9.5
ApproachRate:5
SliderMultiplier:1.4
SliderTickRate:1

[Events]
//Background and Video events
0,0,"osu!cysmix-bgtiny.jpg",0,0
//Break Periods
2,43092,46835
//Storyboard Layer 0 (Background)
//Storyboard Layer 1 (Fail)
//Storyboard Layer 2 (Pass)
//Storyboard Layer 3 (Foreground)
//Storyboard Sound Samples

[TimingPoints]
1750,428.571428571429,4,2,1,30,1,0
29178,-100,4,2,1,30,0,1
42892,-100,4,2,1,30,0,0
90892,-100,4,2,1,30,0,1
102892,-100,4,2,1,30,0,0

[HitObjects]
402,192,1321,5,0,0:0:0:70:LR_Clap DS.wav
256,192,1321,1,0,0:0:0:0:
109,192,1321,1,0,0:0:0:0:
36,192,1321,1,0,0:0:0:0:
475,192,1321,1,0,0:0:0:0:
475,192,1750,128,0,2178:0:0:0:70:LR3_HiHat Normal.wav
256,192,1750,1,0,0:0:0:70:LR_Kick Beat 2.wav
182,192,1750,1,0,0:0:0:0:
36,192,1750,1,0,0:0:0:0:
182,192,1857,1,0,0:0:0:0:
329,192,1964,1,0,0:0:0:0:
109,192,1964,1,0,0:0:0:0:
329,192,2071,1,0,0:0:0:0:
402,192,2178,1,0,0:0:0:70:LR3_HiHat Normal.wav
256,192,2178,1,0,0:0:0:70:LR2_KickBassD.wav
36,192,2178,1,0,0:0:0:0:
256,192,2392,1,0,0:0:0:0:
256,192,2500,1,0,0:0:0:0:
475,192,2607,1,0,0:0:0:70:LR_Clap DS.wav
329,192,2607,1,0,0:0:0:70:LR3_HiHat Normal.wav
109,192,2607,1,0,0:0:0:70:LR_Kick Beat 2.wav
109,192,2714,1,0,0:0:0:0:
36,192,2821,1,0,0:0:0:0:
402,192,2821,1,0,0:0:0:0:
402,192,2928,1,0,0:0:0:0:
475,192,3035,1,0,0:0:0:70:LR3_HiHat Normal.wav
256,192,3035,1,0,0:0:0:70:LR2_KickBassD.wav
182,192,3035,1,0,0:0:0:0:
182,192,3250,1,0,0:0:0:0:
329,192,3357,1,0,0:0:0:0:
402,192,3464,1,0,0:0:0:70:LR3_HiHat Normal.wav
475,192,3464,1,0,0:0:0:70:LR_Kick Beat 2.wav
109,192,3464,1,0,0:0:0:0:
109,192,3571,1,0,0:0:0:0:
256,192,3678,1,0,0:0:0:0:
402,192,3678,1,0,0:0:0:0:
402,192,3785,1,0,0:0:0:0:
109,192,3892,1,0,0:0:0:70:LR3_HiHat Normal.wav
36,192,3892,1,0,0:0:0:70:LR2_KickBassD.wav
329,192,3892,1,0,0:0:0:0:
329,192,4107,1,0,0:0:0:0:
329,192,4214,1,0,0:0:0:0:
256,192,4321,1,0,0:0:0:70:LR3_HiHat Normal.wav
109,192,4321,1,0,0:0:0:70:LR_Kick Beat 2.wav
475,192,4321,1,0,0:0:0:0:
109,192,4428,1,0,0:0:0:0:
182,192,4535,1,0,0:0:0:0:
329,192,4535,1,0,0:0:0:0:
329,192,4642,1,0,0:0:0:0:
475,192,4750,1,0,0:0:0:70:LR3_HiHat Normal.wav
109,192,4750,1,0,0:0:0:70:LR2_KickBassD.wav
256,192,4750,1,0,0:0:0:0:
329,192,4964,1,0,0:0:0:0:
182,192,5071,1,0,0:0:0:0:
402,192,5178,1,0,0:0:0:70:LR3_HiHat Normal.wav
109,192,5178,1,0,0:0:0:70:LR_Kick Beat 2.wav
36,192,5178,1,0,0:0:0:0:
402,192,5285,1,0,0:0:0:0:
329,192,5392,1,0,0:0:0:0:
182,192,5392,1,0,0:0:0:0:
182,192,5500,1,0,0:0:0:0:
475,192,5607,1,0,0:0:0:70:LR3_HiHat Normal.wav
256,192,5607,1,0,0:0:0:70:LR2_KickBassD.wav
109,192,5607,1,0,0:0:0:0:
475,192,5821,1,0,0:0:0:0:
475,192,5928,1,0,0:0:0:0:
329,192,6035,1,0,0:0:0:70:LR3_HiHat Normal.wav
182,192,6035,1,0,0:0:0:70:LR_Kick Beat 2.wav
109,192,6035,1,0,0:0:0:0:
182,192,6142,1,0,0:0:0:0:
402,192,6250,1,0,0:0:0:0:
36,192,6250,1,0,0:0:0:0:
36,192,6357,1,0,0:0:0:0:
329,192,6464,1,0,0:0:0:70:LR3_HiHat Normal.wav
475,192,6464,1,0,0:0:0:70:LR2_KickBassD.wav
256,192,6464,1,0,0:0:0:0:
256,192,6678,1,0,0:0:0:0:
182,192,6785,1,0,0:0:0:0:
109,192,6892,1,0,0:0:0:70:LR3_HiHat Normal.wav
402,192,6892,1,0,0:0:0:70:LR_Kick Beat 2.wav
36,192,6892,1,0,0:0:0:0:
402,192,7000,1,0,0:0:0:0:
329,192,7107,1,0,0:0:0:0:
36,192,7107,1,0,0:0:0:0:
36,192,7214,1,0,0:0:0:0:
475,192,7321,1,0,0:0:0:70:LR3_HiHat Normal.wav
256,192,7321,1,0,0:0:0:70:LR2_KickBassD.wav
182,192,7321,1,0,0:0:0:0:
182,192,7535,1,0,0:0:0:0:
182,192,7642,1,0,0:0:0:0:
475,192,7750,1,0,0:0:0:70:LR3_HiHat Normal.wav
256,192,7750,1,0,0:0:0:70:LR_Kick Beat 2.wav
109,192,7750,1,0,0:0:0:0:
475,192,7857,1,0,0:0:0:0:
402,192,7964,1,0,0:0:0:0:
182,192,7964,1,0,0:0:0:0:
182,192,8071,1,0,0:0:0:0:
329,192,8178,1,0,0:0:0:70:LR3_HiHat Normal.wav
109,192,8178,1,0,0:0:0:70:LR2_KickBassD.wav
36,192,8178,1,0,0:0:0:0:
329,192,8392,1,0,0:0:0:0:
475,192,8500,1,0,0:0:0:0:
256,192,8607,1,0,0:0:0:70:LR_Clap DS.wav
182,192,8607,1,0,0:0:0:70:LR3_HiHat Normal.wav
36,192,8607,1,0,0:0:0:70:LR_Kick Beat 2.wav
402,192,8714,1,0,0:0:0:0:
402,192,8821,1,0,0:0:0:0:
109,192,8821,1,0,0:0:0:0:
402,192,8928,1,0,0:0:0:0:
182,192,9035,1,0,0:0:0:70:LR3_HiHat Normal.wav
329,192,9035,1,0,0:0:0:70:LR2_KickBassD.wav
109,192,9035,1,0,0:0:0:0:
329,192,9250,1,0,0:0:0:0:
36,192,9250,1,0,0:0:0:0:
329,192,9357,1,0,0:0:0:0:
475,192,9464,1,0,0:0:0:70:LR3_HiHat Normal.wav
256,192,9464,1,0,0:0:0:70:LR_Kick Beat 2.wav
109,192,9464,1,0,0:0:0:0:
182,192,9571,1,0,0:0:0:0:
182,192,9678,1,0,0:0:0:0:
402,192,9678,1,0,0:0:0:0:
182,192,9785,1,0,0:0:0:0:
329,192,9892,1,0,0:0:0:70:LR3_HiHat Normal.wav
256,192,9892,1,0,0:0:0:70:LR2_KickBassD.wav
36,192,9892,1,0,0:0:0:0:
256,192,10107,1,0,0:0:0:0:
402,192,10214,1,0,0:0:0:0:
182,192,10321,1,0,0:0:0:70:LR3_HiHat Normal.wav
36,192,10321,1,0,0:0:0:70:LR_Kick Beat 2.wav
329,192,10321,1,0,0:0:0:0:
402,192,10428,1,0,0:0:0:0:
402,192,10535,1,0,0:0:0:0:
256,192,10535,1,0,0:0:0:0:
402,192,10642,1,0,0:0:0:0:
182,192,10750,1,0,0:0:0:70:LR3_HiHat Normal.wav
109,192,10750,1,0,0:0:0:70:LR2_KickBassD.wav
475,192,10750,1,0,0:0:0:0:
329,192,10964,1,0,0:0:0:0:
182,192,10964,1,0,0:0:0:0:
329,192,11071,1,0,0:0:0:0:
256,192,11178,1,0,0:0:0:70:LR3_HiHat Normal.wav
475,192,11178,1,0,0:0:0:70:LR_Kick Beat 2.wav
36,192,11178,1,0,0:0:0:0:
109,192,11285,1,0,0:0:0:0:
109,192,11392,1,0,0:0:0:0:
329,192,11392,1,0,0:0:0:0:
109,192,11500,1,0,0:0:0:0:
182,192,11607,1,0,0:0:0:70:LR3_HiHat Normal.wav
329,192,11607,1,0,0:0:0:70:LR2_KickBassD.wav
402,192,11607,1,0,0:0:0:0:
109,192,11821,1,0,0:0:0:0:
329,192,11928,1,0,0:0:0:0:
182,192,12035,1,0,0:0:0:70:LR3_HiHat Normal.wav
36,192,12035,1,0,0:0:0:70:LR_Kick Beat 2.wav
402,192,12035,1,0,0:0:0:0:
475,192,12142,1,0,0:0:0:0:
475,192,12250,1,0,0:0:0:0:
256,192,12250,1,0,0:0:0:0:
475,192,12357,1,0,0:0:0:0:
329,192,12464,1,0,0:0:0:70:LR3_HiHat Normal.wav
256,192,12464,1,0,0:0:0:70:LR2_KickBassD.wav
109,192,12464,1,0,0:0:0:0:
109,192,12678,1,0,0:0:0:0:
402,192,12678,1,0,0:0:0:0:
109,192,12785,1,0,0:0:0:0:
329,192,12892,1,0,0:0:0:70:LR3_HiHat Normal.wav
182,192,12892,1,0,0:0:0:70:LR_Kick Beat 2.wav
475,192,12892,1,0,0:0:0:0:
36,192,13000,1,0,0:0:0:0:
36,192,13107,1,0,0:0:0:0:
329,192,13107,1,0,0:0:0:0:
36,192,13214,1,0,0:0:0:0:
402,192,13321,1,0,0:0:0:70:LR3_HiHat Normal.wav
329,192,13321,1,0,0:0:0:70:LR2_KickBassD.wav
182,192,13321,1,0,0:0:0:0:
182,192,13535,1,0,0:0:0:0:
329,192,13642,1,0,0:0:0:0:
182,192,13750,1,0,0:0:0:70:LR_Snare Fast.wav
109,192,13750,1,0,0:0:0:0:
475,192,13750,1,0,0:0:0:0:
475,192,13857,1,0,0:0:0:70:LR_Snare Fast.wav
256,192,13857,1,0,0:0:0:0:
36,192,13964,1,0,0:0:0:70:LR_Snare Fast.wav
402,192,13964,1,0,0:0:0:0:
36,192,14071,1,0,0:0:0:70:LR_Snare Fast.wav
329,192,14071,1,0,0:0:0:0:
182,192,14178,1,0,0:0:0:70:LR_Snare Fast.wav
475,192,14178,1,0,0:0:0:0:
256,192,14232,1,0,0:0:0:70:LR_Snare Fast.wav
329,192,14285,1,0,0:0:0:70:LR_Snare Fast.wav
36,192,14339,1,0,0:0:0:70:LR_Snare Fast.wav
182,192,14392,1,0,0:0:0:70:LR_Snare Fast.wav
475,192,14419,1,0,0:0:0:0:
402,192,14446,1,0,0:0:0:70:LR_Snare Fast.wav
329,192,14473,1,0,0:0:0:0:
36,192,14500,1,0,0:0:0:70:LR_Snare Fast.wav
109,192,14526,1,0,0:0:0:0:
182,192,14553,1,0,0:0:0:70:LR_Snare Fast.wav
256,192,14580,1,0,0:0:0:0:
329,192,14607,1,0,0:0:0:70:LR_Snare Fast.wav
402,192,14607,1,0,0:0:0:0:
475,192,14607,1,0,0:0:0:0:
402,192,14928,1,0,0:0:0:70:LR_Snare Fast.wav
256,192,14928,1,0,0:0:0:0:
109,192,14928,1,0,0:0:0:0:
182,192,15250,1,0,0:0:0:70:LR_Snare Fast.wav
109,192,15250,1,0,0:0:0:0:
36,192,15250,1,0,0:0:0:0:
182,192,15464,1,0,0:0:0:70:LR_Kick Beat 2.wav
36,192,15464,1,0,0:0:0:0:
475,192,15464,128,0,15785:0:0:0:0:
402,192,15464,128,0,15678:0:0:0:0:
329,192,15678,128,0,16000:0:0:0:0:
402,192,15785,128,0,16000:0:0:0:0:
182,192,15785,128,0,16000:0:0:0:0:
475,192,15892,128,0,16000:0:0:0:70:LR2_KickBassD.wav
256,192,15892,128,0,16000:0:0:0:0:
36,192,15892,128,0,16000:0:0:0:0:
182,192,16107,1,0,0:0:0:0:
182,192,16214,1,0,0:0:0:0:
475,192,16321,128,0,16428:0:0:0:70:LR_Kick Beat 2.wav
329,192,16321,128,0,16535:0:0:0:0:
36,192,16321,1,0,0:0:0:0:
475,192,16535,128,0,16750:0:0:0:0:
182,192,16535,128,0,16964:0:0:0:0:
329,192,16750,128,0,16857:0:0:0:70:LR2_KickBassD.wav
109,192,16750,128,0,16964:0:0:0:0:
36,192,16750,1,0,0:0:0:0:
329,192,16964,128,0,17071:0:0:0:0:
475,192,17071,128,0,17178:0:0:0:0:
109,192,17178,128,0,17392:0:0:0:70:LR_Kick Beat 2.wav
182,192,17178,128,0,17500:0:0:0:0:
329,192,17178,1,0,0:0:0:0:
36,192,17392,128,0,17714:0:0:0:0:
109,192,17500,128,0,17714:0:0:0:0:
402,192,17500,128,0,17714:0:0:0:0:
182,192,17607,128,0,17714:0:0:0:70:LR2_KickBassD.wav
256,192,17607,128,0,17714:0:0:0:0:
475,192,17607,128,0,17714:0:0:0:0:
402,192,17821,1,0,0:0:0:0:
402,192,17928,1,0,0:0:0:0:
329,192,18035,128,0,18250:0:0:0:70:LR_Kick Beat 2.wav
182,192,18035,128,0,18250:0:0:0:0:
109,192,18035,1,0,0:0:0:0:
475,192,18250,128,0,18464:0:0:0:0:
329,192,18464,128,0,18678:0:0:0:70:LR2_KickBassD.wav
182,192,18464,128,0,18678:0:0:0:0:
256,192,18464,1,0,0:0:0:0:
475,192,18571,128,0,18785:0:0:0:0:
402,192,18678,128,0,18892:0:0:0:0:
36,192,18678,128,0,18785:0:0:0:0:
329,192,18785,128,0,18892:0:0:0:0:
182,192,18785,128,0,18892:0:0:0:0:
256,192,18892,128,0,19107:0:0:0:70:LR_Kick Beat 2.wav
475,192,18892,128,0,19214:0:0:0:0:
36,192,18892,1,0,0:0:0:0:
182,192,19107,128,0,19428:0:0:0:0:
329,192,19214,128,0,19428:0:0:0:0:
109,192,19214,128,0,19428:0:0:0:0:
475,192,19321,128,0,19428:0:0:0:70:LR2_KickBassD.wav
402,192,19321,128,0,19428:0:0:0:0:
36,192,19321,128,0,19428:0:0:0:0:
182,192,19535,1,0,0:0:0:0:
182,192,19642,1,0,0:0:0:0:
329,192,19750,128,0,19964:0:0:0:70:LR_Kick Beat 2.wav
36,192,19750,128,0,19964:0:0:0:0:
402,192,19750,1,0,0:0:0:0:
182,192,19964,128,0,20178:0:0:0:0:
329,192,20178,1,0,0:0:0:70:LR2_KickBassD.wav
402,192,20178,1,0,0:0:0:0:
36,192,20178,1,0,0:0:0:0:
182,192,20285,128,0,20500:0:0:0:0:
256,192,20392,128,0,20607:0:0:0:0:
109,192,20392,128,0,20500:0:0:0:0:
329,192,20500,128,0,20607:0:0:0:0:
402,192,20500,128,0,20607:0:0:0:0:
182,192,20607,128,0,20928:0:0:0:70:LR_Kick Beat 2.wav
475,192,20607,1,0,0:0:0:0:
36,192,20607,128,0,20928:0:0:0:0:
329,192,20821,1,0,0:0:0:0:
402,192,20928,128,0,21250:0:0:0:0:
475,192,20928,128,0,21250:0:0:0:0:
329,192,21035,128,0,21250:0:0:0:70:LR2_KickBassD.wav
182,192,21035,128,0,21357:0:0:0:0:
36,192,21250,128,0,21464:0:0:0:0:
109,192,21357,128,0,21571:0:0:0:0:
182,192,21464,128,0,21892:0:0:0:70:LR_Kick Beat 2.wav
329,192,21464,1,0,0:0:0:0:
475,192,21464,128,0,21892:0:0:0:0:
36,192,21571,128,0,21892:0:0:0:0:
109,192,21892,1,0,0:0:0:100:LR_Snare Fast.wav
402,192,21892,1,0,0:0:0:0:
256,192,21892,1,0,0:0:0:0:
329,192,22000,1,0,0:0:0:0:
109,192,22107,1,0,0:0:0:100:LR_Snare Fast.wav
256,192,22107,1,0,0:0:0:0:
402,192,22107,1,0,0:0:0:0:
475,192,22214,1,0,0:0:0:0:
182,192,22321,1,0,0:0:0:70:LR_Kick Beat 2.wav
109,192,22321,1,0,0:0:0:0:
329,192,22321,128,0,22642:0:0:0:0:
36,192,22321,128,0,22642:0:0:0:0:
256,192,22535,128,0,22642:0:0:0:0:
402,192,22642,128,0,22857:0:0:0:0:
475,192,22642,128,0,22857:0:0:0:0:
329,192,22750,128,0,22857:0:0:0:70:LR_Clap Fast Low.wav
182,192,22750,128,0,22857:0:0:0:0:
36,192,22750,128,0,22857:0:0:0:0:
329,192,22964,1,0,0:0:0:100:LR_HiHat Click.wav
182,192,22964,1,0,0:0:0:0:
329,192,23071,1,0,0:0:0:0:
36,192,23178,128,0,23392:0:0:0:70:LR_Kick Beat 2.wav
475,192,23178,128,0,23392:0:0:0:0:
109,192,23178,1,0,0:0:0:0:
256,192,23392,128,0,23821:0:0:0:100:LR_HiHat Click.wav
402,192,23392,128,0,23500:0:0:0:0:
109,192,23607,128,0,23821:0:0:0:70:LR_Clap Fast Low.wav
402,192,23607,128,0,23821:0:0:0:0:
36,192,23607,128,0,23821:0:0:0:0:
329,192,23821,128,0,23928:0:0:0:0:
182,192,23821,128,0,23928:0:0:0:0:
402,192,23928,128,0,24035:0:0:0:0:
36,192,23928,128,0,24035:0:0:0:0:
182,192,24035,128,0,24357:0:0:0:70:LR_Kick Beat 2.wav
475,192,24035,128,0,24357:0:0:0:0:
109,192,24250,128,0,24357:0:0:0:0:
402,192,24357,128,0,24571:0:0:0:0:
329,192,24357,128,0,24571:0:0:0:0:
475,192,24464,128,0,24571:0:0:0:70:LR_Clap Fast Low.wav
182,192,24464,128,0,24571:0:0:0:0:
109,192,24464,128,0,24571:0:0:0:0:
182,192,24678,1,0,0:0:0:100:LR_HiHat Click.wav
329,192,24678,1,0,0:0:0:0:
182,192,24785,1,0,0:0:0:0:
256,192,24892,128,0,25000:0:0:0:70:LR_Kick Beat 2.wav
36,192,24892,1,0,0:0:0:0:
475,192,24892,128,0,25000:0:0:0:0:
256,192,25107,128,0,25321:0:0:0:100:LR_HiHat Click.wav
36,192,25107,128,0,25214:0:0:0:0:
182,192,25321,128,0,25535:0:0:0:70:LR_Clap Fast Low.wav
475,192,25321,1,0,0:0:0:0:
402,192,25321,128,0,25535:0:0:0:0:
36,192,25428,128,0,25750:0:0:0:0:
109,192,25535,128,0,25750:0:0:0:0:
329,192,25535,128,0,25642:0:0:0:0:
182,192,25642,128,0,25750:0:0:0:0:
402,192,25642,128,0,25750:0:0:0:0:
329,192,25750,128,0,26071:0:0:0:70:LR_Kick Beat 2.wav
256,192,25750,128,0,26071:0:0:0:0:
475,192,25750,1,0,0:0:0:0:
475,192,25964,128,0,26071:0:0:0:0:
36,192,26071,128,0,26285:0:0:0:0:
182,192,26071,128,0,26285:0:0:0:0:
256,192,26178,128,0,26285:0:0:0:70:LR_Clap Fast Low.wav
329,192,26178,128,0,26285:0:0:0:0:
475,192,26178,128,0,26285:0:0:0:0:
182,192,26392,1,0,0:0:0:100:LR_HiHat Click.wav
329,192,26392,1,0,0:0:0:0:
182,192,26500,1,0,0:0:0:0:
402,192,26607,128,0,26714:0:0:0:70:LR_Kick Beat 2.wav
109,192,26607,128,0,26714:0:0:0:0:
256,192,26607,1,0,0:0:0:0:
402,192,26821,128,0,27035:0:0:0:100:LR_HiHat Click.wav
36,192,26821,128,0,27035:0:0:0:0:
182,192,27035,1,0,0:0:0:70:LR_Clap Fast Low.wav
256,192,27035,1,0,0:0:0:0:
475,192,27035,128,0,27250:0:0:0:0:
36,192,27142,128,0,27464:0:0:0:0:
256,192,27250,128,0,27464:0:0:0:0:
475,192,27357,128,0,27464:0:0:0:0:
329,192,27464,128,0,27625:0:0:0:0:
182,192,27625,128,0,27785:0:0:0:0:
329,192,27785,128,0,27892:0:0:0:0:
182,192,27892,1,0,0:0:0:0:
329,192,27973,1,0,0:0:0:0:
182,192,28053,1,0,0:0:0:0:
329,192,28133,1,0,0:0:0:0:
182,192,28214,1,0,0:0:0:0:
402,192,28321,1,0,0:0:0:0:
182,192,28375,1,0,0:0:0:0:
329,192,28428,1,0,0:0:0:0:
182,192,28482,1,0,0:0:0:0:
475,192,28535,1,0,0:0:0:0:
329,192,28589,1,0,0:0:0:0:
182,192,28642,1,0,0:0:0:0:
36,192,28696,1,0,0:0:0:0:
329,192,28857,128,0,28964:0:0:0:0:
475,192,28964,128,0,29071:0:0:0:0:
329,192,29071,128,0,29178:0:0:0:0:
182,192,29178,128,0,29392:0:0:0:70:LR_Snare Fast.wav
256,192,29178,128,0,29392:0:0:0:70:LR_Clap DS.wav
36,192,29178,128,0,29392:0:0:0:0:
475,192,29178,128,0,29392:0:0:0:0:
329,192,29392,1,0,0:0:0:0:
475,192,29607,128,0,29821:0:0:0:70:LR_Clap DS.wav
36,192,29607,128,0,29821:0:0:0:70:LR_Snare Fast.wav
109,192,29607,128,0,29821:0:0:0:0:
256,192,29607,128,0,29821:0:0:0:0:
329,192,29821,1,0,0:0:0:0:
182,192,29821,1,0,0:0:0:0:
402,192,30035,128,0,30250:0:0:0:70:LR_Snare Fast.wav
182,192,30035,128,0,30250:0:0:0:70:LR_Clap DS.wav
36,192,30035,128,0,30250:0:0:0:0:
256,192,30035,128,0,30142:0:0:0:0:
256,192,30250,128,0,30357:0:0:0:0:
329,192,30250,128,0,30357:0:0:0:0:
182,192,30357,128,0,30464:0:0:0:0:
36,192,30357,128,0,30464:0:0:0:0:
329,192,30464,1,0,0:0:0:70:LR_Snare Fast.wav
256,192,30464,1,0,0:0:0:70:LR_Clap DS.wav
402,192,30464,1,0,0:0:0:0:
475,192,30464,1,0,0:0:0:0:
182,192,30571,128,0,30678:0:0:0:0:
109,192,30571,128,0,30678:0:0:0:0:
329,192,30678,128,0,30785:0:0:0:0:
402,192,30678,128,0,30785:0:0:0:0:
109,192,30785,128,0,30892:0:0:0:0:
36,192,30785,128,0,30892:0:0:0:0:
256,192,30892,128,0,31107:0:0:0:70:LR_Clap DS.wav
182,192,30892,128,0,31107:0:0:0:70:LR_Snare Fast.wav
475,192,30892,128,0,31107:0:0:0:0:
329,192,30892,128,0,31107:0:0:0:0:
36,192,31107,1,0,0:0:0:0:
182,192,31321,128,0,31535:0:0:0:70:LR_Clap DS.wav
109,192,31321,128,0,31535:0:0:0:70:LR_Snare Fast.wav
256,192,31321,128,0,31535:0:0:0:0:
475,192,31321,128,0,31535:0:0:0:0:
36,192,31535,1,0,0:0:0:0:
402,192,31535,1,0,0:0:0:0:
256,192,31750,128,0,31857:0:0:0:70:LR_Snare Fast.wav
36,192,31750,128,0,31964:0:0:0:70:LR_Clap DS.wav
329,192,31750,128,0,31964:0:0:0:0:
475,192,31750,128,0,31964:0:0:0:0:
256,192,31964,128,0,32071:0:0:0:0:
109,192,31964,128,0,32071:0:0:0:0:
329,192,32071,128,0,32178:0:0:0:0:
475,192,32071,128,0,32178:0:0:0:0:
256,192,32178,1,0,0:0:0:70:LR_Clap DS.wav
182,192,32178,128,0,32285:0:0:0:70:LR_Snare Fast.wav
109,192,32178,128,0,32285:0:0:0:0:
36,192,32178,1,0,0:0:0:0:
475,192,32285,128,0,32392:0:0:0:0:
329,192,32285,128,0,32392:0:0:0:0:
36,192,32392,128,0,32500:0:0:0:0:
182,192,32392,128,0,32500:0:0:0:0:
256,192,32500,128,0,32607:0:0:0:0:
402,192,32500,128,0,32607:0:0:0:0:
475,192,32607,128,0,32821:0:0:0:70:LR_Snare Fast.wav
182,192,32607,128,0,32821:0:0:0:70:LR_Clap DS.wav
109,192,32607,128,0,32821:0:0:0:0:
36,192,32607,128,0,32821:0:0:0:0:
329,192,32821,1,0,0:0:0:0:
402,192,33035,128,0,33250:0:0:0:70:LR_Clap DS.wav
475,192,33035,128,0,33250:0:0:0:70:LR_Snare Fast.wav
182,192,33035,128,0,33250:0:0:0:0:
36,192,33035,128,0,33250:0:0:0:0:
329,192,33250,128,0,33357:0:0:0:0:
109,192,33250,128,0,33357:0:0:0:0:
109,192,33464,128,0,33678:0:0:0:70:LR_Snare Fast.wav
36,192,33464,128,0,33678:0:0:0:70:LR_Clap DS.wav
329,192,33464,128,0,33678:0:0:0:0:
475,192,33464,128,0,33678:0:0:0:0:
182,192,33678,128,0,33892:0:0:0:0:
402,192,33678,128,0,33785:0:0:0:0:
109,192,33785,128,0,33892:0:0:0:0:
36,192,33785,128,0,33892:0:0:0:0:
329,192,33892,128,0,34000:0:0:0:70:LR_Clap DS.wav
256,192,33892,128,0,34000:0:0:0:70:LR_Snare Fast.wav
402,192,33892,128,0,34107:0:0:0:0:
475,192,33892,128,0,34107:0:0:0:0:
109,192,34000,128,0,34107:0:0:0:0:
182,192,34000,128,0,34214:0:0:0:0:
256,192,34107,128,0,34214:0:0:0:0:
329,192,34107,128,0,34321:0:0:0:0:
36,192,34214,128,0,34321:0:0:0:0:
109,192,34214,128,0,34321:0:0:0:0:
475,192,34321,128,0,34535:0:0:0:70:LR_Snare Fast.wav
256,192,34321,128,0,34535:0:0:0:70:LR_Clap DS.wav
182,192,34321,128,0,34535:0:0:0:0:
402,192,34321,128,0,34535:0:0:0:0:
36,192,34535,1,0,0:0:0:0:
329,192,34750,128,0,34857:0:0:0:70:LR_Clap DS.wav
256,192,34750,128,0,34964:0:0:0:70:LR_Snare Fast.wav
109,192,34750,128,0,34964:0:0:0:0:
475,192,34750,128,0,34964:0:0:0:0:
36,192,34964,128,0,35071:0:0:0:0:
329,192,34964,128,0,35071:0:0:0:0:
475,192,35178,128,0,35392:0:0:0:70:LR_Snare Fast.wav
36,192,35178,128,0,35392:0:0:0:70:LR_Clap DS.wav
109,192,35178,128,0,35392:0:0:0:0:
329,192,35178,128,0,35392:0:0:0:0:
182,192,35392,128,0,35500:0:0:0:0:
402,192,35392,128,0,35607:0:0:0:0:
109,192,35500,128,0,35607:0:0:0:0:
329,192,35500,128,0,35607:0:0:0:0:
475,192,35607,128,0,35714:0:0:0:70:LR_Clap DS.wav
256,192,35607,128,0,35821:0:0:0:70:LR_Snare Fast.wav
182,192,35607,128,0,35821:0:0:0:0:
36,192,35607,128,0,35714:0:0:0:0:
329,192,35714,128,0,35821:0:0:0:0:
402,192,35714,128,0,35928:0:0:0:0:
109,192,35821,128,0,35928:0:0:0:0:
36,192,35821,128,0,35928:0:0:0:0:
256,192,35928,128,0,36035:0:0:0:0:
329,192,35928,128,0,36035:0:0:0:0:
475,192,36035,1,0,0:0:0:70:LR_Clap DS.wav
109,192,36035,1,0,0:0:0:70:LR_Snare Fast.wav
36,192,36035,1,0,0:0:0:0:
182,192,36035,128,0,36250:0:0:0:0:
402,192,36250,1,0,0:0:0:0:
256,192,36464,128,0,36571:0:0:0:70:LR_Clap DS.wav
109,192,36464,128,0,36678:0:0:0:70:LR_Snare Fast.wav
329,192,36464,128,0,36678:0:0:0:0:
475,192,36464,128,0,36678:0:0:0:0:
402,192,36678,128,0,36785:0:0:0:0:
36,192,36678,128,0,36785:0:0:0:0:
182,192,36892,128,0,37107:0:0:0:70:LR_Snare Fast.wav
36,192,36892,128,0,37107:0:0:0:70:LR_Clap DS.wav
329,192,36892,128,0,37107:0:0:0:0:
402,192,36892,128,0,37107:0:0:0:0:
256,192,37107,128,0,37321:0:0:0:0:
109,192,37107,128,0,37214:0:0:0:0:
475,192,37214,128,0,37321:0:0:0:0:
402,192,37214,128,0,37321:0:0:0:0:
329,192,37321,128,0,37428:0:0:0:70:LR_Clap DS.wav
182,192,37321,128,0,37428:0:0:0:70:LR_Snare Fast.wav
109,192,37321,128,0,37535:0:0:0:0:
36,192,37321,128,0,37535:0:0:0:0:
402,192,37428,128,0,37535:0:0:0:0:
475,192,37428,128,0,37642:0:0:0:0:
256,192,37535,128,0,37750:0:0:0:0:
182,192,37535,128,0,37642:0:0:0:0:
402,192,37642,128,0,37750:0:0:0:0:
329,192,37642,128,0,37750:0:0:0:0:
36,192,37750,128,0,38928:0:0:0:70:LR_Snare Fast.wav
475,192,37750,128,0,37964:0:0:0:70:LR_Clap DS.wav
109,192,37750,128,0,37964:0:0:0:0:
182,192,37750,128,0,37964:0:0:0:0:
256,192,37964,1,0,0:0:0:0:
402,192,38178,128,0,38392:0:0:0:70:LR_Clap DS.wav
256,192,38178,128,0,38392:0:0:0:70:LR_Snare Fast.wav
109,192,38178,128,0,38392:0:0:0:0:
475,192,38178,128,0,38392:0:0:0:0:
182,192,38392,128,0,38607:0:0:0:0:
329,192,38392,128,0,38500:0:0:0:0:
475,192,38607,128,0,38821:0:0:0:70:LR_Snare Fast.wav
402,192,38607,128,0,38821:0:0:0:70:LR_Clap DS.wav
329,192,38607,128,0,38821:0:0:0:0:
256,192,38607,128,0,38821:0:0:0:0:
182,192,38821,1,0,0:0:0:0:
109,192,38928,128,0,39250:0:0:0:0:
329,192,38928,128,0,39250:0:0:0:0:
256,192,39035,1,0,0:0:0:70:LR_Clap DS.wav
36,192,39035,1,0,0:0:0:70:LR_Snare Fast.wav
402,192,39035,1,0,0:0:0:0:
402,192,39250,128,0,39464:0:0:0:0:
182,192,39250,128,0,39464:0:0:0:0:
329,192,39464,128,0,39571:0:0:0:70:LR_Snare Fast.wav
36,192,39464,1,0,0:0:0:0:
182,192,39571,128,0,39678:0:0:0:70:LR_Snare Fast.wav
475,192,39571,1,0,0:0:0:0:
329,192,39678,1,0,0:0:0:70:LR_Snare Fast.wav
36,192,39678,128,0,39785:0:0:0:0:
182,192,39785,1,0,0:0:0:70:LR_Snare Fast.wav
402,192,39785,128,0,39892:0:0:0:0:
36,192,39892,1,0,0:0:0:70:LR_Snare Fast.wav
256,192,39892,128,0,40000:0:0:0:0:
402,192,40000,1,0,0:0:0:70:LR_Snare Fast.wav
109,192,40000,128,0,40107:0:0:0:0:
256,192,40107,1,0,0:0:0:70:LR_Snare Fast.wav
475,192,40107,128,0,40214:0:0:0:0:
109,192,40214,1,0,0:0:0:70:LR_Snare Fast.wav
329,192,40214,128,0,40321:0:0:0:0:
36,192,40321,128,0,40428:0:0:0:70:LR_Snare Fast.wav
475,192,40321,1,0,0:0:0:0:
329,192,40428,1,0,0:0:0:70:LR_Snare Fast.wav
182,192,40428,128,0,40535:0:0:0:0:
475,192,40535,1,0,0:0:0:70:LR_Snare Fast.wav
36,192,40535,128,0,40642:0:0:0:0:
329,192,40642,1,0,0:0:0:70:LR_Snare Fast.wav
182,192,40642,128,0,40750:0:0:0:0:
475,192,40750,128,0,40857:0:0:0:70:LR_Snare Fast.wav
36,192,40750,1,0,0:0:0:0:
182,192,40857,1,0,0:0:0:70:LR_Snare Fast.wav
329,192,40857,128,0,40964:0:0:0:0:
36,192,40964,1,0,0:0:0:70:LR_Snare Fast.wav
402,192,40964,128,0,41071:0:0:0:0:
109,192,41071,1,0,0:0:0:70:LR_Snare Fast.wav
256,192,41071,128,0,41178:0:0:0:0:
475,192,41178,1,0,0:0:0:70:LR_Snare Fast.wav
36,192,41178,1,0,0:0:0:0:
182,192,41178,1,0,0:0:0:0:
402,192,41232,1,0,0:0:0:70:LR_Snare Fast.wav
329,192,41285,1,0,0:0:0:70:LR_Snare Fast.wav
109,192,41339,1,0,0:0:0:70:LR_Snare Fast.wav
182,192,41392,1,0,0:0:0:70:LR_Snare Fast.wav
402,192,41392,1,0,0:0:0:0:
329,192,41446,1,0,0:0:0:70:LR_Snare Fast.wav
256,192,41500,1,0,0:0:0:70:LR_Snare Fast.wav
36,192,41553,1,0,0:0:0:70:LR_Snare Fast.wav
109,192,41607,1,0,0:0:0:70:LR_Snare Fast.wav
475,192,41607,1,0,0:0:0:0:
329,192,41660,1,0,0:0:0:70:LR_Snare Fast.wav
256,192,41714,1,0,0:0:0:70:LR_Snare Fast.wav
36,192,41767,1,0,0:0:0:70:LR_Snare Fast.wav
109,192,41821,1,0,0:0:0:70:LR_Snare Fast.wav
182,192,41821,1,0,0:0:0:0:
475,192,41875,1,0,0:0:0:70:LR_Snare Fast.wav
402,192,41928,1,0,0:0:0:70:LR_Snare Fast.wav
329,192,41982,1,0,0:0:0:70:LR_Snare Fast.wav
109,192,42035,1,0,0:0:0:70:LR_Snare Fast.wav
36,192,42035,1,0,0:0:0:0:
182,192,42062,1,0,0:0:0:0:
256,192,42089,1,0,0:0:0:70:LR_Snare Fast.wav
475,192,42116,1,0,0:0:0:0:
402,192,42142,1,0,0:0:0:70:LR_Snare Fast.wav
329,192,42169,1,0,0:0:0:0:
36,192,42196,1,0,0:0:0:70:LR_Snare Fast.wav
109,192,42223,1,0,0:0:0:0:
402,192,42250,1,0,0:0:0:70:LR3_HiHat Normal.wav
182,192,42250,1,0,0:0:0:70:LR_Snare Fast.wav
475,192,42250,1,0,0:0:0:0:
475,192,42464,1,0,0:0:0:70:LR_Snare Fast.wav
329,192,42464,1,0,0:0:0:0:
182,192,42464,1,0,0:0:0:0:
109,192,42464,1,0,0:0:0:0:
256,192,42892,1,0,0:0:0:70:LR3_BassDrop.wav
109,192,42892,1,0,0:0:0:0:
36,192,42892,1,0,0:0:0:0:
402,192,42892,1,0,0:0:0:0:
475,192,42892,1,0,0:0:0:0:
256,192,48035,132,0,49750:0:0:0:0:
402,192,49750,5,0,0:0:0:70:LR3_HiHat Normal.wav
109,192,49750,1,0,0:0:0:0:
329,192,49857,5,0,0:0:0:0:
182,192,49964,1,0,0:0:0:70:LR_HiHat Click.wav
36,192,50071,1,0,0:0:0:0:
329,192,50178,128,0,50607:0:0:0:70:LR3_HiHat Normal.wav
475,192,50178,1,0,0:0:0:0:
182,192,50285,1,0,0:0:0:0:
109,192,50392,1,0,0:0:0:70:LR_HiHat Click.wav
36,192,50500,1,0,0:0:0:0:
475,192,50607,128,0,51035:0:0:0:70:LR3_HiHat Normal.wav
182,192,50607,1,0,0:0:0:0:
329,192,50714,1,0,0:0:0:0:
256,192,50821,1,0,0:0:0:70:LR_HiHat Click.wav
109,192,50928,1,0,0:0:0:0:
36,192,51035,128,0,51464:0:0:0:70:LR3_HiHat Normal.wav
329,192,51035,1,0,0:0:0:0:
256,192,51142,1,0,0:0:0:0:
182,192,51250,1,0,0:0:0:70:LR_HiHat Click.wav
109,192,51357,1,0,0:0:0:0:
256,192,51464,128,0,52321:0:0:0:70:LR3_HiHat Normal.wav
475,192,51464,1,0,0:0:0:0:
36,192,51571,1,0,0:0:0:0:
109,192,51678,1,0,0:0:0:70:LR_HiHat Click.wav
182,192,51785,1,0,0:0:0:0:
36,192,51892,1,0,0:0:0:70:LR3_HiHat Normal.wav
402,192,51892,1,0,0:0:0:0:
329,192,52000,1,0,0:0:0:0:
182,192,52107,1,0,0:0:0:70:LR_HiHat Click.wav
109,192,52214,1,0,0:0:0:0:
36,192,52321,1,0,0:0:0:70:LR3_HiHat Normal.wav
475,192,52321,1,0,0:0:0:0:
329,192,52428,1,0,0:0:0:0:
182,192,52535,1,0,0:0:0:70:LR_HiHat Click.wav
36,192,52535,128,0,52750:0:0:0:0:
329,192,52642,1,0,0:0:0:0:
182,192,52750,128,0,52964:0:0:0:70:LR3_HiHat Normal.wav
475,192,52750,1,0,0:0:0:0:
36,192,52857,1,0,0:0:0:0:
475,192,52964,128,0,53714:0:0:0:70:LR_HiHat Click.wav
329,192,52964,1,0,0:0:0:0:
182,192,53071,1,0,0:0:0:0:
36,192,53178,1,0,0:0:0:70:LR3_HiHat Normal.wav
329,192,53178,128,0,53714:0:0:0:0:
109,192,53285,1,0,0:0:0:0:
182,192,53392,1,0,0:0:0:70:LR_HiHat Click.wav
256,192,53500,1,0,0:0:0:0:
36,192,53607,1,0,0:0:0:70:LR3_HiHat Normal.wav
109,192,53607,1,0,0:0:0:0:
402,192,53714,1,0,0:0:0:0:
256,192,53821,1,0,0:0:0:70:LR_HiHat Click.wav
182,192,53928,1,0,0:0:0:0:
36,192,54035,128,0,54250:0:0:0:70:LR3_HiHat Normal.wav
475,192,54035,1,0,0:0:0:0:
329,192,54142,1,0,0:0:0:0:
109,192,54250,128,0,54464:0:0:0:70:LR_HiHat Click.wav
256,192,54250,1,0,0:0:0:0:
329,192,54357,1,0,0:0:0:0:
256,192,54464,128,0,54678:0:0:0:70:LR3_HiHat Normal.wav
475,192,54464,1,0,0:0:0:0:
109,192,54571,1,0,0:0:0:0:
475,192,54678,128,0,55750:0:0:0:70:LR_HiHat Click.wav
329,192,54678,1,0,0:0:0:0:
182,192,54785,1,0,0:0:0:0:
329,192,54892,128,0,55750:0:0:0:70:LR3_HiHat Normal.wav
109,192,54892,1,0,0:0:0:0:
256,192,55000,1,0,0:0:0:0:
182,192,55107,1,0,0:0:0:70:LR_HiHat Click.wav
109,192,55214,1,0,0:0:0:0:
36,192,55321,1,0,0:0:0:70:LR3_HiHat Normal.wav
402,192,55321,1,0,0:0:0:0:
256,192,55428,1,0,0:0:0:0:
182,192,55535,1,0,0:0:0:70:LR_HiHat Click.wav
109,192,55642,1,0,0:0:0:0:
36,192,55750,1,0,0:0:0:70:LR3_HiHat Normal.wav
256,192,55750,128,0,55964:0:0:0:0:
402,192,55857,1,0,0:0:0:0:
329,192,55964,128,0,56178:0:0:0:70:LR_HiHat Click.wav
36,192,55964,1,0,0:0:0:0:
109,192,56071,1,0,0:0:0:0:
402,192,56178,128,0,56392:0:0:0:70:LR3_HiHat Normal.wav
182,192,56178,1,0,0:0:0:0:
256,192,56285,1,0,0:0:0:0:
475,192,56392,128,0,57250:0:0:0:70:LR_HiHat Click.wav
36,192,56392,1,0,0:0:0:0:
182,192,56500,1,0,0:0:0:0:
402,192,56607,1,0,0:0:0:70:LR3_HiHat Normal.wav
109,192,56607,1,0,0:0:0:0:
329,192,56714,1,0,0:0:0:0:
256,192,56821,1,0,0:0:0:70:LR_HiHat Click.wav
182,192,56928,1,0,0:0:0:0:
402,192,57035,1,0,0:0:0:70:LR3_HiHat Normal.wav
109,192,57035,1,0,0:0:0:0:
329,192,57142,1,0,0:0:0:0:
256,192,57250,1,0,0:0:0:70:LR_HiHat Click.wav
182,192,57357,1,0,0:0:0:0:
36,192,57464,128,0,57892:0:0:0:70:LR3_HiHat Normal.wav
109,192,57464,1,0,0:0:0:0:
256,192,57571,1,0,0:0:0:0:
402,192,57678,1,0,0:0:0:70:LR_HiHat Click.wav
475,192,57785,1,0,0:0:0:0:
256,192,57892,128,0,58321:0:0:0:70:LR3_HiHat Normal.wav
109,192,57892,1,0,0:0:0:0:
182,192,58000,1,0,0:0:0:0:
329,192,58107,1,0,0:0:0:70:LR_HiHat Click.wav
109,192,58214,1,0,0:0:0:0:
402,192,58321,128,0,59178:0:0:0:70:LR3_HiHat Normal.wav
329,192,58321,1,0,0:0:0:0:
256,192,58428,1,0,0:0:0:0:
182,192,58535,1,0,0:0:0:70:LR_HiHat Click.wav
109,192,58642,1,0,0:0:0:0:
329,192,58750,1,0,0:0:0:70:LR3_HiHat Normal.wav
36,192,58750,1,0,0:0:0:0:
256,192,58857,1,0,0:0:0:0:
182,192,58964,1,0,0:0:0:70:LR_HiHat Click.wav
109,192,59071,1,0,0:0:0:0:
182,192,59178,128,0,60035:0:0:0:70:LR3_HiHat Normal.wav
329,192,59178,1,0,0:0:0:0:
402,192,59285,1,0,0:0:0:0:
475,192,59392,1,0,0:0:0:70:LR_HiHat Click.wav
256,192,59500,1,0,0:0:0:0:
329,192,59607,1,0,0:0:0:70:LR3_HiHat Normal.wav
36,192,59607,1,0,0:0:0:0:
402,192,59714,1,0,0:0:0:0:
475,192,59821,1,0,0:0:0:70:LR_HiHat Click.wav
256,192,59821,1,0,0:0:0:0:
402,192,59928,1,0,0:0:0:0:
329,192,60035,128,0,60892:0:0:0:70:LR3_HiHat Normal.wav
36,192,60035,1,0,0:0:0:0:
182,192,60142,1,0,0:0:0:0:
36,192,60250,1,0,0:0:0:70:LR_HiHat Click.wav
182,192,60357,1,0,0:0:0:0:
109,192,60464,1,0,0:0:0:70:LR3_HiHat Normal.wav
402,192,60464,1,0,0:0:0:0:
256,192,60571,1,0,0:0:0:0:
109,192,60678,1,0,0:0:0:70:LR_HiHat Click.wav
256,192,60785,1,0,0:0:0:0:
475,192,60892,128,0,61642:0:0:0:70:LR3_HiHat Normal.wav
36,192,60892,1,0,0:0:0:0:
182,192,61000,1,0,0:0:0:0:
329,192,61107,1,0,0:0:0:70:LR_HiHat Click.wav
109,192,61107,1,0,0:0:0:0:
182,192,61214,1,0,0:0:0:0:
36,192,61321,1,0,0:0:0:70:LR3_HiHat Normal.wav
402,192,61321,1,0,0:0:0:0:
256,192,61428,1,0,0:0:0:0:
109,192,61535,1,0,0:0:0:70:LR_HiHat Click.wav
329,192,61535,1,0,0:0:0:0:
256,192,61642,1,0,0:0:0:0:
475,192,61750,128,0,62607:0:0:0:70:LR3_HiHat Normal.wav
36,192,61750,1,0,0:0:0:0:
182,192,61750,1,0,0:0:0:0:
329,192,61857,1,0,0:0:0:0:
182,192,61964,128,0,62071:0:0:0:70:LR_HiHat Click.wav
36,192,61964,1,0,0:0:0:0:
256,192,62071,128,0,62178:0:0:0:0:
109,192,62178,1,0,0:0:0:70:LR3_HiHat Normal.wav
329,192,62178,128,0,62285:0:0:0:0:
256,192,62285,128,0,62392:0:0:0:0:
109,192,62392,128,0,62500:0:0:0:70:LR_HiHat Click.wav
402,192,62392,1,0,0:0:0:0:
182,192,62500,128,0,62607:0:0:0:0:
256,192,62607,128,0,63464:0:0:0:70:LR3_HiHat Normal.wav
329,192,62607,128,0,62714:0:0:0:0:
182,192,62714,128,0,62821:0:0:0:0:
109,192,62821,128,0,62928:0:0:0:70:LR_HiHat Click.wav
402,192,62821,1,0,0:0:0:0:
36,192,62928,128,0,63035:0:0:0:0:
475,192,63035,128,0,63142:0:0:0:70:LR3_HiHat Normal.wav
182,192,63035,1,0,0:0:0:0:
402,192,63142,128,0,63250:0:0:0:0:
329,192,63250,128,0,63357:0:0:0:70:LR_HiHat Click.wav
36,192,63250,1,0,0:0:0:0:
182,192,63357,128,0,63464:0:0:0:0:
109,192,63464,1,0,0:0:0:70:LR3_BassDrop.wav
475,192,63464,1,0,0:0:0:0:
36,192,63464,1,0,0:0:0:0:
402,192,63464,128,0,63785:0:0:0:0:
329,192,63571,128,0,63785:0:0:0:0:
182,192,63678,128,0,63892:0:0:0:0:
109,192,63785,128,0,63892:0:0:0:0:
402,192,63892,128,0,64214:0:0:0:0:
329,192,64000,128,0,64214:0:0:0:0:
182,192,64107,128,0,64321:0:0:0:0:
109,192,64214,128,0,64321:0:0:0:0:
402,192,64321,128,0,64642:0:0:0:0:
329,192,64428,128,0,64642:0:0:0:0:
182,192,64535,128,0,64750:0:0:0:0:
109,192,64642,128,0,64750:0:0:0:0:
475,192,64750,128,0,64964:0:0:0:0:
36,192,64750,128,0,64857:0:0:0:0:
402,192,64857,128,0,64964:0:0:0:0:
182,192,64964,128,0,65178:0:0:0:0:
329,192,64964,128,0,65071:0:0:0:0:
36,192,65071,128,0,65178:0:0:0:0:
109,192,65178,128,0,65285:0:0:0:0:
475,192,65178,128,0,65392:0:0:0:0:
402,192,65285,128,0,65392:0:0:0:0:
182,192,65392,128,0,65607:0:0:0:0:
329,192,65392,128,0,65500:0:0:0:0:
36,192,65500,128,0,65607:0:0:0:0:
109,192,65607,128,0,65714:0:0:0:0:
475,192,65607,128,0,65821:0:0:0:0:
402,192,65714,128,0,65821:0:0:0:0:
329,192,65821,128,0,65928:0:0:0:0:
182,192,65821,128,0,66035:0:0:0:0:
36,192,65928,128,0,66035:0:0:0:0:
109,192,66035,128,0,66142:0:0:0:0:
475,192,66035,128,0,66250:0:0:0:0:
402,192,66142,128,0,66250:0:0:0:0:
329,192,66250,128,0,66357:0:0:0:0:
182,192,66250,128,0,66464:0:0:0:0:
36,192,66357,128,0,66464:0:0:0:0:
109,192,66464,128,0,66571:0:0:0:0:
402,192,66464,128,0,66571:0:0:0:0:
182,192,66571,128,0,66678:0:0:0:0:
329,192,66678,128,0,66785:0:0:0:0:
109,192,66678,128,0,66785:0:0:0:0:
36,192,66785,128,0,66892:0:0:0:0:
402,192,66892,128,0,67000:0:0:0:0:
182,192,66892,128,0,67000:0:0:0:0:
329,192,67000,128,0,67107:0:0:0:0:
402,192,67107,128,0,67214:0:0:0:0:
109,192,67107,128,0,67214:0:0:0:0:
475,192,67214,128,0,67321:0:0:0:0:
329,192,67321,1,0,0:0:0:0:
36,192,67321,1,0,0:0:0:0:
182,192,67428,1,0,0:0:0:0:
402,192,67535,1,0,0:0:0:0:
36,192,67535,1,0,0:0:0:0:
109,192,67642,1,0,0:0:0:0:
475,192,67750,1,0,0:0:0:0:
182,192,67750,1,0,0:0:0:0:
329,192,67857,1,0,0:0:0:0:
475,192,67964,1,0,0:0:0:0:
109,192,67964,1,0,0:0:0:0:
402,192,68071,1,0,0:0:0:0:
36,192,68178,1,0,0:0:0:0:
329,192,68178,128,0,68285:0:0:0:0:
182,192,68285,1,0,0:0:0:0:
329,192,68392,1,0,0:0:0:0:
36,192,68392,128,0,68500:0:0:0:0:
402,192,68500,1,0,0:0:0:0:
475,192,68607,128,0,68714:0:0:0:0:
182,192,68607,1,0,0:0:0:0:
329,192,68714,1,0,0:0:0:0:
182,192,68821,128,0,68928:0:0:0:0:
109,192,68821,1,0,0:0:0:0:
36,192,68928,1,0,0:0:0:0:
475,192,69035,128,0,69142:0:0:0:0:
256,192,69035,1,0,0:0:0:0:
329,192,69142,1,0,0:0:0:0:
182,192,69250,128,0,69357:0:0:0:0:
36,192,69357,1,0,0:0:0:0:
475,192,69464,128,0,69571:0:0:0:0:
329,192,69571,1,0,0:0:0:0:
182,192,69678,128,0,69785:0:0:0:0:
36,192,69785,1,0,0:0:0:0:
402,192,69892,128,0,70000:0:0:0:0:
329,192,70000,1,0,0:0:0:0:
182,192,70107,128,0,70214:0:0:0:0:
36,192,70214,1,0,0:0:0:0:
329,192,70321,1,0,0:0:0:70:LR_Snare Fast.wav
475,192,70321,1,0,0:0:0:70:LR_Clap DS.wav
182,192,70321,1,0,0:0:0:0:
256,192,70321,1,0,0:0:0:0:
402,192,70428,1,0,0:0:0:70:LR_Snare Fast.wav
109,192,70428,1,0,0:0:0:0:
109,192,70535,1,0,0:0:0:70:LR_Snare Fast.wav
256,192,70535,1,0,0:0:0:0:
329,192,70642,1,0,0:0:0:70:LR_Snare Fast.wav
36,192,70642,1,0,0:0:0:0:
109,192,70750,1,0,0:0:0:70:LR_Snare Fast.wav
402,192,70750,1,0,0:0:0:70:LR_Clap DS.wav
256,192,70750,1,0,0:0:0:0:
182,192,70750,1,0,0:0:0:0:
475,192,70857,1,0,0:0:0:70:LR_Snare Fast.wav
36,192,70857,1,0,0:0:0:0:
475,192,70964,1,0,0:0:0:70:LR_Snare Fast.wav
109,192,70964,1,0,0:0:0:0:
329,192,71071,1,0,0:0:0:70:LR_Snare Fast.wav
182,192,71071,1,0,0:0:0:0:
109,192,71178,1,0,0:0:0:70:LR_Snare Fast.wav
36,192,71178,1,0,0:0:0:70:LR_Clap DS.wav
475,192,71178,1,0,0:0:0:0:
402,192,71178,1,0,0:0:0:0:
182,192,71285,1,0,0:0:0:70:LR_Snare Fast.wav
329,192,71285,1,0,0:0:0:0:
182,192,71392,1,0,0:0:0:70:LR_Snare Fast.wav
402,192,71392,1,0,0:0:0:0:
109,192,71500,1,0,0:0:0:70:LR_Snare Fast.wav
329,192,71500,1,0,0:0:0:0:
475,192,71607,1,0,0:0:0:70:LR_Snare Fast.wav
256,192,71607,1,0,0:0:0:70:LR_Clap DS.wav
182,192,71607,1,0,0:0:0:0:
36,192,71607,1,0,0:0:0:0:
402,192,71821,1,0,0:0:0:0:
475,192,72035,1,0,0:0:0:70:LR_Snare Fast.wav
329,192,72035,1,0,0:0:0:70:LR_Clap DS.wav
182,192,72035,1,0,0:0:0:0:
109,192,72035,1,0,0:0:0:0:
36,192,72142,1,0,0:0:0:70:LR_Snare Fast.wav
256,192,72142,1,0,0:0:0:0:
256,192,72250,1,0,0:0:0:70:LR_Snare Fast.wav
36,192,72250,1,0,0:0:0:0:
182,192,72357,1,0,0:0:0:70:LR_Snare Fast.wav
329,192,72357,1,0,0:0:0:0:
475,192,72464,1,0,0:0:0:70:LR_Snare Fast.wav
36,192,72464,1,0,0:0:0:70:LR_Clap DS.wav
109,192,72464,1,0,0:0:0:0:
256,192,72464,1,0,0:0:0:0:
182,192,72571,1,0,0:0:0:70:LR_Snare Fast.wav
402,192,72571,1,0,0:0:0:0:
402,192,72678,1,0,0:0:0:70:LR_Snare Fast.wav
182,192,72678,1,0,0:0:0:0:
256,192,72785,1,0,0:0:0:70:LR_Snare Fast.wav
36,192,72785,1,0,0:0:0:0:
329,192,72892,1,0,0:0:0:70:LR_Snare Fast.wav
475,192,72892,1,0,0:0:0:70:LR_Clap DS.wav
402,192,72892,1,0,0:0:0:0:
109,192,72892,1,0,0:0:0:0:
256,192,73000,1,0,0:0:0:70:LR_Snare Fast.wav
36,192,73000,1,0,0:0:0:0:
36,192,73107,1,0,0:0:0:70:LR_Snare Fast.wav
256,192,73107,1,0,0:0:0:0:
475,192,73214,1,0,0:0:0:70:LR_Snare Fast.wav
329,192,73214,1,0,0:0:0:0:
256,192,73321,1,0,0:0:0:70:LR_Snare Fast.wav
36,192,73321,1,0,0:0:0:70:LR_Clap DS.wav
182,192,73321,1,0,0:0:0:0:
109,192,73321,1,0,0:0:0:0:
329,192,73375,1,0,0:0:0:70:LR_Snare Fast.wav
182,192,73428,1,0,0:0:0:70:LR_Snare Fast.wav
329,192,73482,1,0,0:0:0:70:LR_Snare Fast.wav
402,192,73750,1,0,0:0:0:70:LR_Snare Fast.wav
182,192,73750,1,0,0:0:0:0:
36,192,73750,1,0,0:0:0:0:
475,192,73750,1,0,0:0:0:0:
329,192,73857,1,0,0:0:0:70:LR_Snare Fast.wav
109,192,73857,1,0,0:0:0:0:
109,192,73964,1,0,0:0:0:70:LR_Snare Fast.wav
402,192,73964,1,0,0:0:0:0:
402,192,74071,1,0,0:0:0:70:LR_Snare Fast.wav
256,192,74071,1,0,0:0:0:0:
182,192,74178,1,0,0:0:0:70:LR_Snare Fast.wav
109,192,74178,1,0,0:0:0:0:
36,192,74178,1,0,0:0:0:0:
329,192,74178,1,0,0:0:0:0:
475,192,74285,1,0,0:0:0:70:LR_Snare Fast.wav
256,192,74285,1,0,0:0:0:0:
475,192,74392,1,0,0:0:0:70:LR_Snare Fast.wav
109,192,74392,1,0,0:0:0:0:
329,192,74500,1,0,0:0:0:70:LR_Snare Fast.wav
109,192,74500,1,0,0:0:0:0:
182,192,74607,1,0,0:0:0:70:LR_Snare Fast.wav
402,192,74607,1,0,0:0:0:0:
256,192,74607,1,0,0:0:0:0:
36,192,74607,1,0,0:0:0:0:
109,192,74714,1,0,0:0:0:70:LR_Snare Fast.wav
475,192,74714,1,0,0:0:0:0:
475,192,74821,1,0,0:0:0:70:LR_Snare Fast.wav
182,192,74821,1,0,0:0:0:0:
329,192,74928,1,0,0:0:0:70:LR_Snare Fast.wav
182,192,74928,1,0,0:0:0:0:
109,192,75035,1,0,0:0:0:70:LR_Snare Fast.wav
36,192,75035,1,0,0:0:0:0:
256,192,75035,1,0,0:0:0:0:
475,192,75035,1,0,0:0:0:0:
402,192,75142,1,0,0:0:0:70:LR_Snare Fast.wav
182,192,75142,1,0,0:0:0:0:
402,192,75250,1,0,0:0:0:70:LR_Snare Fast.wav
109,192,75250,1,0,0:0:0:0:
329,192,75357,1,0,0:0:0:70:LR_Snare Fast.wav
109,192,75357,1,0,0:0:0:0:
475,192,75464,1,0,0:0:0:70:LR_Snare Fast.wav
256,192,75464,1,0,0:0:0:0:
182,192,75464,1,0,0:0:0:0:
36,192,75464,1,0,0:0:0:0:
402,192,75517,1,0,0:0:0:70:LR_Snare Fast.wav
329,192,75571,1,0,0:0:0:70:LR_Snare Fast.wav
182,192,75625,1,0,0:0:0:70:LR_Snare Fast.wav
36,192,75678,1,0,0:0:0:70:LR_Snare Fast.wav
402,192,75678,1,0,0:0:0:0:
329,192,75732,1,0,0:0:0:70:LR_Snare Fast.wav
256,192,75785,1,0,0:0:0:70:LR_Snare Fast.wav
182,192,75839,1,0,0:0:0:70:LR_Snare Fast.wav
36,192,75892,128,0,76321:0:0:0:70:LR_Snare Fast.wav
402,192,75892,128,0,76321:0:0:0:0:
109,192,75892,128,0,76321:0:0:0:0:
256,192,76321,1,0,0:0:0:70:LR3_BassDrop.wav
475,192,76321,1,0,0:0:0:0:
182,192,76321,1,0,0:0:0:0:
329,192,76750,1,0,0:0:0:0:
182,192,77178,1,0,0:0:0:70:LR2_KickBassD.wav
109,192,77178,1,0,0:0:0:70:LR_Kick Beat 2.wav
402,192,77178,1,0,0:0:0:0:
36,192,77178,1,0,0:0:0:0:
329,192,77392,1,0,0:0:0:0:
109,192,77392,1,0,0:0:0:0:
329,192,77500,1,0,0:0:0:0:
109,192,77607,1,0,0:0:0:70:LR_Kick Beat 2.wav
36,192,77607,1,0,0:0:0:70:LR2_KickBassD.wav
402,192,77607,1,0,0:0:0:0:
182,192,77821,1,0,0:0:0:0:
329,192,77821,1,0,0:0:0:0:
182,192,77928,1,0,0:0:0:0:
475,192,78035,1,0,0:0:0:70:LR2_KickBassD.wav
256,192,78035,1,0,0:0:0:70:LR_Kick Beat 2.wav
109,192,78035,1,0,0:0:0:0:
329,192,78250,1,0,0:0:0:0:
402,192,78357,1,0,0:0:0:0:
182,192,78357,1,0,0:0:0:0:
182,192,78464,1,0,0:0:0:70:LR_Kick Beat 2.wav
36,192,78464,1,0,0:0:0:70:LR2_KickBassD.wav
402,192,78464,1,0,0:0:0:0:
329,192,78678,1,0,0:0:0:0:
109,192,78678,1,0,0:0:0:0:
329,192,78785,1,0,0:0:0:0:
402,192,78892,1,0,0:0:0:70:LR2_KickBassD.wav
109,192,78892,1,0,0:0:0:70:LR_Kick Beat 2.wav
36,192,78892,1,0,0:0:0:0:
329,192,79107,1,0,0:0:0:0:
182,192,79107,1,0,0:0:0:0:
329,192,79214,1,0,0:0:0:0:
256,192,79321,1,0,0:0:0:70:LR_Kick Beat 2.wav
182,192,79321,1,0,0:0:0:70:LR2_KickBassD.wav
36,192,79321,1,0,0:0:0:0:
402,192,79535,1,0,0:0:0:0:
109,192,79535,1,0,0:0:0:0:
402,192,79642,1,0,0:0:0:0:
256,192,79750,1,0,0:0:0:70:LR_Kick Beat 2.wav
182,192,79750,1,0,0:0:0:70:LR2_KickBassD.wav
36,192,79750,1,0,0:0:0:0:
109,192,79964,1,0,0:0:0:0:
329,192,79964,1,0,0:0:0:0:
109,192,80071,1,0,0:0:0:0:
475,192,80178,1,0,0:0:0:70:LR2_KickBassD.wav
329,192,80178,1,0,0:0:0:70:LR_Kick Beat 2.wav
182,192,80178,1,0,0:0:0:0:
329,192,80285,1,0,0:0:0:0:
36,192,80285,1,0,0:0:0:0:
182,192,80392,1,0,0:0:0:0:
256,192,80500,1,0,0:0:0:0:
402,192,80607,1,0,0:0:0:70:LR_Kick Beat 2.wav
256,192,80607,1,0,0:0:0:70:LR2_KickBassD.wav
109,192,80607,1,0,0:0:0:0:
329,192,80821,1,0,0:0:0:0:
36,192,80821,1,0,0:0:0:0:
329,192,80928,1,0,0:0:0:0:
475,192,81035,1,0,0:0:0:70:LR2_KickBassD.wav
182,192,81035,1,0,0:0:0:70:LR_Kick Beat 2.wav
109,192,81035,1,0,0:0:0:0:
36,192,81250,1,0,0:0:0:0:
475,192,81250,1,0,0:0:0:0:
475,192,81357,1,0,0:0:0:0:
109,192,81464,1,0,0:0:0:70:LR_Kick Beat 2.wav
182,192,81464,1,0,0:0:0:70:LR2_KickBassD.wav
329,192,81464,1,0,0:0:0:0:
402,192,81678,1,0,0:0:0:0:
36,192,81678,1,0,0:0:0:0:
36,192,81785,1,0,0:0:0:0:
402,192,81892,1,0,0:0:0:70:LR2_KickBassD.wav
329,192,81892,1,0,0:0:0:70:LR_Kick Beat 2.wav
182,192,81892,1,0,0:0:0:0:
402,192,82000,1,0,0:0:0:0:
256,192,82107,1,0,0:0:0:0:
109,192,82107,1,0,0:0:0:0:
329,192,82214,1,0,0:0:0:0:
182,192,82321,1,0,0:0:0:70:LR_Kick Beat 2.wav
36,192,82321,1,0,0:0:0:70:LR2_KickBassD.wav
329,192,82321,1,0,0:0:0:0:
109,192,82535,1,0,0:0:0:0:
402,192,82535,1,0,0:0:0:0:
109,192,82642,1,0,0:0:0:0:
329,192,82750,1,0,0:0:0:70:LR2_KickBassD.wav
182,192,82750,1,0,0:0:0:70:LR_Kick Beat 2.wav
402,192,82750,1,0,0:0:0:0:
182,192,82964,1,0,0:0:0:0:
402,192,82964,1,0,0:0:0:0:
182,192,83071,1,0,0:0:0:0:
475,192,83178,1,0,0:0:0:70:LR_Kick Beat 2.wav
402,192,83178,1,0,0:0:0:70:LR2_KickBassD.wav
36,192,83178,1,0,0:0:0:0:
329,192,83392,1,0,0:0:0:0:
182,192,83500,1,0,0:0:0:0:
36,192,83500,1,0,0:0:0:0:
182,192,83607,1,0,0:0:0:100:LR_Snare Fast.wav
475,192,83607,1,0,0:0:0:0:
36,192,83607,1,0,0:0:0:0:
475,192,83714,1,0,0:0:0:0:
182,192,83821,1,0,0:0:0:100:LR_Snare Fast.wav
36,192,83821,1,0,0:0:0:0:
329,192,83821,1,0,0:0:0:0:
329,192,83928,1,0,0:0:0:0:
402,192,84035,128,0,84250:0:0:0:70:LR_Kick Beat 2.wav
475,192,84035,128,0,84250:0:0:0:0:
109,192,84035,128,0,84250:0:0:0:0:
36,192,84035,128,0,84250:0:0:0:0:
256,192,84250,1,0,0:0:0:0:
256,192,84464,128,0,84678:0:0:0:70:LR_Clap Fast Low.wav
36,192,84464,128,0,84678:0:0:0:0:
475,192,84464,128,0,84678:0:0:0:0:
329,192,84464,128,0,84678:0:0:0:0:
182,192,84678,1,0,0:0:0:0:
182,192,84892,128,0,85107:0:0:0:70:LR_Kick Beat 2.wav
109,192,84892,128,0,85107:0:0:0:0:
329,192,84892,128,0,85107:0:0:0:0:
475,192,84892,128,0,85107:0:0:0:0:
256,192,85107,1,0,0:0:0:0:
329,192,85214,128,0,85321:0:0:0:0:
475,192,85214,128,0,85321:0:0:0:0:
182,192,85321,1,0,0:0:0:70:LR_Clap Fast Low.wav
109,192,85321,1,0,0:0:0:0:
36,192,85321,1,0,0:0:0:0:
402,192,85428,1,0,0:0:0:0:
256,192,85428,1,0,0:0:0:0:
329,192,85535,1,0,0:0:0:0:
182,192,85535,1,0,0:0:0:0:
329,192,85642,1,0,0:0:0:0:
182,192,85642,1,0,0:0:0:0:
402,192,85750,128,0,85883:0:0:0:70:LR_Kick Beat 2.wav
475,192,85750,128,0,85883:0:0:0:0:
109,192,85750,128,0,85883:0:0:0:0:
36,192,85750,128,0,85883:0:0:0:0:
109,192,85964,128,0,86098:0:0:0:0:
36,192,85964,128,0,86098:0:0:0:0:
475,192,85964,128,0,86098:0:0:0:0:
402,192,85964,128,0,86098:0:0:0:0:
475,192,86178,128,0,86392:0:0:0:70:LR_Clap Fast Low.wav
402,192,86178,128,0,86392:0:0:0:0:
109,192,86178,128,0,86392:0:0:0:0:
36,192,86178,128,0,86392:0:0:0:0:
256,192,86392,1,0,0:0:0:0:
256,192,86607,128,0,86821:0:0:0:70:LR_Kick Beat 2.wav
109,192,86607,128,0,86821:0:0:0:0:
402,192,86607,128,0,86821:0:0:0:0:
36,192,86607,128,0,86821:0:0:0:0:
329,192,86821,1,0,0:0:0:0:
475,192,86821,1,0,0:0:0:0:
256,192,86928,128,0,87035:0:0:0:0:
109,192,86928,128,0,87035:0:0:0:0:
402,192,87035,1,0,0:0:0:70:LR_Clap Fast Low.wav
329,192,87035,1,0,0:0:0:0:
36,192,87035,1,0,0:0:0:0:
182,192,87142,1,0,0:0:0:0:
109,192,87142,1,0,0:0:0:0:
329,192,87250,1,0,0:0:0:0:
402,192,87250,1,0,0:0:0:0:
402,192,87357,1,0,0:0:0:0:
329,192,87357,1,0,0:0:0:0:
256,192,87464,128,0,87678:0:0:0:70:LR_Kick Beat 2.wav
475,192,87464,128,0,87678:0:0:0:0:
182,192,87464,128,0,87678:0:0:0:0:
36,192,87464,128,0,87678:0:0:0:0:
402,192,87678,1,0,0:0:0:0:
109,192,87892,128,0,88107:0:0:0:70:LR_Clap Fast Low.wav
256,192,87892,128,0,88107:0:0:0:0:
402,192,87892,128,0,88107:0:0:0:0:
36,192,87892,128,0,88107:0:0:0:0:
182,192,88107,1,0,0:0:0:0:
182,192,88321,128,0,88535:0:0:0:70:LR_Kick Beat 2.wav
475,192,88321,128,0,88535:0:0:0:0:
329,192,88321,128,0,88535:0:0:0:0:
36,192,88321,128,0,88535:0:0:0:0:
109,192,88535,1,0,0:0:0:0:
329,192,88642,128,0,88750:0:0:0:0:
36,192,88642,128,0,88750:0:0:0:0:
256,192,88750,1,0,0:0:0:70:LR_Clap Fast Low.wav
475,192,88750,1,0,0:0:0:0:
109,192,88750,1,0,0:0:0:0:
182,192,88857,1,0,0:0:0:0:
402,192,88857,1,0,0:0:0:0:
329,192,88964,1,0,0:0:0:0:
109,192,88964,1,0,0:0:0:0:
329,192,89071,1,0,0:0:0:0:
109,192,89071,1,0,0:0:0:0:
256,192,89178,128,0,89955:0:0:0:70:LR_Kick Beat 2.wav
36,192,89178,128,0,89955:0:0:0:0:
402,192,90035,128,0,90276:0:0:0:0:
329,192,90035,128,0,90276:0:0:0:0:
256,192,90035,128,0,90276:0:0:0:0:
329,192,90357,128,0,90598:0:0:0:0:
256,192,90357,128,0,90598:0:0:0:0:
182,192,90357,128,0,90598:0:0:0:0:
109,192,90678,128,0,90812:0:0:0:0:
182,192,90678,128,0,90812:0:0:0:0:
256,192,90678,128,0,90812:0:0:0:0:
36,192,90892,1,0,0:0:0:70:LR_Kick Beat 2.wav
109,192,90892,128,0,91214:0:0:0:0:
256,192,90892,128,0,91107:0:0:0:0:
402,192,90892,128,0,91107:0:0:0:0:
475,192,91107,128,0,91214:0:0:0:0:
256,192,91214,128,0,91321:0:0:0:0:
329,192,91214,128,0,91321:0:0:0:0:
182,192,91321,128,0,91428:0:0:0:70:LR2_KickBassD.wav
402,192,91321,128,0,91428:0:0:0:0:
36,192,91321,128,0,91428:0:0:0:0:
182,192,91535,128,0,91750:0:0:0:0:
329,192,91535,128,0,91750:0:0:0:0:
475,192,91750,128,0,91964:0:0:0:70:LR_Kick Beat 2.wav
256,192,91750,128,0,91964:0:0:0:0:
36,192,91750,128,0,91857:0:0:0:0:
36,192,91964,128,0,92071:0:0:0:0:
329,192,91964,1,0,0:0:0:0:
329,192,92071,1,0,0:0:0:0:
182,192,92071,128,0,92178:0:0:0:0:
36,192,92178,1,0,0:0:0:70:LR2_KickBassD.wav
475,192,92178,1,0,0:0:0:0:
256,192,92178,1,0,0:0:0:0:
329,192,92285,1,0,0:0:0:0:
109,192,92285,1,0,0:0:0:0:
109,192,92392,1,0,0:0:0:0:
402,192,92392,1,0,0:0:0:0:
402,192,92500,1,0,0:0:0:0:
256,192,92500,1,0,0:0:0:0:
36,192,92607,1,0,0:0:0:70:LR_Kick Beat 2.wav
329,192,92607,128,0,92821:0:0:0:0:
475,192,92607,128,0,92821:0:0:0:0:
109,192,92607,128,0,92928:0:0:0:0:
256,192,92821,128,0,92928:0:0:0:0:
402,192,92928,128,0,93035:0:0:0:0:
475,192,92928,128,0,93035:0:0:0:0:
256,192,93035,128,0,93142:0:0:0:70:LR2_KickBassD.wav
109,192,93035,128,0,93142:0:0:0:0:
36,192,93035,128,0,93142:0:0:0:0:
36,192,93250,128,0,93464:0:0:0:0:
256,192,93250,128,0,93464:0:0:0:0:
109,192,93464,128,0,93571:0:0:0:70:LR_Kick Beat 2.wav
329,192,93464,128,0,93678:0:0:0:0:
475,192,93464,128,0,93678:0:0:0:0:
109,192,93678,1,0,0:0:0:0:
402,192,93678,128,0,93785:0:0:0:0:
256,192,93785,128,0,93892:0:0:0:0:
109,192,93785,1,0,0:0:0:0:
329,192,93892,1,0,0:0:0:70:LR2_KickBassD.wav
402,192,93892,1,0,0:0:0:0:
475,192,93892,1,0,0:0:0:0:
256,192,94000,1,0,0:0:0:0:
36,192,94000,1,0,0:0:0:0:
36,192,94107,1,0,0:0:0:0:
475,192,94107,1,0,0:0:0:0:
475,192,94214,1,0,0:0:0:0:
182,192,94214,1,0,0:0:0:0:
329,192,94321,1,0,0:0:0:70:LR_Kick Beat 2.wav
256,192,94321,128,0,94535:0:0:0:0:
36,192,94321,128,0,94535:0:0:0:0:
402,192,94321,128,0,94642:0:0:0:0:
109,192,94535,128,0,94642:0:0:0:0:
329,192,94642,128,0,94750:0:0:0:0:
256,192,94642,128,0,94750:0:0:0:0:
109,192,94750,128,0,94857:0:0:0:70:LR2_KickBassD.wav
36,192,94750,128,0,94857:0:0:0:0:
475,192,94750,128,0,94857:0:0:0:0:
256,192,94964,128,0,95178:0:0:0:0:
109,192,94964,128,0,95178:0:0:0:0:
329,192,95178,128,0,95392:0:0:0:70:LR_Kick Beat 2.wav
36,192,95178,128,0,95392:0:0:0:0:
475,192,95178,128,0,95285:0:0:0:0:
475,192,95392,1,0,0:0:0:0:
256,192,95392,128,0,95500:0:0:0:0:
36,192,95500,128,0,95607:0:0:0:0:
475,192,95500,1,0,0:0:0:0:
182,192,95607,1,0,0:0:0:70:LR2_KickBassD.wav
329,192,95607,1,0,0:0:0:0:
256,192,95607,1,0,0:0:0:0:
36,192,95714,1,0,0:0:0:0:
475,192,95714,1,0,0:0:0:0:
475,192,95821,1,0,0:0:0:0:
182,192,95821,1,0,0:0:0:0:
182,192,95928,1,0,0:0:0:0:
329,192,95928,1,0,0:0:0:0:
402,192,96035,1,0,0:0:0:70:LR_Kick Beat 2.wav
36,192,96035,128,0,96250:0:0:0:0:
109,192,96035,128,0,96250:0:0:0:0:
475,192,96035,128,0,96357:0:0:0:0:
329,192,96250,128,0,96357:0:0:0:0:
256,192,96357,128,0,96464:0:0:0:0:
109,192,96357,128,0,96464:0:0:0:0:
182,192,96464,1,0,0:0:0:70:LR2_KickBassD.wav
329,192,96464,128,0,96678:0:0:0:0:
475,192,96464,128,0,96678:0:0:0:0:
36,192,96678,128,0,96892:0:0:0:0:
256,192,96678,128,0,96892:0:0:0:0:
475,192,96892,128,0,97107:0:0:0:70:LR_Kick Beat 2.wav
182,192,96892,128,0,97107:0:0:0:0:
109,192,96892,1,0,0:0:0:0:
329,192,97107,1,0,0:0:0:0:
36,192,97107,128,0,97214:0:0:0:0:
329,192,97214,1,0,0:0:0:0:
182,192,97214,128,0,97321:0:0:0:0:
475,192,97321,1,0,0:0:0:100:LR_Snare Fast.wav
109,192,97321,1,0,0:0:0:0:
36,192,97321,1,0,0:0:0:0:
329,192,97428,128,0,97535:0:0:0:0:
182,192,97535,128,0,97642:0:0:0:100:LR_Snare Fast.wav
36,192,97535,1,0,0:0:0:0:
475,192,97535,1,0,0:0:0:0:
109,192,97535,1,0,0:0:0:0:
329,192,97642,128,0,97750:0:0:0:0:
36,192,97750,128,0,98178:0:0:0:70:LR_Kick Beat 2.wav
182,192,97750,128,0,97964:0:0:0:0:
475,192,97750,1,0,0:0:0:0:
402,192,97750,128,0,97964:0:0:0:0:
329,192,97964,128,0,98071:0:0:0:0:
182,192,98071,128,0,98392:0:0:0:0:
475,192,98071,128,0,98178:0:0:0:0:
329,192,98178,128,0,98392:0:0:0:70:LR_Clap Fast Low.wav
109,192,98178,128,0,98392:0:0:0:0:
402,192,98178,1,0,0:0:0:0:
256,192,98392,128,0,98607:0:0:0:100:LR_HiHat Click.wav
36,192,98392,128,0,98607:0:0:0:0:
329,192,98607,128,0,98821:0:0:0:70:LR_Kick Beat 2.wav
402,192,98607,128,0,98821:0:0:0:0:
182,192,98607,128,0,98821:0:0:0:0:
36,192,98821,1,0,0:0:0:100:LR_HiHat Click.wav
256,192,98821,128,0,98928:0:0:0:0:
36,192,98928,1,0,0:0:0:0:
475,192,98928,128,0,99035:0:0:0:0:
256,192,99035,1,0,0:0:0:70:LR_Clap Fast Low.wav
182,192,99035,1,0,0:0:0:0:
109,192,99035,1,0,0:0:0:0:
475,192,99142,1,0,0:0:0:0:
36,192,99142,1,0,0:0:0:0:
475,192,99250,1,0,0:0:0:0:
329,192,99250,1,0,0:0:0:0:
109,192,99357,1,0,0:0:0:0:
256,192,99357,1,0,0:0:0:0:
109,192,99464,128,0,99678:0:0:0:70:LR_Kick Beat 2.wav
402,192,99464,128,0,99678:0:0:0:0:
256,192,99464,128,0,99892:0:0:0:0:
36,192,99464,1,0,0:0:0:0:
329,192,99678,128,0,99785:0:0:0:0:
109,192,99785,128,0,100107:0:0:0:0:
402,192,99785,128,0,99892:0:0:0:0:
36,192,99892,128,0,100107:0:0:0:70:LR_Clap Fast Low.wav
475,192,99892,128,0,100107:0:0:0:0:
329,192,99892,1,0,0:0:0:0:
256,192,100107,128,0,100321:0:0:0:100:LR_HiHat Click.wav
182,192,100107,128,0,100321:0:0:0:0:
329,192,100321,128,0,100535:0:0:0:70:LR_Kick Beat 2.wav
36,192,100321,128,0,100535:0:0:0:0:
475,192,100321,128,0,100535:0:0:0:0:
182,192,100535,1,0,0:0:0:100:LR_HiHat Click.wav
402,192,100535,1,0,0:0:0:0:
182,192,100642,1,0,0:0:0:0:
256,192,100642,128,0,100857:0:0:0:0:
475,192,100642,128,0,100857:0:0:0:0:
109,192,100750,1,0,0:0:0:70:LR_Clap Fast Low.wav
329,192,100750,1,0,0:0:0:0:
402,192,100857,1,0,0:0:0:0:
36,192,100857,1,0,0:0:0:0:
36,192,100964,128,0,101071:0:0:0:0:
182,192,100964,128,0,101071:0:0:0:0:
329,192,101071,1,0,0:0:0:0:
475,192,101071,1,0,0:0:0:0:
329,192,101178,1,0,0:0:0:70:LR_Kick Beat 2.wav
109,192,101178,128,0,101392:0:0:0:0:
182,192,101178,128,0,101607:0:0:0:0:
475,192,101178,128,0,101392:0:0:0:0:
36,192,101392,128,0,101500:0:0:0:0:
402,192,101500,128,0,101821:0:0:0:0:
475,192,101500,128,0,101607:0:0:0:0:
256,192,101607,128,0,101821:0:0:0:70:LR_Clap Fast Low.wav
36,192,101607,128,0,101821:0:0:0:0:
329,192,101607,1,0,0:0:0:0:
182,192,101821,128,0,102035:0:0:0:100:LR_HiHat Click.wav
329,192,101821,128,0,102035:0:0:0:0:
475,192,102035,128,0,102250:0:0:0:70:LR_Kick Beat 2.wav
109,192,102035,128,0,102250:0:0:0:0:
256,192,102035,128,0,102142:0:0:0:0:
256,192,102250,1,0,0:0:0:100:LR_HiHat Click.wav
36,192,102250,128,0,102357:0:0:0:0:
256,192,102357,1,0,0:0:0:0:
475,192,102357,128,0,102464:0:0:0:0:
109,192,102464,1,0,0:0:0:70:LR_Clap Fast Low.wav
36,192,102464,1,0,0:0:0:0:
402,192,102464,1,0,0:0:0:0:
182,192,102571,1,0,0:0:0:0:
329,192,102571,128,0,102678:0:0:0:0:
182,192,102678,1,0,0:0:0:0:
402,192,102678,128,0,102785:0:0:0:0:
256,192,102785,128,0,103214:0:0:0:0:
109,192,102892,128,0,103214:0:0:0:0:
402,192,103214,128,0,103321:0:0:0:0:
256,192,103321,128,0,103428:0:0:0:0:
109,192,103321,128,0,103428:0:0:0:0:
256,192,103535,128,0,103642:0:0:0:0:
109,192,103535,128,0,103642:0:0:0:0:
402,192,103642,128,0,103750:0:0:0:0:
256,192,103750,128,0,104071:0:0:0:0:
109,192,103750,128,0,104071:0:0:0:0:
402,192,104071,128,0,104178:0:0:0:0:
109,192,104178,128,0,104500:0:0:0:0:
256,192,104178,128,0,104500:0:0:0:0:
402,192,104500,128,0,104571:0:0:0:0:
