osu file format v14

[General]
AudioFilename: audio.mp3
AudioLeadIn: 0
PreviewTime: -1
Countdown: 1
SampleSet: Soft
StackLeniency: 0.7
Mode: 0
LetterboxInBreaks: 0
WidescreenStoryboard: 0

[Editor]
DistanceSpacing: 1.3
BeatDivisor: 8
GridSize: 8
TimelineZoom: 1.8

[Metadata]
Title:Behind the Walls
TitleUnicode:Behind the Walls
Artist:cYsmix
ArtistUnicode:cYsmix
Creator:5joshi
Version:Idfk
Source:
Tags:
BeatmapID:1511058
BeatmapSetID:715169

[Difficulty]
HPDrainRate:8
CircleSize:5
OverallDifficulty:7
ApproachRate:9
SliderMultiplier:1.4
SliderTickRate:1

[Events]
//Background and Video events
0,0,"cysmix.jpg",0,0
//Break Periods
//Storyboard Layer 0 (Background)
//Storyboard Layer 1 (Fail)
//Storyboard Layer 2 (Pass)
//Storyboard Layer 3 (Foreground)
//Storyboard Layer 4 (Overlay)
//Storyboard Sound Samples

[TimingPoints]
41,468.75,4,2,0,100,1,0
28166,-66.6666666666667,4,2,0,100,0,0
28517,-66.6666666666667,4,2,0,5,0,0
28634,-66.6666666666667,4,2,0,100,0,0
28986,-66.6666666666667,4,2,0,5,0,0
29103,-66.6666666666667,4,2,0,100,0,0
29455,-66.6666666666667,4,2,0,5,0,0
29572,-66.6666666666667,4,2,0,100,0,0
41291,-50,4,2,0,100,0,0
41994,-66.6666666666667,4,2,0,100,0,0
43224,-66.6666666666667,4,2,0,5,0,0
43517,-66.6666666666667,4,2,0,100,0,0
43576,-66.6666666666667,4,2,0,5,0,0
43810,-66.6666666666667,4,2,0,100,0,0
43869,-66.6666666666667,4,2,0,5,0,0
44044,-66.6666666666667,4,2,0,100,0,0

[HitObjects]
256,192,41,12,0,7072,0:0:0:0:
80,64,7307,5,0,0:0:0:0:
32,136,7541,2,0,P|32:200|32:216,1,70
72,280,8009,1,0,0:0:0:0:
152,320,8244,1,0,0:0:0:0:
200,328,8361,2,0,P|256:320|264:320,3,35
200,240,8947,1,0,0:0:0:0:
152,160,9181,6,0,L|200:104,1,70
248,160,9650,2,0,L|296:104,1,70,0|0,0:0|0:0,0:3:0:0:
240,32,10119,1,0,0:0:0:0:
288,24,10236,2,0,P|344:32|352:32,3,35
336,32,10705,1,0,0:0:0:0:
352,40,10822,1,0,0:0:0:0:
389,106,11056,6,0,L|341:162,1,70
293,106,11525,2,0,L|245:162,1,70,0|0,0:0|0:0,0:3:0:0:
282,238,11994,1,0,0:0:0:0:
234,246,12111,2,0,P|178:238|170:238,3,35
128,184,12697,1,0,0:0:0:0:
48,144,12931,5,0,0:0:0:0:
56,112,13048,1,0,0:0:0:0:
72,88,13166,2,0,B|112:64|112:64|160:96,1,105
112,144,13634,2,0,B|144:168|144:168|184:160,1,70
200,152,13986,1,0,0:0:0:0:
272,96,14220,2,0,L|304:112,3,35
272,200,14806,6,0,L|320:256,1,70
368,200,15275,2,0,L|416:256,1,70,0|0,0:0|0:0,0:3:0:0:
360,328,15744,1,0,0:0:0:0:
312,336,15861,2,0,P|256:328|248:328,3,35
208,272,16447,1,0,0:0:0:0:
256,192,16681,6,0,L|208:136,1,70
160,192,17150,2,0,L|112:136,1,70,0|0,0:0|0:0,0:3:0:0:
160,64,17619,1,0,0:0:0:0:
208,56,17736,2,0,P|264:64|272:64,3,35
256,64,18205,1,0,0:0:0:0:
272,72,18322,1,0,0:0:0:0:
208,136,18556,6,0,L|256:192,1,70
304,136,19025,2,0,L|352:192,1,70,0|0,0:0|0:0,0:3:0:0:
296,264,19494,1,0,0:0:0:0:
248,272,19611,2,0,P|192:264|184:264,3,35
136,224,20197,1,0,0:0:0:0:
56,64,20666,5,0,0:0:0:0:
144,88,20900,2,0,L|88:144,1,70
136,152,21251,2,0,L|96:192,1,35
48,240,21603,5,0,0:0:0:0:
64,280,21720,1,0,0:0:0:0:
96,312,21837,1,0,0:0:0:0:
144,312,21955,1,0,0:0:0:0:
120,248,22072,5,0,0:0:0:0:
168,248,22189,1,0,0:0:0:0:
200,280,22306,1,0,0:0:0:0:
208,328,22423,1,0,0:0:0:0:
248,344,22541,6,0,B|296:368|296:368|352:352,1,105
384,336,23009,1,0,0:0:0:0:
304,288,23244,1,0,0:0:0:0:
384,248,23478,2,0,B|432:240|432:240|448:224,1,70
384,160,23947,1,0,0:0:0:0:
344,176,24064,2,0,B|296:184|296:184|280:200,1,70
256,232,24416,5,0,0:0:0:0:
232,272,24533,2,0,L|168:288,1,35
136,216,24884,5,0,0:0:0:0:
112,256,25001,2,0,L|48:272,1,35
72,168,25353,2,0,B|88:117|88:117|139:88,1,105
96,64,25822,2,0,B|136:48|136:48|168:56,1,70
240,104,26291,5,0,0:0:0:0:
266,142,26408,2,0,L|330:154,1,35
358,81,26759,5,0,0:0:0:0:
385,120,26876,2,0,L|449:132,1,35
472,200,27228,5,0,0:0:0:0:
446,238,27345,2,0,L|381:250,1,35
354,177,27696,5,0,0:0:0:0:
327,216,27813,2,0,L|262:228,1,35
336,336,28166,2,0,P|288:360|184:288,1,157.500006008148
128,328,28634,2,0,P|144:277|269:254,1,157.500006008148
272,296,29103,2,0,P|312:256|320:160,1,157.500006008148
376,112,29571,2,0,P|327:88|240:160,1,157.500006008148
195,184,30041,6,0,B|243:208|243:208|299:192,1,105
376,112,30509,1,0,0:0:0:0:
447,167,30744,1,0,0:0:0:0:
375,243,30978,2,0,L|310:227,2,52.5000020027161
290,324,31447,1,0,0:3:0:0:
250,308,31564,2,0,B|202:300|202:300|162:254,1,105.000004005432,0|0,0:3|0:3,0:3:0:0:
139,227,31916,5,0,0:0:0:0:
115,186,32033,1,0,0:0:0:0:
89,147,32150,1,0,0:0:0:0:
32,46,32384,5,0,0:0:0:0:
89,48,32501,1,0,0:0:0:0:
146,49,32619,1,0,0:0:0:0:
237,142,32853,5,0,0:0:0:0:
273,186,32970,1,0,0:0:0:0:
313,229,33087,1,0,0:0:0:0:
352,271,33205,1,0,0:0:0:0:
393,312,33322,1,0,0:0:0:0:
442,219,33791,6,0,B|493:171|493:171|371:62|372:62,1,210.000008010865
300,25,34494,1,0,0:0:0:0:
143,27,34728,5,0,0:0:0:0:
119,74,34845,1,0,0:0:0:0:
96,121,34962,1,0,0:0:0:0:
73,168,35079,1,0,0:0:0:0:
49,215,35196,1,0,0:0:0:0:
47,313,35431,1,0,0:0:0:0:
160,313,35666,6,0,B|194:262|194:262|245:261|246:262,1,105.000004005432
242,341,36134,2,0,B|306:341|306:341|333:297,1,105.000004005432
329,229,36603,2,0,B|322:229|373:230|373:230|407:281,1,105.000004005432
397,353,37072,2,0,B|461:353|461:353|488:309,1,105.000004005432
488,196,37541,6,0,B|440:172|440:172|384:188,1,105
331,267,38009,1,0,0:0:0:0:
287,179,38244,1,0,0:0:0:0:
261,151,38361,2,0,L|231:142,4,26.2500010013581
214,57,38947,5,0,0:3:0:0:
254,73,39064,2,0,B|302:81|302:81|342:127,1,105.000004005432,0|0,0:3|0:3,0:3:0:0:
365,154,39416,5,0,0:0:0:0:
389,195,39533,1,0,0:0:0:0:
415,234,39650,1,0,0:0:0:0:
472,335,39884,5,0,0:0:0:0:
415,333,40001,1,0,0:0:0:0:
358,332,40119,1,0,0:0:0:0:
267,239,40353,5,0,0:0:0:0:
231,195,40470,1,0,0:0:0:0:
191,152,40587,1,0,0:0:0:0:
152,110,40705,1,0,0:0:0:0:
111,69,40822,1,0,0:0:0:0:
51,129,41056,1,0,0:0:0:0:
50,210,41291,2,0,B|106:207|106:207|161:276,1,140
137,342,41759,2,0,B|193:345|193:345|248:276,1,140
298,204,42228,1,0,0:0:0:0:
329,161,42345,1,0,0:0:0:0:
360,119,42462,1,0,0:0:0:0:
391,77,42579,1,0,0:0:0:0:
422,35,42696,1,0,0:0:0:0:
502,33,42931,1,0,0:0:0:0:
497,103,43166,2,0,L|469:103,1,26.2500010013581
443,166,43517,2,0,L|475:166,1,26.2500010013581
447,227,43810,2,0,L|416:227,1,26.2500010013581
391,291,44044,2,0,L|423:291,4,26.2500010013581
390,353,44513,2,0,L|359:353,4,26.2500010013581
