osu file format v14

[General]
AudioFilename: audio.mp3
AudioLeadIn: 0
PreviewTime: 105023
Countdown: 1
SampleSet: Soft
StackLeniency: 0.2
Mode: 0
LetterboxInBreaks: 0
WidescreenStoryboard: 1

[Editor]
Bookmarks: 1347,3553,4876,6200,7964,15023,22082,28700,36200,36641,36972,37523,38405,38736,39288,40170,40501,41053,41935,42266,42817,50317,57376,64435,71494,78553,85611,92670,99729,106788,113847,120905,127964,135023,142082,149141
DistanceSpacing: 1
BeatDivisor: 4
GridSize: 4
TimelineZoom: 2.2

[Metadata]
Title:Babaroque (Short Ver.)
TitleUnicode:Babaroque (Short Ver.)
Artist:cYsmix
ArtistUnicode:cYsmix
Creator:peaceGiant
Version:aRchaic iNsane
Source:osu!
Tags:
BeatmapID:1610959
BeatmapSetID:766283

[Difficulty]
HPDrainRate:5
CircleSize:5.3
OverallDifficulty:6
ApproachRate:9.5
SliderMultiplier:2.49999990463257
SliderTickRate:1

[Events]
//Background and Video events
0,0,"oracle.png",0,0
//Break Periods
//Storyboard Layer 0 (Background)
//Storyboard Layer 1 (Fail)
//Storyboard Layer 2 (Pass)
//Storyboard Layer 3 (Foreground)
//Storyboard Sound Samples

[TimingPoints]
906,441.176470588235,4,2,0,100,1,0
22082,-133.333333333333,4,2,0,100,0,0
28700,-100,4,2,0,100,0,0
36200,-133.333333333333,4,2,0,100,0,0
43258,-100,4,2,0,100,0,0
50317,-100,4,2,0,100,0,1
64435,-100,4,2,0,100,0,0
107670,-100,4,2,0,100,0,1
120464,-100,4,2,0,100,0,0
120905,-100,4,2,0,100,0,1
135023,-100,4,2,0,100,0,0

[Colours]
Combo1 : 210,81,43
Combo2 : 245,217,177
Combo3 : 132,117,189

[HitObjects]
132,132,23,6,0,B|112:120|112:120|88:116|73:121,2,62.4999976158143
96,208,464,6,0,B|112:216|140:216|140:216|164:216|180:204|180:204|200:193|224:192|224:192|252:192|276:204,1,187.499992847443
320,280,905,6,0,B|348:264|348:264|380:264,3,62.4999976158143
378,264,1347,6,0,B|416:264|436:272|448:284|476:284|492:264|500:240|492:212|468:204|444:208|432:224|408:248|416:292|416:292|408:184|368:136|332:136|364:220|308:224|280:204|280:204|328:172|368:104|340:60|256:64|224:112|256:144|256:144|208:112|228:64|220:24|140:32|140:108|176:148|196:176|196:176|144:180|116:212|116:212|72:204|72:156|72:156|116:172,1,1187.49995470047
184,260,3553,6,0,L|252:288,1,62.4999976158143
338,227,3773,6,0,L|280:203,1,62.4999976158143
277,320,3994,6,0,L|301:262,1,62.4999976158143
244,166,4214,6,0,L|220:224,1,62.4999976158143
156,335,4435,6,0,B|129:345|129:345|95:336,3,62.4999976158143
96,336,4876,6,0,B|40:312|5:314|-7:343|3:375|34:388|72:370|43:271|17:247|17:247|67:268|117:277|139:276|139:276|159:269|201:273|225:309|219:350|219:350|213:228|266:224|266:224|289:233|314:258,1,687.499973773957
289,329,6200,6,0,P|290:291|306:262,1,62.4999976158143
363,343,6420,2,0,P|364:305|380:276,1,62.4999976158143
437,246,6641,1,0,0:0:0:0:
167,137,6972,1,0,0:0:0:0:
230,163,7082,6,0,P|208:85|111:104,1,187.499992847443
167,137,7523,2,0,P|86:109|45:185,1,187.499992847443
92,249,7964,6,0,B|131:269|131:269|212:270,1,124.999995231629
110,169,8405,2,0,B|149:189|149:189|230:190,1,124.999995231629
241,184,8736,1,0,0:0:0:0:
251,177,8847,6,0,B|277:211|277:211|292:291,1,124.999995231629
325,152,9288,2,0,B|351:186|351:186|366:266,1,124.999995231629
369,279,9619,1,0,0:0:0:0:
371,291,9729,6,0,P|346:349|272:366,1,124.999995231629
292,291,10170,2,0,P|229:298|177:242,1,124.999995231629
180,249,10501,1,0,0:0:0:0:
177,237,10611,6,0,L|170:164,1,62.4999976158143
255,108,10832,6,0,L|262:181,1,62.4999976158143
151,133,11053,6,0,L|224:126,1,62.4999976158143
280,211,11274,6,0,L|207:218,1,62.4999976158143
68,230,11494,6,0,L|80:103,1,124.999995231629
139,257,11935,2,0,L|151:130,1,124.999995231629
233,35,12376,6,0,L|221:162,1,124.999995231629
303,61,12817,2,0,L|292:186,1,124.999995231629
291,198,13148,1,0,0:0:0:0:
291,210,13258,6,0,P|322:266|380:283,1,124.999995231629
368,204,13700,2,0,P|431:205|475:163,1,124.999995231629
479,155,14030,1,0,0:0:0:0:
481,142,14141,6,0,L|479:79,1,62.4999976158143
403,135,14361,6,0,L|401:72,1,62.4999976158143
245,13,14582,6,0,L|247:76,1,62.4999976158143
323,20,14802,6,0,L|325:83,1,62.4999976158143
317,239,15023,6,0,B|337:223|359:217|359:217|412:227|437:210,1,124.999995231629
301,163,15464,2,0,P|252:197|247:270,1,124.999995231629
245,270,15795,1,0,0:0:0:0:
247,282,15905,6,0,B|287:309|287:309|381:314,1,124.999995231629
222,349,16347,2,0,B|262:376|262:376|338:380,1,124.999995231629
351,381,16678,1,0,0:0:0:0:
366,382,16788,6,0,P|428:341|430:291,1,124.999995231629
502,327,17229,2,0,P|497:252|455:226,1,124.999995231629
447,227,17560,1,0,0:0:0:0:
435,228,17670,6,0,L|362:233,1,62.4999976158143
320,148,17891,6,0,L|393:153,1,62.4999976158143
297,235,18111,6,0,L|224:240,1,62.4999976158143
164,136,18332,6,0,L|237:141,1,62.4999976158143
152,246,18553,6,0,L|16:255,1,124.999995231629
181,321,18994,2,0,L|56:329,1,124.999995231629
0,176,19435,6,0,L|124:167,1,124.999995231629
22,95,19876,2,0,L|146:86,1,124.999995231629
159,86,20207,1,0,0:0:0:0:
171,86,20317,6,0,P|217:130|220:188,1,124.999995231629
350,201,20758,2,0,P|304:157|301:99,1,124.999995231629
305,87,21089,1,0,0:0:0:0:
309,75,21200,6,0,L|373:61,1,62.4999976158143
500,106,21420,6,0,L|436:120,1,62.4999976158143
420,0,21641,6,0,L|434:58,1,62.4999976158143
389,186,21861,6,0,L|375:122,1,62.4999976158143
464,240,22082,6,0,B|432:272|408:280|384:280|356:276|336:268|316:248|304:228|304:228|232:264|268:336|312:380|312:380|220:316|128:368,1,562.5
100,276,23626,1,0,0:0:0:0:
0,256,23847,6,0,B|-12:244|-16:228|-8:208|12:200|40:200|56:208|64:224|68:248|68:276|60:296|52:308|52:308|48:252|72:232|88:224|116:224|136:228|152:256|152:280|148:292|148:292|160:232|212:248,1,468.75
216,256,25060,2,0,P|227:292|216:328,1,46.875
124,164,25391,1,0,0:0:0:0:
296,184,25611,6,0,B|252:132|169:134|124:164|124:164|100:108|100:108|136:84|184:80|224:84|224:84|240:52|228:24|228:24|168:16|122:26|96:40,1,562.5
296,100,27155,1,0,0:0:0:0:
428,80,27376,6,0,B|404:72|404:72|376:84|368:120|380:140|424:152|460:144|476:124|476:124|504:156|500:196|500:196|432:216|384:200|384:200|404:252|360:288,1,468.75
360,284,28589,2,0,P|320:288|304:280,1,46.875
304,212,29141,5,0,0:0:0:0:
260,352,29361,1,0,0:0:0:0:
232,145,29583,5,0,0:0:0:0:
264,344,29803,1,0,0:0:0:0:
290,237,30023,5,0,0:0:0:0:
171,346,30243,1,0,0:0:0:0:
258,134,30465,5,0,0:0:0:0:
168,340,30685,1,0,0:0:0:0:
264,260,30905,5,0,0:0:0:0:
75,302,31125,1,0,0:0:0:0:
293,133,31347,5,0,0:0:0:0:
68,304,31567,1,0,0:0:0:0:
224,268,31788,5,0,0:0:0:0:
0,198,32008,1,0,0:0:0:0:
329,152,32229,5,0,0:0:0:0:
4,208,32449,1,0,0:0:0:0:
511,185,32670,5,0,0:0:0:0:
256,112,32890,1,0,0:0:0:0:
1,185,33111,5,0,0:0:0:0:
256,104,33331,1,0,0:0:0:0:
511,185,33553,5,0,0:0:0:0:
256,96,33773,1,0,0:0:0:0:
1,185,33994,5,0,0:0:0:0:
256,88,34214,1,0,0:0:0:0:
256,184,34435,1,0,0:0:0:0:
256,200,34545,1,0,0:0:0:0:
256,216,34655,1,0,0:0:0:0:
240,216,34765,1,0,0:0:0:0:
256,228,34876,5,0,0:0:0:0:
256,244,34986,1,0,0:0:0:0:
256,260,35096,1,0,0:0:0:0:
272,260,35206,1,0,0:0:0:0:
256,276,35317,6,0,L|256:352,2,62.4999976158143
256,16,35979,1,0,0:0:0:0:
256,160,36200,6,0,B|256:348|256:348|396:348|396:348|396:112|396:112|20:112|20:112|136:36|136:36|344:148|344:148|40:364|40:364|40:224|40:224|264:292|264:292|464:232|504:32|504:32|352:32|352:32|132:172,1,2812.5
162,152,43258,6,0,B|146:212|146:212|222:332,1,187.499992847443
220,328,43700,2,0,P|312:324|332:276,1,124.999995231629
296,192,44141,5,0,0:0:0:0:
304,184,44251,2,0,P|356:156|444:172,1,124.999995231629
436,152,44582,2,0,P|344:124|288:136,1,124.999995231629
160,72,45023,6,0,P|104:104|80:160,1,124.999995231629
80,168,45354,1,0,0:0:0:0:
80,180,45464,2,0,L|80:308,1,124.999995231629
160,136,45905,2,0,L|160:208,1,62.4999976158143
248,236,46236,2,0,L|248:173,1,62.4999976158143
317,127,46567,6,0,P|359:109|391:109,1,62.4999976158143
440,160,46788,5,0,0:0:0:0:
440,160,46898,1,0,0:0:0:0:
440,160,47008,1,0,0:0:0:0:
440,160,47119,1,0,0:0:0:0:
440,160,47229,1,0,0:0:0:0:
440,160,47339,1,0,0:0:0:0:
440,160,47450,1,0,0:0:0:0:
440,160,47560,1,0,0:0:0:0:
440,160,47670,6,0,L|476:160,2,31.2499988079071
344,208,47891,1,0,0:0:0:0:
344,208,48001,1,0,0:0:0:0:
344,208,48111,6,0,L|308:208,2,31.2499988079071
232,112,48332,6,0,L|268:112,2,31.2499988079071
180,252,48553,5,0,0:0:0:0:
240,192,48663,5,0,0:0:0:0:
60,164,48773,5,0,0:0:0:0:
151,164,48883,6,0,L|467:164,1,312.499988079071
464,164,49655,6,0,P|472:208|468:244,1,62.4999976158143
348,288,49876,1,0,0:0:0:0:
264,80,49986,1,0,0:0:0:0:
264,80,50317,6,0,L|288:212,1,124.999995231629
272,276,50648,1,0,0:0:0:0:
272,276,50758,2,0,P|247:304|206:313,1,62.4999976158143
200,240,50979,2,0,P|162:233|134:201,1,62.4999976158143
104,140,51200,6,0,L|288:106,2,187.499992847443
56,192,52082,5,0,0:0:0:0:
160,348,52413,1,0,0:0:0:0:
212,88,52744,1,0,0:0:0:0:
336,168,52964,6,0,B|376:180|424:144|424:144|432:96|416:48,1,187.499992847443
420,240,53626,2,0,P|428:268|436:316,1,62.4999976158143
372,356,53847,6,0,P|296:344|272:232,2,187.499992847443
434,300,54729,5,0,0:0:0:0:
256,240,55060,1,0,0:0:0:0:
287,384,55391,1,0,0:0:0:0:
332,156,55611,6,0,B|272:124|232:132|232:132|216:172|216:172|176:200,1,187.499992847443
93,147,56273,1,0,0:0:0:0:
172,64,56494,6,0,L|160:128,1,62.4999976158143
108,208,56714,1,0,0:0:0:0:
132,268,56825,2,0,P|168:192|80:152,1,187.499992847443
52,328,57376,5,0,0:0:0:0:
80,340,57707,2,0,P|36:352|0:340,1,62.4999976158143
208,372,58038,1,0,0:0:0:0:
420,236,58258,5,0,0:0:0:0:
388,212,58589,2,0,P|428:220|464:208,1,62.4999976158143
320,104,58920,1,0,0:0:0:0:
368,324,59141,5,0,0:0:0:0:
376,352,59472,2,0,L|320:304,1,62.4999976158143
112,260,59803,1,0,0:0:0:0:
376,112,60023,6,0,P|384:84|380:44,1,62.4999976158143
246,48,60354,2,0,P|224:25|196:12,1,62.4999976158143
126,128,60685,2,0,P|98:135|65:158,1,62.4999976158143
64,216,60905,6,0,B|72:208|84:208|88:220|80:224|88:232|100:228|104:220|112:204|116:204|116:204|128:224|144:224|160:212|160:192|172:184|188:180|208:184|216:196|220:212|208:224|184:220,2,187.499992847443
36,292,61788,6,0,L|52:364,1,62.4999976158143
64,216,62119,2,0,L|136:232,1,62.4999976158143
96,136,62450,2,0,L|145:81,1,62.4999976158143
232,88,62670,5,0,0:0:0:0:
52,72,63001,1,0,0:0:0:0:
188,0,63332,1,0,0:0:0:0:
416,116,63553,2,0,L|248:84,2,124.999995231629
