osu file format v14

[General]
AudioFilename: audio.mp3
AudioLeadIn: 0
PreviewTime: 120792
Countdown: 0
SampleSet: Soft
StackLeniency: 0.3
Mode: 0
LetterboxInBreaks: 0
WidescreenStoryboard: 0

[Editor]
DistanceSpacing: 1.13
BeatDivisor: 4
GridSize: 4
TimelineZoom: 1.7

[Metadata]
Title:Babaroque (Short Ver.)
TitleUnicode:Babaroque (Short Ver.)
Artist:cYsmix
ArtistUnicode:cYsmix
Creator:Mao
Version:Niva's Normal
Source:
Tags:kusemono records oracle niva chaoslitz mir mappers' lounge fa featured artist
BeatmapID:1706333
BeatmapSetID:791667

[Difficulty]
HPDrainRate:4
CircleSize:3.8
OverallDifficulty:4
ApproachRate:5
SliderMultiplier:1.08
SliderTickRate:1

[Events]
//Background and Video events
0,0,"normal.jpg",0,0
//Break Periods
2,36198,42056
//Storyboard Layer 0 (Background)
//Storyboard Layer 1 (Fail)
//Storyboard Layer 2 (Pass)
//Storyboard Layer 3 (Foreground)
//Storyboard Sound Samples

[TimingPoints]
904,441.176470588235,4,2,0,70,1,0
1014,-100,4,2,0,55,0,0
6198,-100,4,2,0,70,0,0
7962,-100,4,2,0,80,0,0
8073,-100,4,2,0,70,0,0
15021,-100,4,2,0,80,0,0
15131,-100,4,2,0,70,0,0
22080,-100,4,2,0,70,0,0
28587,-100,4,2,0,80,0,0
28808,-100,4,2,0,70,0,0
30903,-100,4,2,0,75,0,0
32668,-100,4,2,0,80,0,0
35756,-100,4,2,0,55,0,0
36195,441.176470588235,4,2,0,55,1,0
43256,441.176470588235,4,2,0,65,1,0
45020,-100,4,2,0,70,0,0
49763,-100,4,2,0,80,0,0
49983,-100,4,2,0,70,0,0
50315,-100,4,2,0,75,0,0
63991,-100,4,2,0,85,0,0
64432,-100,4,2,0,80,0,1
78329,-100,4,2,0,80,0,0
78550,-100,4,2,0,80,0,1
92667,-100,4,2,0,60,0,0
99726,-100,4,2,0,65,0,0
101491,-100,4,2,0,70,0,0
107226,-100,4,2,0,80,0,0
107668,-100,4,2,0,75,0,0
120461,-100,4,2,0,85,0,0
120903,-100,4,2,0,80,0,1
135020,-100,4,2,0,70,0,0
141639,-100,4,2,0,80,0,0
142079,-100,4,2,0,70,0,0

[Colours]
Combo1 : 96,36,251
Combo2 : 151,255,255
Combo3 : 43,253,210
Combo4 : 0,140,255
SliderTrackOverride : 2,2,25
SliderBorder : 255,255,255

[HitObjects]
71,135,21,6,0,P|68:104|62:67,2,54,0|0|8,3:0|3:0|3:3,0:0:0:0:
30,250,903,6,0,P|77:293|122:298,1,108,4|8,3:2|0:0,0:0:0:0:
238,274,1786,1,0,3:2:0:0:
357,299,2227,1,8,0:0:0:0:
476,274,2668,2,0,P|492:226|472:175,1,108,0|8,3:2|0:0,0:0:0:0:
426,60,3551,2,0,P|454:51|479:41,2,54,2|0|10,3:2|0:0|0:0,0:0:0:0:
369,82,4212,1,0,0:0:0:0:
310,98,4433,6,2,P|255:93|188:89,1,108,0|8,3:3|0:0,2:2:0:0:
91,141,5315,1,0,3:0:0:0:
108,20,5756,1,8,0:0:0:0:
202,89,6198,2,0,P|231:85|263:82,2,54,0|0|8,1:2|1:2|0:0,0:0:0:0:
80,80,7080,1,2,0:0:0:0:
20,187,7521,1,2,0:0:0:0:
77,294,7962,6,0,P|124:304|180:284,1,108,4|0,1:2|1:2,0:0:0:0:
291,333,8845,1,0,1:2:0:0:
307,212,9286,1,0,1:2:0:0:
418,258,9727,2,0,B|454:260|454:260|484:247|484:247|522:251,1,108,0|0,1:2|1:2,0:0:0:0:
482,136,10609,2,0,P|483:106|485:80,2,54,2|0|2,1:2|0:0|1:2,0:0:0:0:
468,195,11271,1,0,0:0:0:0:
437,247,11492,6,0,P|388:277|337:271,1,108,2|0,1:3|1:2,0:0:0:0:
224,232,12374,1,0,1:2:0:0:
139,320,12815,1,0,1:2:0:0:
84,213,13256,2,0,P|76:160|65:90,1,108,0|0,1:2|1:2,0:0:0:0:
190,105,14139,2,0,P|184:74|179:38,2,54,2|0|2,1:2|0:0|1:2,0:0:0:0:
233,148,14801,1,0,0:0:0:0:
281,185,15021,6,0,B|307:178|335:185|335:185|363:191|389:185,1,108,4|0,1:2|1:2,0:0:0:0:
494,125,15903,1,0,1:2:0:0:
489,247,16345,1,0,1:2:0:0:
482,368,16786,2,0,P|430:379|364:362,1,108,0|0,1:2|1:2,0:0:0:0:
263,324,17668,2,0,P|235:331|205:338,2,54,2|0|2,1:2|0:0|1:2,0:0:0:0:
323,335,18330,1,0,0:0:0:0:
377,308,18551,6,0,P|390:259|369:206,1,108,2|0,1:3|1:2,0:0:0:0:
250,181,19433,1,0,1:2:0:0:
272,61,19874,1,0,1:2:0:0:
391,85,20315,2,0,B|431:82|431:82|458:90|458:90|496:87,1,108,0|0,1:2|1:2,0:0:0:0:
480,207,21198,2,0,P|509:204|534:202,2,54,2|0|2,1:2|0:0|0:2,0:0:0:0:
468,266,21859,1,0,0:0:0:0:
457,326,22080,6,0,P|404:327|348:330,1,108,0|8,1:2|0:0,0:0:0:0:
236,376,22962,1,0,0:0:0:0:
119,341,23403,1,8,0:0:0:0:
98,220,23845,2,8,P|114:173|95:120,1,108,0|8,1:2|0:0,0:0:0:0:
158,15,24727,1,0,0:0:0:0:
45,55,25168,1,8,0:0:0:0:
173,98,25609,6,0,B|213:96|213:96|242:103|242:103|286:101,1,108,0|8,1:2|0:0,0:0:0:0:
315,218,26492,1,0,0:0:0:0:
397,128,26933,1,8,0:0:0:0:
433,244,27374,2,0,P|428:300|423:364,1,108,0|8,1:2|0:0,0:0:0:0:
302,367,28256,1,0,0:0:0:0:
180,380,28698,1,4,1:2:0:0:
119,274,29139,5,0,1:2:0:0:
195,179,29580,1,0,1:2:0:0:
303,234,30021,1,0,1:2:0:0:
299,355,30462,1,0,1:2:0:0:
181,376,30903,5,0,1:2:0:0:
117,258,31345,1,0,1:2:0:0:
207,162,31786,1,0,1:2:0:0:
318,236,32227,1,0,1:2:0:0:
310,362,32668,6,0,B|349:360|349:360|379:369|379:369|418:366,1,108,4|4,1:2|1:2,0:0:0:0:
459,322,33330,1,0,0:0:0:0:
500,276,33551,2,0,B|495:248|487:222|487:222|494:200|502:171,1,108,4|4,1:2|1:2,0:0:0:0:
487,112,34212,1,0,0:0:0:0:
256,192,34433,12,8,35756,3:0:0:0:
449,213,43256,6,0,P|445:168|443:117,2,81,2|0|0,0:0|1:2|1:2,0:0:0:0:
473,269,44138,2,0,P|418:257|369:269,1,108,0|0,1:0|1:0,0:0:0:0:
252,236,45020,2,0,P|210:235|170:234,2,81,2|0|0,0:0|1:2|1:2,0:0:0:0:
235,177,45902,2,0,P|288:191|344:175,1,108,2|0,1:2|1:0,0:0:0:0:
456,209,46785,6,0,B|469:158|469:158|441:105,1,108,2|0,0:0|1:0,0:0:0:0:
334,53,47667,2,0,B|306:60|279:53|279:53|252:45|217:53,1,108,2|0,0:0|1:2,0:0:0:0:
108,80,48550,2,0,P|112:40|116:-11,2,81,2|2|0,0:0|0:0|0:0,0:0:0:0:
55,112,49432,1,2,0:0:0:0:
26,165,49652,1,0,0:0:0:0:
40,224,49873,1,4,1:2:0:0:
143,288,50314,6,0,B|182:285|182:285|210:294|210:294|252:292,1,108,2|0,1:2|1:2,0:0:0:0:
362,338,51197,1,2,1:2:0:0:
459,264,51638,1,0,1:2:0:0:
417,150,52079,2,0,P|434:100|414:51,1,108,2|0,1:2|1:2,0:0:0:0:
298,10,52961,1,2,1:2:0:0:
183,53,53402,1,0,1:2:0:0:
68,10,53844,6,0,P|61:66|79:117,1,108,2|0,1:2|1:2,0:0:0:0:
45,231,54726,1,2,1:2:0:0:
11,348,55167,1,0,1:2:0:0:
130,322,55608,2,0,B|154:329|182:322|182:322|212:314|237:322,1,108,2|0,1:2|1:2,0:0:0:0:
350,278,56491,2,0,L|404:278,2,54,2|2|0,1:2|0:0|1:2,0:0:0:0:
301,241,57152,1,2,0:0:0:0:
257,197,57373,6,0,P|264:148|270:86,1,108,2|8,1:2|0:0,0:0:0:0:
381,32,58255,1,2,1:2:0:0:
373,154,58697,1,8,0:0:0:0:
269,89,59138,2,0,B|230:87|230:87|201:95|201:95|163:93,1,108,2|8,1:2|0:0,0:0:0:0:
108,202,60020,1,2,1:2:0:0:
51,310,60461,1,8,0:0:0:0:
153,376,60902,6,0,P|207:383|264:361,1,108,2|8,1:2|0:0,0:0:0:0:
377,384,61785,1,2,1:2:0:0:
331,270,62226,1,8,0:0:0:0:
452,282,62667,2,0,P|446:222|443:159,1,108,2|8,1:2|0:0,0:0:0:0:
397,60,63550,2,0,P|428:55|467:42,2,54,2|0|12,1:2|1:2|1:2,0:0:0:0:
308,144,64432,6,0,P|254:137|177:130,1,108,4|8,1:2|0:0,0:0:0:0:
79,123,65314,1,0,1:2:0:0:
149,23,65755,1,8,0:0:0:0:
201,132,66197,2,0,P|217:187|195:237,1,108,0|8,1:2|0:0,0:0:0:0:
155,346,67079,2,0,P|114:344|61:340,2,81,0|2|0,1:2|0:0|0:0,0:0:0:0:
206,378,67961,6,0,P|254:361|319:365,1,108,0|8,1:2|0:0,0:0:0:0:
429,335,68844,1,0,1:2:0:0:
325,270,69285,1,8,0:0:0:0:
442,238,69726,2,0,P|434:184|430:131,1,108,0|8,1:2|0:0,0:0:0:0:
311,158,70608,2,0,P|316:117|321:78,2,81,0|2|0,1:2|0:0|0:0,0:0:0:0:
326,217,71491,6,0,P|274:199|214:205,1,108,0|8,1:2|0:0,0:0:0:0:
150,103,72373,1,0,1:2:0:0:
29,124,72814,1,8,0:0:0:0:
150,103,73255,2,0,P|204:107|274:111,1,108,0|8,1:2|0:0,0:0:0:0:
363,171,74138,2,0,P|405:168|459:162,2,81,0|2|0,1:2|0:0|0:0,0:0:0:0:
316,210,75020,6,0,P|306:264|334:309,1,108,0|8,1:2|0:0,0:0:0:0:
211,327,75902,1,0,1:2:0:0:
90,345,76344,1,8,0:0:0:0:
18,246,76785,2,0,P|4:197|25:145,1,108,0|8,1:2|0:0,0:0:0:0:
84,39,77667,2,0,P|43:33|-13:22,2,81,0|2|0,1:2|0:0|0:0,0:0:0:0:
137,60,78550,6,0,B|177:57|177:57|206:66|206:66|245:63,1,108,4|8,1:2|0:0,0:0:0:0:
350,4,79432,1,0,1:2:0:0:
468,34,79873,1,8,0:0:0:0:
394,131,80314,2,0,P|397:186|401:246,1,108,0|8,1:2|0:0,0:0:0:0:
369,358,81197,2,0,P|408:355|464:352,2,81,0|2|0,1:2|0:0|0:0,0:0:0:0:
316,327,82079,6,0,P|266:344|215:329,1,108,0|8,1:2|0:0,0:0:0:0:
103,378,82961,1,0,1:2:0:0:
121,257,83402,1,8,0:0:0:0:
140,136,83844,2,0,B|165:142|194:135|194:135|224:127|250:133,1,108,0|8,1:2|0:0,0:0:0:0:
348,199,84726,2,0,P|359:159|372:117,2,81,0|2|0,1:2|0:0|0:0,0:0:0:0:
374,254,85608,6,0,B|335:251|335:251|306:260|306:260|262:256,1,108,0|8,1:2|0:0,0:0:0:0:
154,304,86491,1,0,1:2:0:0:
51,237,86932,1,8,0:0:0:0:
163,190,87373,2,0,P|170:138|175:80,1,108,0|8,1:2|0:0,0:0:0:0:
295,100,88255,2,0,P|288:64|280:18,2,81,0|2|0,1:2|0:0|0:0,0:0:0:0:
348,130,89138,6,0,P|297:148|255:189,1,108,0|8,1:2|0:0,0:0:0:0:
183,280,90020,1,0,1:2:0:0:
137,166,90461,1,8,0:0:0:0:
258,185,90902,2,0,P|310:183|383:179,1,108,0|8,1:2|0:0,0:0:0:0:
478,227,91785,2,0,L|499:138,2,81,0|2|0,1:2|0:0|0:0,0:0:0:0:
505,281,92667,6,0,P|450:278|403:303,1,108,2|8,1:2|0:0,0:0:0:0:
290,257,93550,2,0,B|268:264|237:256|237:256|207:248|179:256,1,108,2|8,0:0|0:0,0:0:0:0:
76,196,94432,2,0,P|57:148|81:86,1,108,2|8,1:2|0:0,0:0:0:0:
178,32,95314,2,0,B|216:29|216:29|247:38|247:38|286:34,1,108,2|8,0:0|0:2,0:0:0:0:
371,119,96197,6,0,P|384:176|405:246,1,108,2|8,1:2|0:0,0:0:0:0:
437,338,97079,1,2,0:0:0:0:
322,380,97520,1,10,0:0:0:0:
274,267,97961,2,0,B|252:128|252:128|238:167|215:197,1,216,2|0,1:2|0:0,0:0:0:0:
108,251,99285,1,10,0:0:0:0:
0,308,99726,6,0,P|-4:268|-10:219,2,81,2|0|0,0:2|1:2|1:2,0:0:0:0:
44,350,100608,2,0,P|94:342|150:348,1,108,2|0,1:2|1:0,0:0:0:0:
256,286,101491,2,0,P|297:283|346:278,2,81,2|0|0,0:0|1:2|1:2,0:0:0:0:
219,237,102373,2,0,P|166:248|111:237,1,108,0|0,1:2|1:0,0:0:0:0:
55,130,103255,6,0,P|59:73|65:4,1,108,2|0,0:0|1:2,0:0:0:0:
169,84,104138,2,0,B|212:82|212:82|238:89|238:89|278:87,1,108,2|0,0:0|1:2,0:0:0:0:
389,131,105020,2,0,P|354:161|334:198,2,81,2|2|0,0:0|0:0|0:0,0:0:0:0:
449,139,105902,1,2,0:0:0:0:
505,115,106122,1,0,0:0:0:0:
511,53,106344,1,2,0:0:0:0:
400,1,106785,2,0,L|339:6,2,54,2|0|4,0:0|1:2|1:2,0:0:0:0:
349,111,107667,6,0,B|308:114|308:114|280:108|280:108|233:112,1,108,2|0,1:2|1:2,0:0:0:0:
143,183,108550,2,0,P|126:239|145:289,1,108,2|0,1:2|1:2,0:0:0:0:
261,264,109432,1,2,1:2:0:0:
288,382,109873,1,2,1:2:0:0:
227,380,110093,1,0,0:0:0:0:
165,379,110314,6,0,B|141:386|113:380|113:380|85:373|58:381,1,108,2|2,1:2|1:2,0:0:0:0:
119,275,111197,1,2,1:2:0:0:
29,192,111638,1,0,1:2:0:0:
90,89,112079,2,0,P|143:103|194:90,1,108,2|2,1:2|1:2,0:0:0:0:
311,121,112961,2,0,P|307:89|304:51,2,54,2|0|2,1:2|0:0|1:2,0:0:0:0:
267,164,113622,1,2,0:0:0:0:
225,208,113844,6,0,P|232:261|240:333,1,108,2|10,1:2|0:0,0:0:0:0:
351,365,114726,1,2,1:2:0:0:
340,246,115167,1,10,0:0:0:0:
238,315,115608,2,0,P|212:316|180:318,2,54,2|0|10,1:2|0:0|0:0,0:0:0:0:
293,339,116269,1,2,0:0:0:0:
351,365,116491,1,0,1:2:0:0:
456,304,116932,1,8,0:0:0:0:
433,247,117152,1,2,0:0:0:0:
410,190,117373,6,0,P|391:137|415:90,1,108,2|8,1:2|0:0,0:0:0:0:
293,63,118255,1,2,1:2:0:0:
173,36,118697,1,8,0:0:0:0:
53,10,119138,2,0,P|60:68|66:129,1,108,2|8,1:2|0:0,0:0:0:0:
160,193,120020,2,0,P|163:162|168:124,2,54,2|0|4,1:2|1:2|1:2,0:0:0:0:
91,293,120902,6,0,P|136:314|194:309,1,108,4|8,1:2|0:2,0:0:0:0:
307,353,121785,1,0,1:2:0:0:
286,232,122226,1,8,0:0:0:0:
402,269,122667,2,0,B|439:266|439:266|470:273|470:273|511:269,1,108,0|8,1:2|0:0,0:0:0:0:
461,156,123550,2,0,P|465:111|470:66,2,81,0|2|0,1:2|0:0|0:0,0:0:0:0:
478,214,124432,6,0,P|429:191|372:193,1,108,0|8,1:2|0:0,0:0:0:0:
256,217,125314,1,0,1:2:0:0:
231,97,125755,1,8,0:0:0:0:
351,73,126197,2,0,P|401:80|459:87,1,108,0|8,1:2|0:0,0:0:0:0:
436,206,127079,2,0,P|477:198|521:192,2,81,0|2|0,1:2|0:0|0:0,0:0:0:0:
393,250,127961,6,0,P|345:225|289:220,1,108,0|8,1:2|0:0,0:0:0:0:
238,109,128844,1,0,1:2:0:0:
359,117,129285,1,8,0:0:0:0:
292,219,129726,2,0,P|243:226|170:233,1,108,0|8,1:2|0:0,0:0:0:0:
99,318,130608,2,0,P|55:313|10:311,2,81,0|2|0,1:2|0:0|0:0,0:0:0:0:
147,355,131491,6,0,P|195:340|249:356,1,108,0|8,1:2|0:0,0:0:0:0:
367,384,132373,1,0,1:2:0:0:
449,294,132814,1,8,0:0:0:0:
396,184,133255,2,0,P|385:132|377:66,1,108,0|8,1:2|0:0,0:0:0:0:
257,96,134138,2,0,P|265:54|272:12,2,81,0|2|0,1:2|0:0|0:0,0:0:0:0:
281,152,135020,6,0,P|229:134|176:138,1,108,0|8,1:2|0:0,0:0:0:0:
59,172,135902,2,0,P|67:130|74:88,2,81,0|2|0,1:2|0:0|0:0,0:0:0:0:
35,228,136785,2,0,B|74:226|74:226|101:235|101:235|141:232,1,108,0|8,1:2|0:0,0:0:0:0:
257,268,137667,2,0,P|227:298|201:332,2,81,0|2|0,1:2|0:0|0:0,0:0:0:0:
266,207,138550,6,0,P|311:233|369:226,1,108,0|8,1:2|0:0,0:0:0:0:
485,249,139432,2,0,P|475:208|468:161,2,81,0|2|0,1:2|0:0|0:0,0:0:0:0:
509,305,140314,2,0,P|452:308|408:342,1,108,0|8,1:2|0:0,0:0:0:0:
365,227,141197,1,0,1:2:0:0:
320,113,141638,6,0,P|324:57|328:4,1,108,4|2,1:2|0:0,0:0:0:0:
