osu file format v14

[General]
AudioFilename: audio.mp3
AudioLeadIn: 0
PreviewTime: 120792
Countdown: 0
SampleSet: Soft
StackLeniency: 0.4
Mode: 0
LetterboxInBreaks: 0
WidescreenStoryboard: 1

[Editor]
Bookmarks: 883,7942,22060,29119,36178,43236,50295,57354,64413,78531,92648
DistanceSpacing: 1.4
BeatDivisor: 4
GridSize: 4
TimelineZoom: 2.3

[Metadata]
Title:Babaroque (Short Ver.)
TitleUnicode:Babaroque (Short Ver.)
Artist:cYsmix
ArtistUnicode:cYsmix
Creator:Mao
Version:Niva's Hard
Source:
Tags:kusemono records oracle niva chaoslitz mir mappers' lounge fa featured artist
BeatmapID:1706332
BeatmapSetID:791667

[Difficulty]
HPDrainRate:6.5
CircleSize:4.2
OverallDifficulty:6.5
ApproachRate:8
SliderMultiplier:1.9
SliderTickRate:1

[Events]
//Background and Video events
0,0,"hard.jpg",0,0
//Break Periods
2,36195,42506
//Storyboard Layer 0 (Background)
//Storyboard Layer 1 (Fail)
//Storyboard Layer 2 (Pass)
//Storyboard Layer 3 (Foreground)
//Storyboard Sound Samples

[TimingPoints]
904,441.176470588235,4,2,0,70,1,0
904,-133.333333333333,4,2,0,75,0,0
1014,-133.333333333333,4,2,0,55,0,0
4433,-100,4,2,0,75,0,0
4764,-100,4,2,0,25,0,0
4874,-133.333333333333,4,2,0,75,0,0
6198,-133.333333333333,4,2,0,70,0,0
7962,-133.333333333333,4,2,0,80,0,0
8073,-133.333333333333,4,2,0,70,0,0
15021,-133.333333333333,4,2,0,80,0,0
15131,-133.333333333333,4,2,0,70,0,0
22080,-133.333333333333,4,2,0,70,0,0
28587,-100,4,2,0,80,0,0
28808,-133.333333333333,4,2,0,70,0,0
30903,-117.647058823529,4,2,0,75,0,0
32668,-105.263157894737,4,2,0,80,0,0
35756,-100,4,2,0,75,0,0
36185,-133.333333333333,4,2,0,75,0,0
36195,441.176470588235,4,2,0,55,1,0
43256,441.176470588235,4,2,0,65,1,0
43256,-133.333333333333,4,2,0,75,0,0
45020,-133.333333333333,4,2,0,70,0,0
48551,-153.846153846154,4,2,0,75,0,0
49433,-100,4,2,0,75,0,0
49763,-100,4,2,0,80,0,0
49983,-100,4,2,0,70,0,0
50315,-133.333333333333,4,2,0,75,0,0
63991,-133.333333333333,4,2,0,85,0,0
64432,-117.647058823529,4,2,0,80,0,1
78329,-133.333333333333,4,2,0,80,0,0
78550,-117.647058823529,4,2,0,80,0,1
92667,-200,4,2,0,60,0,0
99726,-133.333333333333,4,2,0,65,0,0
101491,-133.333333333333,4,2,0,70,0,0
105021,-153.846153846154,4,2,0,75,0,0
105903,-100,4,2,0,75,0,0
106345,-117.647058823529,4,2,0,75,0,0
106786,-153.846153846154,4,2,0,75,0,0
107226,-133.333333333333,4,2,0,80,0,0
107336,-133.333333333333,4,2,0,75,0,0
107668,-133.333333333333,4,2,0,75,0,0
120461,-133.333333333333,4,2,0,85,0,0
120903,-117.647058823529,4,2,0,80,0,1
135020,-133.333333333333,4,2,0,70,0,0
141639,-200,4,2,0,80,0,0
142079,-100,4,2,0,70,0,0

[Colours]
Combo1 : 219,36,72
Combo2 : 251,207,77
Combo3 : 252,84,3
Combo4 : 255,253,174
SliderTrackOverride : 25,2,2
SliderBorder : 255,255,255

[HitObjects]
365,299,21,6,0,P|366:276|370:248,2,47.5,0|0|0,3:0|3:0|3:0,3:3:0:0:
421,178,462,2,0,P|360:213|291:204,1,142.5,8|0,3:3|0:0,0:0:0:0:
291,204,903,5,4,3:2:0:0:
281,325,1345,1,8,0:0:0:0:
172,260,1786,1,0,3:2:0:0:
281,325,2227,1,8,0:0:0:0:
158,384,2668,5,0,3:2:0:0:
281,325,3109,1,8,0:0:0:0:
405,265,3551,2,0,P|402:242|398:213,3,35.625001358986,2|0|0|0,3:2|0:0|0:0|0:0,0:0:0:0:
428,344,3992,2,0,P|449:352|475:360,3,35.625001358986,10|0|0|0,0:0|0:0|0:0|0:0,0:0:0:0:
352,324,4433,6,2,B|329:324|301:323|301:323|265:339|265:339|237:337|211:336,1,142.5,0|0,3:3|0:0,2:2:0:0:
212,336,4874,1,8,0:0:0:0:
93,360,5315,1,0,3:0:0:0:
131,244,5756,1,8,0:0:0:0:
212,336,6198,6,0,P|248:340|283:346,1,71.2500027179719,0|0,1:2|1:2,0:0:0:0:
375,279,6639,2,0,P|387:233|358:180,1,106.875004076958,8|8,0:0|0:0,0:0:0:0:
292,150,7080,5,2,0:0:0:0:
292,150,7521,1,2,0:0:0:0:
292,151,7962,6,0,P|257:151|221:151,1,71.2500027179719,4|0,1:2|0:0,0:0:0:0:
146,246,8403,2,0,P|95:255|51:223,1,106.875004076958,0|0,1:2|0:0,0:0:0:0:
1,230,8845,2,0,P|6:189|9:157,1,71.2500027179719,0|0,1:2|0:0,0:0:0:0:
5,37,9286,2,0,P|48:58|108:49,1,106.875004076958,0|0,1:2|0:0,0:0:0:0:
119,98,9727,6,0,P|152:88|190:85,1,71.2500027179719,0|0,1:2|0:0,0:0:0:0:
277,1,10168,2,0,P|324:19|390:37,1,106.875004076958,0|0,1:2|0:0,0:0:0:0:
451,48,10609,2,0,P|470:44|498:41,3,35.625001358986,2|0|0|0,1:2|0:0|0:0|0:0,0:0:0:0:
474,122,11051,2,0,P|493:118|521:115,3,35.625001358986,2|0|0|0,1:2|0:0|0:0|0:0,0:0:0:0:
504,198,11492,6,0,L|495:273,1,71.2500027179719,2|0,1:3|0:0,0:0:0:0:
416,360,11933,2,0,B|379:358|379:358|348:367|348:367|306:364,1,106.875004076958,0|0,1:2|0:0,0:0:0:0:
275,329,12374,2,0,P|240:332|195:335,1,71.2500027179719,0|0,1:2|0:0,0:0:0:0:
94,282,12815,2,0,P|74:235|95:184,1,106.875004076958,0|0,1:2|0:0,0:0:0:0:
87,135,13256,6,0,P|121:143|157:146,1,71.2500027179719,0|0,1:2|0:0,0:0:0:0:
276,171,13698,2,0,P|328:167|386:162,1,106.875004076958,0|0,1:2|0:0,0:0:0:0:
449,119,14139,2,0,P|459:103|470:84,3,35.625001358986,2|0|0|0,1:2|0:0|0:0|0:0,0:0:0:0:
453,199,14580,2,0,P|464:217|472:234,3,35.625001358986,2|0|0|0,1:2|0:0|0:0|0:0,0:0:0:0:
382,162,15021,6,0,P|345:161|297:159,1,71.2500027179719,4|0,1:2|0:0,0:0:0:0:
209,225,15462,2,0,P|180:187|128:159,1,106.875004076958,0|0,1:2|0:0,0:0:0:0:
78,160,15903,2,0,P|85:125|93:82,1,71.2500027179719,0|0,1:2|0:0,0:0:0:0:
193,22,16345,2,0,B|247:25|301:26,1,106.875004076958,0|0,1:2|0:0,0:0:0:0:
347,8,16786,6,0,P|349:44|365:84,1,71.2500027179719,0|0,1:2|0:0,0:0:0:0:
446,163,17227,2,0,P|399:192|343:191,1,106.875004076958,0|0,1:2|0:0,0:0:0:0:
284,238,17668,2,0,P|265:235|235:232,3,35.625001358986,2|0|0|0,1:2|0:0|0:0|0:0,0:0:0:0:
344,295,18109,2,0,P|363:292|393:289,3,35.625001358986,2|0|0|0,1:2|0:0|0:0|0:0,0:0:0:0:
280,348,18551,6,0,P|243:343|200:340,1,71.2500027179719,2|0,1:3|0:0,0:0:0:0:
104,278,18992,2,0,P|84:229|106:184,1,106.875004076958,0|0,1:2|0:0,0:0:0:0:
143,149,19433,2,0,P|140:118|136:77,1,71.2500027179719,0|0,1:2|0:0,0:0:0:0:
246,199,19874,2,0,B|285:199|285:199|314:208|314:208|357:208,1,106.875004076958,0|0,1:2|0:0,0:0:0:0:
397,187,20315,6,0,P|401:222|409:256,1,71.2500027179719,0|0,1:2|0:0,0:0:0:0:
442,373,20756,2,0,P|392:355|339:363,1,106.875004076958,0|0,1:2|0:0,0:0:0:0:
265,335,21198,2,0,P|260:316|256:295,3,35.625001358986,2|0|0|0,1:2|0:0|0:0|0:0,0:0:0:0:
198,379,21639,2,0,P|193:360|189:339,3,35.625001358986,2|0|0|0,0:2|0:0|0:0|0:0,0:0:0:0:
118,364,22080,6,0,P|83:361|41:358,1,71.2500027179719,0|0,1:2|1:2,0:0:0:0:
1,245,22521,2,0,P|-3:192|44:147,1,118.750004529953,8|8,0:0|0:0,0:0:0:0:
79,43,23109,1,8,0:2:0:0:
79,43,23183,2,0,P|114:50|155:55,1,71.2500027179719,0|8,1:2|0:0,0:0:0:0:
268,76,23624,1,0,0:0:0:0:
387,95,23845,6,0,P|422:102|463:107,1,71.2500027179719,0|0,1:2|1:2,0:0:0:0:
512,210,24286,2,8,P|515:263|463:313,1,118.750004529953
377,383,24874,1,8,0:2:0:0:
377,383,24948,2,0,P|341:379|299:377,1,71.2500027179719,0|8,1:2|0:0,0:0:0:0:
244,272,25389,1,0,0:0:0:0:
128,306,25609,6,0,P|90:305|49:303,1,71.2500027179719,0|0,1:2|1:2,0:0:0:0:
244,272,26051,2,0,B|304:280|357:244,1,118.750004529953,8|8,0:0|0:0,0:0:0:0:
470,284,26639,1,8,0:0:0:0:
470,284,26712,2,0,P|473:244|482:210,1,71.2500027179719,0|8,1:2|0:0,0:0:0:0:
509,95,27153,1,0,0:0:0:0:
392,130,27374,6,0,P|357:128|318:126,1,71.2500027179719,0|0,1:2|1:2,0:0:0:0:
239,216,27815,2,0,P|188:187|121:184,1,118.750004529953,8|8,0:0|0:0,0:0:0:0:
217,82,28403,1,8,0:0:0:0:
217,82,28477,2,0,P|227:49|234:9,1,71.2500027179719,0|4,1:2|1:2,0:0:0:0:
407,146,29139,6,0,P|397:183|390:215,1,71.2500027179719,0|0,1:2|0:0,0:0:0:0:
425,331,29580,2,0,P|386:332|354:336,1,71.2500027179719,0|0,1:2|0:0,0:0:0:0:
242,384,30021,2,0,P|229:348|215:318,1,71.2500027179719,0|0,1:2|0:0,0:0:0:0:
126,234,30462,2,0,P|154:211|180:188,1,71.2500027179719,0|0,1:2|0:0,0:0:0:0:
215,72,30903,6,0,P|247:94|283:115,1,80.750001540184,0|0,1:2|0:0,0:0:0:0:
412,138,31345,2,0,P|398:176|389:215,1,80.750001540184,0|0,1:2|0:0,0:0:0:0:
428,332,31786,2,0,P|387:332|347:337,1,80.750001540184,0|0,1:2|0:0,0:0:0:0:
233,377,32227,2,0,P|220:339|203:301,1,80.750001540184,0|0,1:2|0:0,0:0:0:0:
118,220,32668,6,0,P|155:195|188:164,1,90.2499975900651,4|0,1:2|0:0,0:0:0:0:
277,60,33109,2,0,P|280:104|290:148,1,90.2499975900651,4|0,1:2|0:0,0:0:0:0:
338,276,33551,2,0,P|297:256|254:243,1,90.2499975900651,4|0,1:2|0:0,0:0:0:0:
377,190,33992,1,4,1:2:0:0:
502,140,34212,1,0,0:0:0:0:
256,192,34433,12,8,35756,3:0:0:0:
107,163,43256,6,0,P|119:196|128:230,1,71.2500027179719,2|0,0:0|0:0,0:0:0:0:
117,280,43586,2,0,B|167:260|167:260|223:267,1,106.875004076958,0|0,1:2|1:2,0:0:0:0:
332,312,44138,1,0,1:0:0:0:
332,312,44248,1,0,1:0:0:0:
419,227,44469,2,0,P|436:176|411:124,1,106.875004076958,0|0,1:2|1:2,0:0:0:0:
318,56,45020,6,0,P|284:63|246:69,1,71.2500027179719,2|0,0:0|0:2,0:0:0:0:
214,106,45351,2,0,P|163:100|96:96,1,106.875004076958,0|0,1:2|1:2,0:0:0:0:
33,192,45903,1,2,1:2:0:0:
33,192,46013,1,0,1:2:0:0:
107,287,46233,2,0,P|160:283|214:278,1,106.875004076958,0|0,1:2|1:2,0:0:0:0:
256,192,46785,12,0,48108,0:0:0:0:
358,153,48551,6,0,L|364:109,2,30.8749985866547,2|0|0,0:0|0:0|0:0,0:0:0:0:
371,196,48881,2,0,B|351:202|321:196|321:196|291:190|265:198,1,92.6249957599642,2|0,0:0|0:0,0:0:0:0:
180,242,49433,6,0,P|114:258|59:197,1,142.5,2|0,0:0|0:0,0:0:0:0:
45,139,49873,1,4,1:2:0:0:
45,139,50315,6,0,B|24:196|24:196|52:260,1,118.750004529953,2|2,1:2|0:0,0:0:0:0:
39,281,50755,2,0,P|76:274|115:279,1,71.2500027179719,0|2,1:2|0:0,0:0:0:0:
228,308,51197,2,0,P|283:324|342:308,1,118.750004529953,2|2,1:2|0:0,0:0:0:0:
368,289,51638,1,0,1:2:0:0:
477,339,51858,1,2,0:0:0:0:
476,217,52079,6,0,P|476:160|477:96,1,118.750004529953,2|2,1:2|0:0,0:0:0:0:
486,66,52520,2,0,P|452:74|410:76,1,71.2500027179719,0|2,1:2|0:0,0:0:0:0:
295,90,52961,2,0,P|238:66|169:54,1,118.750004529953,2|2,1:2|0:0,0:0:0:0:
149,49,53403,1,0,1:2:0:0:
27,57,53623,1,2,0:0:0:0:
149,49,53844,6,0,P|208:49|276:49,1,118.750004529953,2|2,1:2|0:0,0:0:0:0:
298,34,54285,2,0,P|334:34|373:34,1,71.2500027179719,0|2,1:2|0:0,0:0:0:0:
434,137,54726,2,0,P|415:194|360:209,1,118.750004529953,2|2,1:2|0:0,0:0:0:0:
332,199,55167,1,0,1:2:0:0:
227,263,55388,1,2,0:0:0:0:
120,324,55608,6,0,P|68:333|12:291,1,118.750004529953,2|2,1:2|0:0,0:0:0:0:
3,267,56050,2,0,P|7:232|10:192,1,71.2500027179719,0|2,1:2|0:0,0:0:0:0:
67,355,56491,2,0,P|34:370|-1:386,1,71.2500027179719,0|2,1:2|0:0,0:0:0:0:
121,259,56932,2,0,P|152:282|182:302,1,71.2500027179719,0|2,1:2|0:0,0:0:0:0:
287,355,57373,6,0,P|341:372|401:353,1,118.750004529953,2|2,1:2|0:0,0:0:0:0:
432,361,57814,2,0,P|430:327|428:282,1,71.2500027179719,8|2,0:0|0:0,0:0:0:0:
484,182,58255,2,0,P|424:180|377:142,1,118.750004529953,2|2,1:2|0:0,0:0:0:0:
362,116,58697,1,8,0:0:0:0:
242,133,58917,1,2,0:0:0:0:
121,147,59138,6,0,P|100:204|122:256,1,118.750004529953,2|2,1:2|0:0,0:0:0:0:
118,288,59579,2,0,L|197:286,1,71.2500027179719,8|2,0:0|0:0,0:0:0:0:
287,358,60020,2,0,B|330:357|330:357|361:366|361:366|405:364,1,118.750004529953,2|2,1:2|0:0,0:0:0:0:
432,383,60461,1,8,0:0:0:0:
500,282,60682,1,2,0:0:0:0:
427,184,60903,6,0,P|445:131|420:74,1,118.750004529953,2|2,1:2|0:0,0:0:0:0:
423,42,61344,2,0,P|388:45|352:48,1,71.2500027179719,8|2,0:0|0:0,0:0:0:0:
238,91,61785,2,0,B|209:97|180:90|180:90|151:83|120:90,1,118.750004529953,2|2,1:2|0:0,0:0:0:0:
96,67,62226,1,8,0:0:0:0:
64,185,62447,1,2,0:0:0:0:
27,300,62667,6,0,P|50:354|106:366,1,118.750004529953,2|2,1:2|0:0,0:0:0:0:
133,383,63108,2,0,P|168:381|208:378,1,71.2500027179719,8|2,0:0|0:0,0:0:0:0:
330,288,63550,2,0,P|294:286|254:284,1,71.2500027179719,2|0,1:2|1:2,0:0:0:0:
434,331,63991,1,12,1:2:0:0:
434,331,64432,6,0,P|435:271|437:197,1,121.125002310276,4|2,1:2|0:0,0:0:0:0:
457,157,64873,2,0,P|420:166|376:156,1,80.750001540184,8|0,0:0|0:0,0:0:0:0:
272,85,65314,2,0,L|280:44,2,40.375000770092,0|2|0,1:2|0:0|0:0,0:0:0:0:
245,212,65755,2,0,P|197:180|135:177,1,121.125002310276,8|2,0:0|0:0,0:0:0:0:
78,186,66197,6,0,P|109:162|133:128,1,80.750001540184,0|0,1:2|0:0,0:0:0:0:
245,64,66638,2,0,L|230:14,2,40.375000770092,8|2|0,0:0|0:0|0:0,0:0:0:0:
288,188,67079,1,0,1:2:0:0:
338,308,67300,1,0,0:0:0:0:
338,308,67410,2,0,P|387:342|450:327,1,121.125002310276,2|0,0:0|0:0,0:0:0:0:
506,217,67961,6,0,P|502:158|498:90,1,121.125002310276,0|2,1:2|0:0,0:0:0:0:
508,39,68403,2,0,P|471:53|426:49,1,80.750001540184,8|0,0:0|0:0,0:0:0:0:
304,19,68844,2,0,L|255:21,2,40.375000770092,0|2|0,1:2|0:0|0:0,0:0:0:0:
340,143,69285,2,0,P|279:147|215:151,1,121.125002310276,8|2,0:0|0:0,0:0:0:0:
183,106,69726,6,0,P|171:151|137:185,1,80.750001540184,0|0,1:2|0:0,0:0:0:0:
178,301,70167,2,0,L|190:351,2,40.375000770092,8|2|0,0:0|0:0|0:0,0:0:0:0:
307,314,70608,2,0,P|349:314|401:313,1,80.750001540184,0|0,1:2|0:0,0:0:0:0:
382,257,70939,2,0,P|424:314|483:332,1,121.125002310276,2|0,0:0|0:0,0:0:0:0:
512,208,71491,6,0,P|509:155|506:88,1,121.125002310276,0|2,1:2|0:0,0:0:0:0:
510,31,71932,2,0,P|474:40|426:31,1,80.750001540184,8|0,0:0|0:0,0:0:0:0:
336,121,72373,2,0,L|297:80,2,40.375000770092,0|2|0,1:2|0:0|0:0,0:0:0:0:
238,205,72814,2,0,P|216:263|245:329,1,121.125002310276,8|2,0:0|0:0,0:0:0:0:
261,367,73255,6,0,P|218:366|172:365,1,80.750001540184,0|0,1:2|0:0,0:0:0:0:
61,314,73697,2,0,L|6:313,2,40.375000770092,8|2|0,0:0|0:0|0:0,0:0:0:0:
166,237,74138,1,0,1:2:0:0:
106,123,74358,1,0,0:0:0:0:
106,123,74469,2,0,P|151:146|220:139,1,121.125002310276,2|0,0:0|0:0,0:0:0:0:
325,64,75020,6,0,B|370:62|370:62|399:74|399:74|443:72,1,121.125002310276,0|2,1:2|0:2,0:0:0:0:
438,17,75461,2,0,P|477:33|522:34,1,80.750001540184,8|0,0:0|0:0,0:0:0:0:
507,164,75903,2,0,L|534:211,2,40.375000770092,0|2|0,1:2|0:0|0:0,0:0:0:0:
396,231,76344,2,0,P|361:285|291:301,1,121.125002310276,8|2,0:0|0:0,0:0:0:0:
327,356,76785,6,0,P|287:350|237:346,1,80.750001540184,0|0,1:2|0:0,0:0:0:0:
123,308,77226,2,0,P|111:326|99:340,2,40.375000770092,8|2|0,0:0|0:0|0:0,0:0:0:0:
216,218,77667,2,0,P|202:186|184:143,1,80.750001540184,0|0,1:2|0:0,0:0:0:0:
158,94,77998,2,0,P|212:122|276:110,1,121.125002310276,2|0,0:0|0:0,0:0:0:0:
358,17,78550,6,0,P|380:72|408:138,1,121.125002310276,4|2,1:2|0:0,0:0:0:0:
461,134,78991,2,0,P|442:175|446:221,1,80.750001540184,8|0,0:0|0:0,0:0:0:0:
430,338,79432,2,0,L|481:336,2,40.375000770092,0|2|0,1:2|0:0|0:0,0:0:0:0:
322,267,79873,2,0,P|258:270|191:274,1,121.125002310276,8|2,0:0|0:0,0:0:0:0:
205,216,80314,6,0,P|170:235|128:240,1,80.750001540184,0|0,1:2|0:0,0:0:0:0:
26,317,80755,2,0,L|30:362,2,40.375000770092,8|2|0,0:0|0:0|0:0,0:0:0:0:
12,187,81197,1,0,1:2:0:0:
0,59,81417,1,0,0:0:0:0:
0,59,81528,2,0,P|48:87|113:79,1,121.125002310276,2|0,0:0|0:0,0:0:0:0:
232,32,82079,6,0,B|263:50|263:50|309:50|309:50|345:67,1,121.125002310276,2|0,1:2|0:0,0:0:0:0:
399,52,82520,2,0,P|389:92|405:137,1,80.750001540184,8|0,0:0|0:0,0:0:0:0:
390,257,82961,2,0,L|440:256,2,40.375000770092,0|2|0,1:2|0:0|0:0,0:0:0:0:
277,192,83403,2,0,B|242:192|242:192|217:199|217:199|193:192|193:192|147:192,1,121.125002310276,8|2,0:0|0:0,0:0:0:0:
166,249,83844,6,0,P|128:231|83:231,1,80.750001540184,0|0,1:2|0:0,0:0:0:0:
50,106,84285,2,0,L|0:109,2,40.375000770092,8|2|0,0:0|0:0|0:0,0:0:0:0:
169,56,84726,2,0,P|172:98|177:152,1,80.750001540184,0|0,1:2|0:0,0:0:0:0:
232,142,85057,2,0,P|185:170|166:234,1,121.125002310276,2|0,0:0|0:0,0:0:0:0:
271,306,85608,6,0,P|318:278|339:217,1,121.125002310276,0|2,1:2|0:0,0:0:0:0:
394,233,86050,2,0,P|379:197|379:154,1,80.750001540184,8|0,0:0|0:0,0:0:0:0:
256,114,86491,2,0,L|256:68,2,40.375000770092,0|2|0,1:2|0:0|0:0,0:0:0:0:
133,155,86932,2,0,P|131:211|97:266,1,121.125002310276,8|2,0:0|0:0,0:0:0:0:
42,255,87373,6,0,P|46:298|49:336,1,80.750001540184,0|0,1:2|0:0,0:0:0:0:
169,384,87814,2,0,L|171:335,2,40.375000770092,8|2|0,0:0|0:0|0:0,0:0:0:0:
284,322,88255,1,0,1:2:0:0:
175,256,88476,1,0,0:0:0:0:
175,256,88586,2,0,P|178:193|181:134,1,121.125002310276,2|0,0:0|0:0,0:0:0:0:
144,11,89138,6,0,P|195:40|261:32,1,121.125002310276,0|2,1:2|0:0,0:0:0:0:
256,91,89579,2,0,P|297:78|344:78,1,80.750001540184,8|0,0:0|0:0,0:0:0:0:
460,44,90020,2,0,L|457:-14,2,40.375000770092,0|2|0,1:2|0:0|0:0,0:0:0:0:
423,168,90461,2,0,P|427:229|432:293,1,121.125002310276,8|2,0:0|0:0,0:0:0:0:
451,343,90903,6,0,P|411:333|363:337,1,80.750001540184,0|0,1:2|0:0,0:0:0:0:
295,231,91344,2,0,L|291:180,2,40.375000770092,8|2|0,0:0|0:0|0:0,0:0:0:0:
272,357,91785,2,0,P|234:365|192:357,1,80.750001540184,0|0,1:2|0:0,0:0:0:0:
142,335,92116,1,2,0:0:0:0:
142,335,92226,2,0,B|101:326|101:326|61:338,1,80.750001540184,0|0,1:2|0:0,0:0:0:0:
47,208,92667,6,0,P|52:163|56:103,1,95,2|0,0:2|1:2,0:0:0:0:
100,317,93550,2,0,P|53:325|-1:339,1,95,2|0,0:0|1:0,0:0:0:0:
163,219,94432,6,0,P|202:243|251:256,1,95,2|0,0:0|1:2,0:0:0:0:
105,308,95314,2,0,P|64:329|28:365,1,95,2|0,0:0|1:2,0:0:0:0:
63,204,96197,6,0,P|64:158|51:109,1,95,2|0,0:0|1:2,0:0:0:0:
147,284,97079,1,2,0:0:0:0:
256,97,97520,1,2,1:2:0:0:
51,110,97961,6,0,P|102:188|193:204,1,190,2|0,0:0|0:0,0:0:0:0:
81,0,99285,1,2,0:0:0:0:
224,80,99726,6,0,P|260:75|298:69,1,71.2500027179719,2|0,0:2|0:2,0:0:0:0:
317,25,100057,2,0,P|359:55|420:60,1,106.875004076958,0|0,1:2|1:2,0:0:0:0:
456,176,100608,1,2,1:2:0:0:
456,176,100719,1,0,1:2:0:0:
501,287,100939,2,0,P|474:340|417:346,1,106.875004076958,0|0,1:2|1:2,0:0:0:0:
312,322,101491,6,0,P|276:325|231:328,1,71.2500027179719,2|0,0:0|0:0,0:0:0:0:
200,357,101822,2,0,P|155:335|99:335,1,106.875004076958,0|0,1:2|1:2,0:0:0:0:
177,242,102373,1,0,1:2:0:0:
177,242,102483,1,0,1:2:0:0:
208,124,102704,2,0,P|199:66|189:1,1,106.875004076958,0|0,1:2|1:2,0:0:0:0:
256,192,103256,12,0,104580,0:3:0:0:
151,287,105021,6,0,L|144:320,2,30.8749985866547,2|0|0,0:0|0:0|0:0,0:0:0:0:
179,259,105351,2,0,P|137:257|94:231,1,92.6249957599642,2|0,0:0|0:0,0:0:0:0:
275,294,105903,6,0,P|320:292|370:289,1,95,2|0,0:0|0:0,0:0:0:0:
458,200,106345,2,0,P|415:197|373:194,1,80.750001540184,2|0,0:0|0:0,0:0:0:0:
323,104,106786,2,0,P|356:103|403:100,1,61.7499971733095,2|0,0:0|1:2,0:0:0:0:
458,200,107226,1,4,1:2:0:0:
482,93,107447,1,0,0:0:0:0:
356,210,107667,6,0,P|296:214|225:219,1,118.750004529953,2|2,1:2|0:0,0:0:0:0:
223,188,108108,2,0,P|189:195|151:188,1,71.2500027179719,0|2,1:2|0:0,0:0:0:0:
75,281,108550,2,0,P|74:339|117:380,1,118.750004529953,2|2,1:2|0:0,0:0:0:0:
149,381,108991,2,0,L|225:378,1,71.2500027179719,0|2,1:2|0:0,0:0:0:0:
333,335,109432,2,0,B|378:333|378:333|405:343|405:343|452:340,1,118.750004529953,2|2,1:2|0:0,0:0:0:0:
482,349,109873,2,0,L|490:405,2,35.625001358986,2|0|2,1:2|0:0|0:0,0:0:0:0:
476,299,110204,1,0,0:0:0:0:
470,250,110314,6,0,L|461:167,1,71.2500027179719,2|0,1:2|0:0,0:0:0:0:
483,59,110755,2,0,P|446:62|402:65,1,71.2500027179719,2|2,1:2|0:0,0:0:0:0:
296,24,111197,2,0,P|256:62|189:57,1,118.750004529953,2|2,1:2|0:0,0:0:0:0:
164,48,111638,1,0,1:2:0:0:
81,135,111858,1,2,0:0:0:0:
180,206,112079,6,0,P|172:265|165:324,1,118.750004529953,2|0,1:2|0:0,0:0:0:0:
158,357,112520,2,0,P|194:357|230:368,1,71.2500027179719,2|0,1:2|0:0,0:0:0:0:
322,291,112961,2,0,P|340:322|348:358,1,71.2500027179719,2|0,1:2|0:0,0:0:0:0:
464,320,113403,1,2,1:2:0:0:
505,206,113623,1,0,0:0:0:0:
505,206,113733,1,0,0:0:0:0:
505,206,113844,6,0,P|458:185|425:118,1,118.750004529953,2|2,1:2|0:0,0:0:0:0:
410,99,114285,2,0,L|393:178,1,71.2500027179719,8|2,0:0|0:0,0:0:0:0:
280,131,114726,2,0,B|245:131|245:131|221:137|221:137|199:131|199:131|154:131,1,118.750004529953,2|2,1:2|0:0,0:0:0:0:
134,114,115167,1,8,0:0:0:0:
123,236,115388,1,2,0:0:0:0:
113,357,115608,6,0,L|197:357,1,71.2500027179719,2|2,1:2|0:0,0:0:0:0:
269,269,116050,1,10,0:0:0:0:
305,383,116270,1,0,0:0:0:0:
390,297,116491,2,0,P|443:284|468:215,1,118.750004529953,2|2,1:2|0:0,0:0:0:0:
465,196,116932,2,0,L|512:196,2,35.625001358986,10|0|2,0:0|0:0|0:0,0:0:0:0:
415,196,117263,1,0,0:0:0:0:
368,196,117373,6,0,L|283:196,1,71.2500027179719,2|0,1:2|0:0,0:0:0:0:
334,312,117814,2,0,L|334:388,1,71.2500027179719,10|2,0:0|0:0,0:0:0:0:
218,351,118255,2,0,P|161:368|105:347,1,118.750004529953,2|2,1:2|0:0,0:0:0:0:
74,358,118697,1,8,0:0:0:0:
5,260,118917,1,2,0:0:0:0:
91,174,119138,6,0,B|94:144|79:117|79:117|64:91|65:56,1,118.750004529953,2|2,1:2|0:0,0:0:0:0:
57,28,119579,2,0,P|91:29|130:30,1,71.2500027179719,8|2,0:0|0:0,0:0:0:0:
263,104,120020,2,0,P|227:105|192:106,1,71.2500027179719,2|0,1:2|1:2,0:0:0:0:
358,37,120461,5,4,1:2:0:0:
358,37,120903,6,0,P|362:94|366:159,1,121.125002310276,4|2,1:2|0:0,0:0:0:0:
419,139,121344,2,0,P|417:182|414:225,1,80.750001540184,8|0,0:2|0:0,0:0:0:0:
385,344,121785,2,0,L|389:393,2,40.375000770092,0|2|0,1:2|0:0|0:0,0:0:0:0:
275,278,122226,2,0,P|215:296|156:275,1,121.125002310276,8|2,0:0|0:0,0:0:0:0:
165,335,122667,6,0,P|130:320|86:320,1,80.750001540184,0|0,1:2|0:0,0:0:0:0:
17,213,123108,2,0,L|-21:225,2,40.375000770092,8|2|0,0:0|0:0|0:0,0:0:0:0:
100,112,123550,1,0,1:2:0:0:
217,163,123770,1,0,0:0:0:0:
217,163,123880,2,0,P|276:178|337:151,1,121.125002310276,2|0,0:0|0:0,0:0:0:0:
434,79,124432,6,0,P|440:143|447:207,1,121.125002310276,0|2,1:2|0:0,0:0:0:0:
501,213,124873,2,0,P|472:242|457:289,1,80.750001540184,8|0,0:0|0:0,0:0:0:0:
341,331,125314,2,0,L|334:279,2,40.375000770092,0|2|0,1:2|0:0|0:0,0:0:0:0:
222,379,125755,2,0,B|190:388|161:380|161:380|134:373|98:380,1,121.125002310276,8|2,0:0|0:0,0:0:0:0:
117,323,126197,6,0,P|77:325|29:328,1,80.750001540184,0|0,1:2|0:0,0:0:0:0:
0,204,126638,2,0,L|44:202,2,40.375000770092,8|2|0,0:0|0:0|0:0,0:0:0:0:
20,76,127079,2,0,P|56:73|103:69,1,80.750001540184,0|0,1:2|0:0,0:0:0:0:
126,19,127410,2,0,P|160:66|223:74,1,121.125002310276,2|0,0:0|0:0,0:0:0:0:
248,201,127961,6,0,P|296:171|366:178,1,121.125002310276,0|2,1:2|0:0,0:0:0:0:
412,192,128403,2,0,L|405:110,1,80.750001540184,8|0,0:0|0:0,0:0:0:0:
484,12,128844,2,0,L|528:9,2,40.375000770092,0|2|0,1:2|0:0|0:0,0:0:0:0:
355,0,129285,2,0,P|297:4|233:7,1,121.125002310276,8|2,0:0|0:0,0:0:0:0:
178,0,129726,6,0,P|191:42|173:84,1,80.750001540184,0|0,1:2|0:0,0:0:0:0:
200,203,130167,2,0,L|252:175,2,40.375000770092,8|2|0,0:0|0:0|0:0,0:0:0:0:
68,143,130608,1,0,1:2:0:0:
89,271,130829,1,0,0:0:0:0:
89,271,130939,2,0,P|94:333|148:371,1,121.125002310276,2|0,0:0|0:0,0:0:0:0:
266,360,131491,6,0,B|311:358|311:358|342:369|342:369|386:367,1,121.125002310276,0|2,1:2|0:0,0:0:0:0:
379,311,131932,2,0,P|418:332|463:334,1,80.750001540184,8|0,0:0|0:0,0:0:0:0:
510,219,132373,2,0,L|506:163,2,40.375000770092,0|2|0,1:2|0:0|0:0,0:0:0:0:
381,208,132814,2,0,P|316:208|255:208,1,121.125002310276,8|2,0:0|0:0,0:0:0:0:
208,186,133255,6,0,P|169:186|120:186,1,80.750001540184,0|0,1:2|0:0,0:0:0:0:
76,304,133697,2,0,L|23:305,2,40.375000770092,8|2|0,0:0|0:0|0:0,0:0:0:0:
187,370,134138,2,0,P|219:349|264:342,1,80.750001540184,0|0,1:2|0:0,0:0:0:0:
276,289,134469,2,0,P|326:321|391:306,1,121.125002310276,2|0,0:0|0:0,0:0:0:0:
492,242,135020,5,0,1:2:0:0:
492,242,135241,2,0,P|488:200|486:146,1,71.2500027179719,2|8,0:0|0:0,0:0:0:0:
500,122,135572,2,0,P|448:140|388:130,1,106.875004076958,2|0,0:0|1:2,0:0:0:0:
284,88,136123,1,0,0:0:0:0:
284,88,136233,2,0,P|228:90|178:91,1,106.875004076958,2|0,0:0|0:0,0:0:0:0:
58,62,136785,5,0,1:2:0:0:
88,178,137005,2,0,P|97:211|110:257,1,71.2500027179719,2|8,0:0|0:0,0:0:0:0:
102,296,137336,2,0,P|150:268|204:272,1,106.875004076958,2|0,0:0|1:2,0:0:0:0:
305,209,137888,1,0,0:0:0:0:
305,209,137998,2,0,P|350:235|403:232,1,106.875004076958,2|0,0:0|0:0,0:0:0:0:
378,112,138550,5,0,1:2:0:0:
305,209,138770,2,0,P|310:244|317:297,1,71.2500027179719,2|8,0:0|0:0,0:0:0:0:
339,323,139101,2,0,P|286:309|235:321,1,106.875004076958,2|0,0:0|1:2,0:0:0:0:
135,252,139653,1,0,0:0:0:0:
135,252,139763,2,0,P|109:210|122:151,1,106.875004076958,2|0,0:0|0:0,0:0:0:0:
102,35,140314,5,0,1:2:0:0:
213,82,140535,2,0,P|247:80|284:77,1,71.2500027179719,2|8,0:0|0:0,0:0:0:0:
324,47,140866,2,0,P|354:86|410:101,1,106.875004076958,2|0,0:0|1:2,0:0:0:0:
364,214,141417,1,8,3:0:0:0:
320,325,141639,6,0,P|369:328|416:331,1,95,4|2,1:2|0:0,0:0:0:0:
