osu file format v14

[General]
AudioFilename: audio.mp3
AudioLeadIn: 0
PreviewTime: 120792
Countdown: 0
SampleSet: Soft
StackLeniency: 0.2
Mode: 0
LetterboxInBreaks: 0
WidescreenStoryboard: 0

[Editor]
DistanceSpacing: 0.5
BeatDivisor: 6
GridSize: 4
TimelineZoom: 2.4

[Metadata]
Title:Babaroque (Short Ver.)
TitleUnicode:Babaroque (Short Ver.)
Artist:cYsmix
ArtistUnicode:cYsmix
Creator:Mao
Version:Extravagant
Source:
Tags:kusemono records oracle niva chaoslitz mir mappers' lounge fa featured artist
BeatmapID:1660763
BeatmapSetID:791667

[Difficulty]
HPDrainRate:7
CircleSize:3.8
OverallDifficulty:8
ApproachRate:9
SliderMultiplier:2
SliderTickRate:1

[Events]
//Background and Video events
0,0,"extra.jpg",0,0
//Break Periods
2,36395,42657
//Storyboard Layer 0 (Background)
//Storyboard Layer 1 (Fail)
//Storyboard Layer 2 (Pass)
//Storyboard Layer 3 (Foreground)
//Storyboard Sound Samples

[TimingPoints]
904,441.176470588235,4,2,0,40,1,0
904,-76.9230769230769,4,2,0,40,0,0
1345,-100,4,2,0,40,0,0
7962,-66.6666666666667,4,2,0,50,0,0
8403,-100,4,2,0,50,0,0
15021,-66.6666666666667,4,2,0,50,0,0
15242,-100,4,2,0,50,0,0
22080,-83.3333333333333,4,2,0,65,0,0
23845,-83.3333333333333,4,2,0,70,0,0
25609,-83.3333333333333,4,2,0,75,0,0
27374,-83.3333333333333,4,2,0,80,0,0
28698,-55.5555555555556,4,2,0,80,0,0
28918,-83.3333333333333,4,2,0,80,0,0
29139,-83.3333333333333,4,2,0,85,0,0
30903,-83.3333333333333,4,2,0,90,0,0
33109,-76.9230769230769,4,2,0,91,0,0
33551,-71.4285714285714,4,2,0,92,0,0
33992,-66.6666666666667,4,2,0,93,0,0
34433,-83.3333333333333,4,2,0,94,0,0
35756,-83.3333333333333,4,2,0,70,0,0
36195,441.176470588235,4,3,0,30,1,0
36195,-111.111111111111,4,3,0,30,0,0
43256,441.176470588235,4,2,0,40,1,0
45020,-100,4,2,0,50,0,0
46785,-100,4,2,0,60,0,0
48329,-50,4,2,0,60,0,0
48550,-55.5555555555556,4,2,0,60,0,0
49983,-50,4,2,0,60,0,0
50314,-133.333333333333,4,2,0,60,0,0
53623,-117.647058823529,4,2,0,60,0,0
57152,-105.263157894737,4,2,0,60,0,0
57373,-105.263157894737,4,2,0,70,0,0
57741,-80,4,2,0,70,0,0
58035,-105.263157894737,4,2,0,70,0,0
58623,-80,4,2,0,70,0,0
58917,-105.263157894737,4,2,0,70,0,0
59505,-80,4,2,0,70,0,0
59800,-105.263157894737,4,2,0,70,0,0
60388,-80,4,2,0,70,0,0
60902,-95.238095238095,4,2,0,70,0,0
61270,-74.0740740740741,4,2,0,70,0,0
61564,-95.2380952380952,4,2,0,70,0,0
62153,-74.0740740740741,4,2,0,70,0,0
62447,-95.2380952380952,4,2,0,70,0,0
63035,-74.0740740740741,4,2,0,70,0,0
64101,-50,4,2,0,70,0,0
64432,-66.6666666666667,4,2,0,80,0,1
64763,-58.8235294117647,4,2,0,80,0,1
65094,-66.6666666666667,4,2,0,80,0,1
65425,-58.8235294117647,4,2,0,80,0,1
66307,-66.6666666666667,4,2,0,80,0,1
66638,-58.8235294117647,4,2,0,80,0,1
67079,-66.6666666666667,4,2,0,80,0,1
67410,-58.8235294117647,4,2,0,80,0,1
67741,-66.6666666666667,4,2,0,80,0,1
68292,-58.8235294117647,4,2,0,80,0,1
68623,-66.6666666666667,4,2,0,80,0,1
68954,-58.8235294117647,4,2,0,80,0,1
69285,-66.6666666666667,4,2,0,80,0,1
69616,-58.8235294117647,4,2,0,80,0,1
69947,-66.6666666666667,4,2,0,80,0,1
70277,-58.8235294117647,4,2,0,80,0,1
70608,-66.6666666666667,4,2,0,80,0,1
70939,-58.8235294117647,4,2,0,80,0,1
71491,-66.6666666666667,4,2,0,80,0,1
71822,-58.8235294117647,4,2,0,80,0,1
72152,-66.6666666666667,4,2,0,80,0,1
72483,-58.8235294117647,4,2,0,80,0,1
73476,-66.6666666666667,4,2,0,80,0,1
73807,-58.8235294117647,4,2,0,80,0,1
74138,-66.6666666666667,4,2,0,80,0,1
74469,-58.8235294117647,4,2,0,80,0,1
75020,-66.6666666666667,4,2,0,80,0,1
75351,-58.8235294117647,4,2,0,80,0,1
75682,-66.6666666666667,4,2,0,80,0,1
76013,-58.8235294117647,4,2,0,80,0,1
77005,-66.6666666666667,4,2,0,80,0,1
77336,-58.8235294117647,4,2,0,80,0,1
77667,-66.6666666666667,4,2,0,80,0,1
77998,-58.8235294117647,4,2,0,80,0,1
78439,-58.8235294117647,4,2,0,80,0,0
78550,-58.8235294117647,4,2,0,90,0,1
78770,-52.6315789473684,4,2,0,90,0,1
79211,-58.8235294117647,4,2,0,90,0,1
79542,-52.6315789473684,4,2,0,90,0,1
80535,-58.8235294117647,4,2,0,90,0,1
80866,-52.6315789473684,4,2,0,90,0,1
81197,-58.8235294117647,4,2,0,90,0,1
81527,-52.6315789473684,4,2,0,90,0,1
82079,-58.8235294117647,4,2,0,90,0,1
82410,-52.6315789473684,4,2,0,90,0,1
82741,-58.8235294117647,4,2,0,90,0,1
83072,-52.6315789473684,4,2,0,90,0,1
84064,-58.8235294117647,4,2,0,90,0,1
84395,-52.6315789473684,4,2,0,90,0,1
84726,-58.8235294117647,4,2,0,90,0,1
85057,-52.6315789473684,4,2,0,90,0,1
85608,-58.8235294117647,4,2,0,90,0,1
85939,-52.6315789473684,4,2,0,90,0,1
86270,-58.8235294117647,4,2,0,90,0,1
86601,-52.6315789473684,4,2,0,90,0,1
87594,-58.8235294117647,4,2,0,90,0,1
87925,-52.6315789473684,4,2,0,90,0,1
88255,-58.8235294117647,4,2,0,90,0,1
88586,-52.6315789473684,4,2,0,90,0,1
89138,-58.8235294117647,4,2,0,90,0,1
89469,-52.6315789473684,4,2,0,90,0,1
89800,-58.8235294117647,4,2,0,90,0,1
90130,-52.6315789473684,4,2,0,90,0,1
91123,-58.8235294117647,4,2,0,90,0,1
91454,-52.6315789473684,4,2,0,90,0,1
92667,-200,4,2,0,30,0,0
99726,-133.333333333333,4,2,0,40,0,0
101491,-100,4,2,0,50,0,0
103255,-100,4,2,0,60,0,0
104800,-50,4,2,0,60,0,0
105351,-55.5555555555556,4,2,0,60,0,0
107226,-50,4,2,0,60,0,0
107667,-100,4,2,0,60,0,0
107998,-66.6666666666667,4,2,0,60,0,0
108550,-100,4,2,0,60,0,0
113844,-83.3333333333333,4,2,0,70,0,0
120461,-45.4545454545455,4,2,0,70,0,0
120903,-58.8235294117647,4,2,0,90,0,1
121233,-52.6315789473684,4,2,0,90,0,1
121564,-58.8235294117647,4,2,0,90,0,1
121895,-52.6315789473684,4,2,0,90,0,1
122888,-58.8235294117647,4,2,0,90,0,1
123219,-52.6315789473684,4,2,0,90,0,1
123550,-58.8235294117647,4,2,0,90,0,1
123880,-52.6315789473684,4,2,0,90,0,1
124432,-58.8235294117647,4,2,0,90,0,1
124763,-52.6315789473684,4,2,0,90,0,1
125094,-58.8235294117647,4,2,0,90,0,1
125425,-52.6315789473684,4,2,0,90,0,1
126417,-58.8235294117647,4,2,0,90,0,1
126748,-52.6315789473684,4,2,0,90,0,1
127079,-58.8235294117647,4,2,0,90,0,1
127410,-52.6315789473684,4,2,0,90,0,1
127961,-66.6666666666667,4,2,0,70,0,1
135020,-100,4,2,0,50,0,0
141748,-100,4,2,0,40,0,0
141858,-100,4,2,0,30,0,0
141969,-100,4,2,0,25,0,0
142079,-100,4,2,0,20,0,0
142189,-100,4,2,0,5,0,0

[Colours]
Combo1 : 0,115,255
Combo2 : 205,114,254
Combo3 : 255,34,177
Combo4 : 253,176,203
SliderTrackOverride : 2,3,25
SliderBorder : 255,255,255

[HitObjects]
99,180,904,6,0,P|66:125|74:62,1,129.999994049073,2|0,0:1|0:0,0:0:0:0:
21,239,1345,2,0,P|15:141|73:62,1,200,2|0,0:0|0:0,0:0:0:0:
170,38,2227,1,2,0:3:0:0:
249,99,2668,1,2,0:0:0:0:
224,205,3108,1,2,3:0:0:0:
261,303,3550,5,2,0:0:0:0:
283,306,3660,1,0,0:0:0:0:
305,310,3770,1,0,0:0:0:0:
326,313,3880,1,0,0:0:0:0:
383,360,3991,1,8,0:0:0:0:
405,356,4101,1,0,0:0:0:0:
427,352,4211,1,0,0:0:0:0:
448,349,4323,1,0,0:0:0:0:
505,301,4432,6,2,B|452:318|452:318|473:221|473:221|445:178,1,200,2|2,0:0|0:3,0:0:0:0:
373,117,5314,1,2,0:0:0:0:
467,85,5755,1,2,3:0:0:0:
390,20,6197,5,8,0:3:0:0:
295,177,6417,1,8,0:3:0:0:
259,0,6639,2,0,B|215:24|215:24|193:133,1,150,8|0,0:0|0:0,0:0:0:0:
184,194,7079,1,2,0:0:0:0:
63,106,7300,1,0,0:0:0:0:
60,96,7410,1,0,0:0:0:0:
57,86,7520,1,2,0:0:0:0:
54,76,7630,1,0,0:0:0:0:
51,66,7741,1,4,0:3:0:0:
0,223,7962,6,0,P|48:209|129:257,1,150.000005722046,2|0,0:1|0:0,0:0:0:0:
290,369,8403,2,2,P|242:383|161:335,1,150.000005722046,8|0,0:0|0:0,0:0:0:0:
160,334,8844,2,0,P|199:305|214:258,1,100,4|0,0:3|0:0,0:0:0:0:
287,104,9285,2,0,P|320:142|323:194,1,100,8|0,0:0|0:0,0:0:0:0:
321,209,9617,1,0,0:0:0:0:
314,227,9727,1,4,0:3:0:0:
362,328,9948,1,0,0:0:0:0:
470,224,10168,2,0,P|485:184|457:78,1,150,8|0,0:0|0:0,0:0:0:0:
405,27,10608,5,6,0:3:0:0:
387,45,10719,1,0,0:0:0:0:
363,54,10829,1,0,3:0:0:0:
338,54,10939,1,0,3:0:0:0:
343,135,11050,1,8,0:0:0:0:
317,134,11161,1,0,0:0:0:0:
294,123,11271,1,2,0:0:0:0:
276,105,11381,1,0,0:0:0:0:
232,39,11491,6,0,P|223:90|176:149,1,100,4|0,0:0|0:0,0:0:0:0:
54,4,11933,2,0,P|43:54|71:148,1,150,8|0,0:0|0:0,0:0:0:0:
134,194,12374,1,4,0:3:0:0:
37,263,12595,1,0,0:0:0:0:
173,357,12815,2,0,P|216:328|267:326,1,100,8|0,0:0|0:0,0:0:0:0:
287,330,13146,1,0,3:0:0:0:
309,340,13256,5,4,0:3:0:0:
412,383,13477,1,0,0:0:0:0:
505,229,13698,2,0,P|428:246|378:327,1,150,8|0,0:0|0:0,0:0:0:0:
309,340,14139,5,6,0:3:0:0:
304,315,14248,1,0,0:0:0:0:
299,290,14358,1,0,0:0:0:0:
294,265,14469,1,0,3:0:0:0:
241,201,14579,1,8,0:0:0:0:
246,176,14690,1,0,0:0:0:0:
251,151,14800,1,0,3:0:0:0:
256,126,14911,1,0,3:0:0:0:
215,55,15021,6,0,P|172:100|160:198,1,150.000005722046,2|0,0:1|0:0,0:0:0:0:
320,226,15462,2,2,P|342:166|317:69,1,150,10|0,0:0|0:0,0:0:0:0:
326,83,15903,2,0,P|366:99|439:81,1,100,4|0,0:3|0:0,0:0:0:0:
510,224,16344,2,0,P|460:224|417:248,1,100,8|0,0:0|0:0,0:0:0:0:
406,265,16676,1,0,3:0:0:0:
400,284,16786,1,4,3:0:0:0:
495,353,17005,1,0,0:0:0:0:
327,368,17227,2,0,P|294:305|306:220,1,150,8|0,0:0|0:0,0:0:0:0:
317,149,17667,5,4,0:3:0:0:
292,144,17778,1,0,3:0:0:0:
268,151,17888,1,0,3:0:0:0:
249,167,17998,1,0,3:0:0:0:
170,157,18108,1,10,0:0:0:0:
164,182,18219,1,0,0:0:0:0:
171,206,18329,1,0,0:0:0:0:
186,224,18439,1,0,0:0:0:0:
214,306,18550,6,2,P|167:316|104:362,1,100,6|0,0:0|0:0,0:0:0:0:
33,206,18992,2,0,P|21:136|52:58,1,150,8|0,0:0|0:0,0:0:0:0:
110,20,19433,1,4,0:3:0:0:
142,147,19652,1,0,0:0:0:0:
257,27,19874,2,0,P|312:16|374:51,1,100,8|0,0:0|0:0,0:0:0:0:
365,46,20205,1,0,3:0:0:0:
372,64,20315,5,4,3:0:0:0:
397,169,20536,1,0,0:0:0:0:
512,52,20756,2,0,P|514:135|481:209,1,150,8|0,0:0|0:0,0:0:0:0:
432,252,21198,5,4,3:0:0:0:
426,271,21307,1,0,3:0:0:0:
420,290,21417,1,0,0:0:0:0:
415,309,21527,1,0,3:0:0:0:
349,362,21638,1,8,3:2:0:0:
340,338,21748,1,0,0:0:0:0:
331,314,21858,1,0,3:0:0:0:
322,290,21969,1,0,3:0:0:0:
258,225,22080,6,0,P|264:304|247:340,1,119.999996337891,6|0,0:0|0:0,0:0:0:0:
85,384,22521,2,0,P|64:328|74:269,1,119.999996337891,8|0,0:0|0:0,0:0:0:0:
0,239,22852,2,0,P|25:185|73:150,1,119.999996337891,2|0,0:3|0:0,0:0:0:0:
42,76,23182,1,2,0:3:0:0:
85,57,23292,1,0,0:0:0:0:
133,57,23402,1,8,0:0:0:0:
308,19,23623,1,0,0:0:0:0:
308,19,23733,1,0,0:0:0:0:
308,19,23844,6,0,P|304:83|273:136,1,119.999996337891,6|0,0:0|0:0,0:0:0:0:
85,57,24285,2,0,P|106:117|150:159,1,119.999996337891,8|0,0:0|0:0,0:0:0:0:
70,222,24616,2,0,P|127:249|189:248,1,119.999996337891,2|0,0:3|0:0,0:0:0:0:
176,349,24947,1,2,0:3:0:0:
221,335,25057,1,0,0:0:0:0:
260,307,25168,2,0,P|279:340|360:372,1,119.999996337891,8|0,0:0|0:0,0:0:0:0:
508,269,25609,5,4,0:0:0:0:
352,274,25830,1,0,0:0:0:0:
352,274,25940,1,0,0:0:0:0:
352,273,26051,2,0,P|378:220|426:185,1,119.999996337891,8|0,0:0|0:0,0:0:0:0:
473,104,26381,2,0,P|414:96|358:114,1,119.999996337891,2|0,0:3|0:0,0:0:0:0:
263,109,26711,1,2,0:3:0:0:
282,65,26823,1,0,0:0:0:0:
316,31,26933,1,8,0:0:0:0:
170,152,27153,2,0,P|142:140|113:131,1,59.9999981689454
32,118,27374,5,4,0:0:0:0:
147,254,27595,1,0,0:0:0:0:
147,254,27705,1,0,0:0:0:0:
147,254,27815,2,0,P|206:248|258:203,1,119.999996337891,8|0,0:0|0:0,0:0:0:0:
299,126,28146,2,0,P|336:171|341:240,1,119.999996337891,2|0,0:3|0:0,0:0:0:0:
319,325,28476,1,2,0:3:0:0:
366,322,28586,1,0,0:0:0:0:
408,300,28698,2,0,P|389:347|389:403,1,89.9999972534181,0|0,1:0|0:0,0:0:0:0:
487,234,28917,1,2,0:1:0:0:
487,234,29027,1,0,0:0:0:0:
487,234,29138,5,4,0:0:0:0:
408,300,29358,1,0,0:0:0:0:
447,159,29579,1,8,0:0:0:0:
336,259,29801,1,0,0:0:0:0:
408,85,30020,1,4,0:3:0:0:
266,213,30242,1,0,0:0:0:0:
368,10,30461,1,8,0:0:0:0:
196,166,30683,1,0,0:0:0:0:
358,94,30902,5,4,0:0:0:0:
285,7,31124,1,0,0:0:0:0:
300,167,31345,1,8,0:0:0:0:
199,38,31565,1,0,0:0:0:0:
243,240,31786,1,4,0:3:0:0:
114,74,32006,1,0,0:0:0:0:
186,313,32227,1,8,0:0:0:0:
29,112,32447,1,0,0:0:0:0:
55,355,32667,6,0,L|123:362,1,59.9999981689454,0|0,1:0|0:0,0:0:0:0:
241,380,32888,1,4,0:3:0:0:
39,277,33109,2,0,L|107:284,1,64.9999970245363,0|0,1:0|0:0,0:0:0:0:
225,302,33329,1,4,0:3:0:0:
23,199,33551,2,0,L|97:206,1,69.9999978637696,0|0,1:0|0:0,0:0:0:0:
209,224,33771,1,4,0:3:0:0:
7,121,33992,2,0,L|81:130,1,75.0000028610231,0|0,1:0|0:0,0:0:0:0:
193,146,34211,1,4,0:3:0:0:
426,36,34432,5,0,1:0:0:0:
374,12,34542,1,0,3:0:0:0:
318,24,34652,1,4,3:0:0:0:
278,60,34763,1,0,3:0:0:0:
270,110,34873,2,0,L|278:145,2,29.9999990844727,4|0|0,3:0|3:0|3:0,3:0:0:0:
356,121,35094,1,4,3:0:0:0:
380,167,35204,1,0,3:0:0:0:
361,210,35315,2,0,L|350:248,2,29.9999990844727,4|0|0,3:0|3:0|3:0,3:0:0:0:
289,291,35535,2,0,L|300:329,2,29.9999990844727,4|0|0,3:0|3:0|3:0,3:0:0:0:
366,372,35755,5,0,0:0:0:0:
366,372,35976,2,0,L|458:382,1,59.9999981689454,0|0,1:0|0:0,0:0:0:0:
217,354,36195,5,4,0:0:0:0:
358,366,43257,53,4,0:0:0:0:
474,309,43477,1,0,0:0:0:0:
474,309,43587,2,0,P|452:263|451:214,1,100,0|0,1:0|0:0,0:0:0:0:
490,149,43918,1,0,1:0:0:0:
448,36,44139,1,0,1:0:0:0:
448,36,44249,1,0,1:0:0:0:
332,70,44470,1,0,0:0:0:0:
332,70,44580,1,0,1:0:0:0:
372,183,44801,1,0,1:0:0:0:
281,341,45021,5,6,0:0:0:0:
241,227,45242,1,0,1:0:0:0:
241,227,45352,2,0,P|183:249|147:299,1,100,0|0,1:0|0:0,0:0:0:0:
82,272,45683,2,0,P|121:305|131:328,1,50,0|0,1:0|0:0,0:0:0:0:
149,381,45903,1,0,1:0:0:0:
149,381,46014,1,0,1:0:0:0:
6,312,46234,1,0,0:0:0:0:
6,312,46345,1,0,1:0:0:0:
30,158,46565,1,0,1:0:0:0:
40,162,46676,1,0,1:0:0:0:
86,191,46786,5,6,1:2:0:0:
125,182,46896,1,0,1:0:0:0:
164,173,47006,1,0,1:0:0:0:
203,165,47117,1,0,1:0:0:0:
244,94,47227,1,0,1:0:0:0:
283,101,47337,1,0,1:0:0:0:
322,109,47448,1,0,1:0:0:0:
341,143,47558,1,0,1:0:0:0:
407,99,47668,6,0,L|450:94,2,25,6|0|0,1:2|1:0|1:0,1:0:0:0:
512,84,47889,1,0,1:0:0:0:
506,123,47999,1,0,1:0:0:0:
485,157,48109,2,0,L|494:203,2,25,0|0|0,1:0|1:0|1:0,1:0:0:0:
430,246,48330,2,0,L|421:292,4,25,0|0|0|0|0,2:0|2:0|2:0|2:0|2:0,2:0:0:0:
477,350,48551,5,2,1:0:0:0:
390,373,48661,1,0,0:0:0:0:
339,299,48771,1,0,0:0:0:0:
425,270,48881,2,2,P|452:187|421:97,1,179.999994506836,2|0,0:0|0:0,0:3:0:0:
416,15,49212,2,0,P|370:35|344:71,1,89.9999972534181,2|0,0:0|0:0,0:0:0:0:
264,150,49433,2,2,B|309:151|309:151|330:190,1,89.9999972534181,6|0,0:0|0:0,0:3:0:0:
198,91,49653,1,2,0:0:0:0:
198,91,49764,2,0,P|176:129|181:174,1,89.9999972534181,0|0,0:0|1:0,0:0:0:0:
125,361,49984,6,2,B|173:332|158:271|105:230|36:253,1,200,4|0,0:0|0:0,0:3:0:0:
43,252,50315,6,0,L|22:157,1,75.0000028610231,6|0,1:0|0:0,0:0:0:0:
9,103,50682,1,2,0:1:0:0:
157,261,50977,1,2,0:1:0:0:
157,261,51198,2,0,L|152:163,1,75.0000028610231,2|0,1:0|0:0,0:0:0:0:
149,108,51564,1,2,0:1:0:0:
267,289,51859,1,2,0:1:0:0:
267,289,52080,6,0,L|279:192,1,75.0000028610231,2|0,1:0|0:0,0:0:0:0:
286,137,52447,1,2,0:1:0:0:
371,336,52742,1,2,0:1:0:0:
371,336,52962,2,0,L|400:243,1,75.0000028610231,2|0,1:0|0:0,0:0:0:0:
416,189,53329,1,2,0:1:0:0:
510,14,53624,2,0,L|447:6,1,42.5000008106232,2|0,0:1|0:0,0:0:0:0:
467,8,53845,6,0,L|485:102,1,85.0000016212464,6|0,1:0|0:0,0:0:0:0:
499,167,54211,1,2,0:1:0:0:
425,339,54506,2,0,L|362:347,1,42.5000008106232,2|0,0:1|0:0,0:0:0:0:
382,344,54727,2,0,L|400:250,1,85.0000016212464,2|0,1:0|0:0,0:0:0:0:
414,186,55094,1,2,0:1:0:0:
337,46,55389,2,0,L|274:38,1,42.5000008106232,2|0,0:1|0:0,0:0:0:0:
294,40,55609,6,0,L|312:134,1,85.0000016212464,2|0,1:0|0:0,0:0:0:0:
326,199,55976,1,2,0:1:0:0:
251,372,56271,2,0,L|188:380,1,42.5000008106232,2|0,0:1|0:0,0:0:0:0:
208,377,56492,2,0,L|226:283,1,85.0000016212464,2|0,1:0|0:0,0:0:0:0:
240,219,56858,1,2,0:1:0:0:
215,25,57153,2,0,P|204:44|166:58,1,47.4999987316132,2|0,0:1|0:0,0:0:0:0:
183,57,57374,6,0,P|149:27|59:25,1,94.9999974632264,6|0,1:0|0:0,0:0:0:0:
111,99,57741,2,0,P|87:94|64:98,1,41.6666666666667,2|8,0:1|0:1,0:0:0:0:
305,75,58036,2,0,P|316:94|354:108,1,47.4999987316132,2|0,0:1|0:0,0:0:0:0:
337,106,58256,2,0,P|371:77|461:75,1,94.9999974632264,2|0,1:0|0:0,0:0:0:0:
408,149,58623,2,0,P|432:144|455:148,1,41.6666666666667,2|8,0:1|0:1,0:0:0:0:
214,221,58918,2,0,P|203:240|165:254,1,47.4999987316132,2|0,0:1|0:0,0:0:0:0:
181,252,59139,6,0,P|148:223|58:221,1,94.9999974632264,2|0,1:0|0:0,0:0:0:0:
110,295,59505,2,0,P|86:290|63:294,1,41.6666666666667,2|8,0:1|0:1,0:0:0:0:
304,271,59801,2,0,P|315:290|353:304,1,47.4999987316132,2|0,0:1|0:0,0:0:0:0:
336,302,60021,2,0,P|370:273|460:271,1,94.9999974632264,2|0,1:0|0:0,0:0:0:0:
407,345,60388,2,0,P|431:340|454:344,1,41.6666666666667,2|8,0:1|0:1,0:0:0:0:
472,127,60683,1,2,0:1:0:0:
472,127,60793,1,0,0:0:0:0:
472,127,60903,6,0,L|456:6,1,104.999996795654,6|0,1:1|0:0,0:0:0:0:
428,210,61270,2,0,L|415:285,1,45.0000001716614,2|8,0:1|0:1,0:0:0:0:
382,106,61565,1,2,0:1:0:0:
382,106,61675,1,0,0:0:0:0:
382,106,61785,2,0,L|366:-15,1,104.999996795654,2|0,1:0|0:0,0:0:0:0:
338,189,62153,2,0,L|328:241,1,45.0000001716614,2|8,0:1|0:1,0:0:0:0:
40,127,62448,1,2,0:1:0:0:
40,127,62558,1,0,0:0:0:0:
40,127,62668,6,0,L|56:6,1,104.999996795654,2|0,1:0|0:0,0:0:0:0:
84,210,63035,2,0,L|97:285,1,45.0000001716614,2|8,0:1|0:1,0:0:0:0:
137,31,63330,1,2,0:1:0:0:
132,68,63440,1,0,0:0:0:0:
128,104,63550,1,4,3:0:0:0:
184,224,63771,1,4,0:3:0:0:
323,39,63992,1,0,1:0:0:0:
323,39,64102,6,2,B|297:-10|233:1|199:79|276:166,1,200,2|0,0:0|0:0,0:3:0:0:
251,374,64433,6,0,P|250:337|271:290,1,75.0000028610231,6|0,1:0|0:0,0:0:0:0:
419,214,64653,1,0,0:0:0:0:
419,214,64764,2,0,L|521:226,2,85.0000016212464,2|8|0,0:1|0:1|0:0,0:0:0:0:
403,53,65095,2,0,P|376:78|362:113,1,75.0000028610231,2|0,0:0|0:0,0:0:0:0:
347,311,65315,5,4,0:3:0:0:
347,311,65426,2,0,L|252:300,2,85.0000016212464,2|0|0,0:1|0:0|0:0,0:0:0:0:
157,382,65756,1,8,0:1:0:0:
181,336,65867,1,2,0:0:0:0:
148,296,65977,1,2,0:0:0:0:
165,248,66087,2,0,L|148:161,2,85.0000016212464,2|4|0,0:1|0:0|0:0,0:0:0:0:
1,189,66418,6,0,P|29:205|94:207,1,75.0000028610231,2|0,0:0|0:0,0:0:0:0:
72,34,66639,1,8,0:1:0:0:
72,34,66749,2,0,L|60:120,2,85.0000016212464,2|0|0,0:1|0:0|0:0,0:0:0:0:
148,164,67080,2,0,P|184:156|214:135,1,75.0000028610231,4|0,3:0|0:0,0:0:0:0:
328,19,67301,1,0,0:0:0:0:
328,19,67411,2,0,L|335:103,2,85.0000016212464,2|8|0,0:1|0:1|0:0,0:0:0:0:
318,239,67742,1,2,0:0:0:0:
318,239,67852,1,0,0:0:0:0:
318,239,67962,6,0,P|295:268|287:305,1,75.0000028610231,6|0,0:0|0:0,0:0:0:0:
422,168,68182,1,0,0:0:0:0:
422,168,68293,2,0,L|524:180,2,85.0000016212464,2|8|0,0:1|0:1|0:0,0:0:0:0:
443,350,68624,2,0,P|417:321|366:309,1,75.0000028610231,2|0,0:0|0:0,0:0:0:0:
196,272,68844,5,4,3:0:0:0:
196,272,68954,2,0,L|203:368,2,85.0000016212464,2|0|0,0:1|0:0|0:0,0:0:0:0:
78,96,69286,1,8,0:1:0:0:
102,142,69395,1,2,0:0:0:0:
69,182,69505,1,2,0:0:0:0:
86,230,69617,2,0,L|69:317,2,85.0000016212464,2|4|0,0:1|0:0|0:0,0:0:0:0:
128,19,69948,6,0,P|151:44|164:98,1,75.0000028610231,2|0,0:0|0:0,0:0:0:0:
298,206,70168,1,8,0:1:0:0:
298,206,70278,2,0,L|388:213,2,85.0000016212464,2|0|0,0:1|0:0|0:0,0:0:0:0:
380,43,70609,2,0,P|353:64|332:115,1,75.0000028610231,4|0,3:0|0:0,0:0:0:0:
486,87,70830,1,0,0:0:0:0:
486,87,70940,2,0,L|498:-1,2,85.0000016212464,2|8|0,0:1|0:1|0:0,0:0:0:0:
498,208,71271,1,2,0:0:0:0:
498,208,71381,1,0,0:0:0:0:
498,208,71492,6,0,P|514:243|507:289,1,75.0000028610231,4|0,0:0|0:0,0:0:0:0:
328,362,71712,1,0,0:0:0:0:
328,362,71823,2,0,L|430:374,2,85.0000016212464,2|8|0,0:1|0:1|0:0,0:0:0:0:
385,212,72154,2,0,P|359:241|308:253,1,75.0000028610231,2|0,0:0|0:0,0:0:0:0:
301,63,72374,5,4,3:0:0:0:
301,63,72483,2,0,L|308:159,2,85.0000016212464,2|0|0,0:1|0:0|0:0,0:0:0:0:
196,220,72815,1,8,0:1:0:0:
172,174,72926,1,2,0:0:0:0:
205,134,73036,1,2,0:0:0:0:
188,86,73146,2,0,L|205:-1,2,85.0000016212464,2|4|0,0:1|0:0|0:0,0:0:0:0:
38,25,73477,6,0,P|61:50|74:104,1,75.0000028610231,2|0,0:0|0:0,0:0:0:0:
58,285,73698,1,8,0:1:0:0:
58,285,73807,2,0,L|65:195,2,85.0000016212464,2|4|0,0:1|0:0|0:0,0:0:0:0:
177,368,74139,2,0,P|160:332|165:286,1,75.0000028610231,4|0,3:0|0:0,0:0:0:0:
348,319,74358,1,2,0:0:0:0:
348,319,74469,2,0,L|264:312,2,85.0000016212464,2|8|0,0:1|0:1|0:0,0:0:0:0:
172,186,74801,1,2,0:0:0:0:
172,186,74911,1,0,0:0:0:0:
172,186,75021,6,0,P|182:146|216:113,1,75.0000028610231,4|0,0:0|0:0,0:0:0:0:
341,234,75241,1,2,0:0:0:0:
341,234,75352,2,0,L|348:330,2,85.0000016212464,2|8|0,0:1|0:1|0:0,0:0:0:0:
217,32,75683,2,0,P|256:29|297:44,1,75.0000028610231,2|0,0:0|0:0,0:0:0:0:
439,180,75903,5,4,3:0:0:0:
439,180,76014,2,0,L|427:282,2,85.0000016212464,2|0|2,0:1|0:0|0:0,0:0:0:0:
314,0,76345,1,8,0:1:0:0:
338,46,76454,1,2,0:0:0:0:
305,86,76564,1,2,0:0:0:0:
322,134,76675,2,0,L|255:192,2,85.0000016212464,2|4|0,0:1|0:0|0:0,0:0:0:0:
337,371,77005,6,0,P|326:335|302:308,1,75.0000028610231,2|0,0:0|0:0,0:0:0:0:
120,336,77227,1,8,0:1:0:0:
120,336,77337,2,0,L|32:356,2,85.0000016212464,2|0|0,0:1|0:0|0:0,0:0:0:0:
181,167,77668,2,0,P|178:204|193:240,1,75.0000028610231,4|0,3:0|0:0,0:0:0:0:
337,371,77889,1,0,0:0:0:0:
337,371,77999,2,0,L|427:378,2,85.0000016212464,2|8|0,0:1|0:1|0:0,0:0:0:0:
257,189,78330,1,2,0:0:0:0:
192,238,78440,1,0,0:0:0:0:
179,157,78551,6,0,P|160:126|159:71,1,85.0000016212464,6|0,1:0|0:0,0:0:0:0:
265,270,78771,1,2,0:0:0:0:
265,270,78881,2,0,L|248:364,2,94.9999974632264,2|8|0,0:1|0:1|0:0,0:0:0:0:
263,16,79212,2,0,P|244:47|243:102,1,85.0000016212464,2|0,0:0|0:0,0:0:0:0:
340,218,79433,5,4,3:0:0:0:
340,218,79543,2,0,L|433:200,2,94.9999974632264,2|0|0,0:1|0:0|0:0,0:0:0:0:
248,363,79874,1,8,0:1:0:0:
209,335,79984,1,0,0:0:0:0:
159,363,80095,1,2,0:0:0:0:
106,322,80205,2,0,L|0:345,2,94.9999974632264,2|4|0,0:1|0:0|0:0,0:0:0:0:
43,150,80536,6,0,P|34:187|44:246,1,85.0000016212464,2|0,0:0|0:0,0:0:0:0:
170,112,80756,1,8,0:1:0:0:
170,112,80867,2,0,L|155:3,2,94.9999974632264,2|2|0,0:1|0:0|0:0,0:0:0:0:
209,335,81198,6,0,P|203:294|177:246,1,85.0000016212464,4|0,3:0|0:0,0:0:0:0:
313,172,81418,1,0,0:0:0:0:
313,172,81528,2,0,L|418:190,2,94.9999974632264,2|8|0,0:1|0:1|0:0,0:0:0:0:
458,25,81859,1,2,0:0:0:0:
458,25,81970,1,0,0:0:0:0:
457,24,82080,6,0,P|451:71|461:106,1,85.0000016212464,6|0,0:0|0:0,0:0:0:0:
474,283,82300,1,0,0:0:0:0:
474,283,82411,2,0,L|354:305,2,94.9999974632264,2|8|0,0:1|0:1|0:0,0:0:0:0:
311,365,82742,2,0,P|288:317|296:263,1,85.0000016212464,2|0,0:0|0:0,0:0:0:0:
367,93,82962,5,4,3:0:0:0:
367,93,83073,2,0,L|467:107,2,94.9999974632264,2|2|0,0:1|0:0|0:0,0:0:0:0:
203,196,83403,1,8,0:1:0:0:
187,151,83513,1,2,0:0:0:0:
223,106,83624,1,2,0:0:0:0:
198,44,83734,2,0,L|86:55,2,94.9999974632264,2|4|0,0:1|0:0|0:0,0:0:0:0:
9,15,84065,6,0,P|4:57|14:98,1,85.0000016212464,2|0,0:0|0:0,0:0:0:0:
86,245,84285,1,8,0:1:0:0:
86,245,84396,2,0,L|101:136,2,94.9999974632264,2|0|0,0:1|0:0|0:0,0:0:0:0:
271,195,84727,6,0,P|229:193|190:209,1,85.0000016212464,4|0,3:0|0:0,0:0:0:0:
53,357,84947,1,2,0:0:0:0:
53,357,85058,2,0,L|148:339,2,94.9999974632264,2|8|0,0:1|0:1|0:0,0:0:0:0:
248,288,85388,1,2,0:0:0:0:
248,288,85499,1,0,0:0:0:0:
248,288,85609,6,0,P|253:322|247:380,1,85.0000016212464,4|0,0:0|0:0,0:0:0:0:
442,292,85829,1,0,0:0:0:0:
442,292,85940,2,0,L|322:314,2,94.9999974632264,2|8|0,0:1|0:1|0:0,0:0:0:0:
502,93,86271,2,0,P|476:126|465:167,1,85.0000016212464,2|0,0:0|0:0,0:0:0:0:
269,185,86491,5,4,3:0:0:0:
269,185,86602,2,0,L|369:199,2,94.9999974632264,2|0|0,0:1|0:0|0:0,0:0:0:0:
366,35,86932,1,8,0:1:0:0:
325,59,87042,1,2,0:0:0:0:
273,33,87153,1,2,0:0:0:0:
224,78,87263,2,0,L|112:89,2,94.9999974632264,2|4|0,0:1|0:0|0:0,0:0:0:0:
179,263,87595,6,0,P|188:226|178:167,1,85.0000016212464,2|0,0:0|0:0,0:0:0:0:
48,25,87814,1,8,0:1:0:0:
48,25,87926,2,0,L|33:134,2,94.9999974632264,2|4|0,0:1|0:0|0:0,0:0:0:0:
92,224,88256,6,0,P|50:228|8:250,1,85.0000016212464,4|0,3:0|0:0,0:0:0:0:
198,362,88476,1,2,0:0:0:0:
198,362,88587,2,0,L|303:344,2,94.9999974632264,2|8|0,0:1|0:1|0:0,0:0:0:0:
182,179,88917,1,2,0:0:0:0:
182,179,89028,1,0,0:0:0:0:
182,179,89139,6,0,P|212:205|228:253,1,85.0000016212464,4|0,0:0|0:0,0:0:0:0:
333,60,89359,1,2,0:0:0:0:
333,60,89470,2,0,L|213:82,2,94.9999974632264,2|8|0,0:1|0:1|0:0,0:0:0:0:
307,265,89801,2,0,P|309:304|287:349,1,85.0000016212464,2|0,0:0|0:0,0:0:0:0:
403,179,90021,5,4,3:0:0:0:
403,179,90130,2,0,L|283:157,2,94.9999974632264,2|0|0,0:1|0:0|0:0,0:0:0:0:
492,25,90462,1,8,0:1:0:0:
512,68,90572,1,2,0:0:0:0:
475,113,90683,1,2,0:0:0:0:
503,171,90793,2,0,L|512:265,2,94.9999974632264,2|4|0,0:1|0:0|0:0,0:0:0:0:
402,294,91124,6,0,P|408:336|399:378,1,85.0000016212464,2|0,0:0|0:0,0:0:0:0:
309,161,91344,1,8,0:1:0:0:
309,161,91455,2,0,L|294:270,2,94.9999974632264,2|0|0,0:1|0:0|0:0,0:0:0:0:
188,17,91786,5,4,3:0:0:0:
154,62,91896,1,2,0:0:0:0:
100,82,92006,1,2,0:0:0:0:
43,73,92117,2,0,L|32:189,1,94.9999974632264,2|0,0:1|1:0,0:0:0:0:
12,274,92337,1,0,3:0:0:0:
7,254,92448,1,0,3:0:0:0:
151,332,92668,6,0,L|170:228,1,100,4|0,0:0|3:0,0:0:0:0:
151,52,93551,2,0,L|170:156,1,100,2|0,0:0|3:0,0:0:0:0:
226,356,94433,6,0,L|245:252,1,100,2|0,0:0|3:0,0:0:0:0:
226,28,95315,2,0,L|245:132,1,100,2|0,0:0|3:0,0:0:0:0:
488,192,96198,6,0,B|438:176|438:207|389:192,1,100,6|0,0:0|3:0,0:0:0:0:
112,360,97080,1,2,0:0:0:0:
25,310,97521,1,2,0:0:0:0:
111,259,97962,6,0,B|216:245|189:322|300:305,1,200,6|0,0:0|3:0,0:0:0:0:
380,363,99286,1,2,0:0:0:0:
473,245,99727,6,0,L|462:114,1,112.500004291535,4|0,0:0|1:0,0:0:0:0:
456,58,100168,1,0,1:0:0:0:
363,25,100389,1,0,1:0:0:0:
301,101,100608,1,0,1:0:0:0:
301,101,100719,1,0,1:0:0:0:
344,188,100939,1,0,0:0:0:0:
344,188,101051,1,0,1:0:0:0:
280,262,101270,1,0,1:0:0:0:
188,170,101492,5,6,0:0:0:0:
201,70,101711,1,0,1:0:0:0:
201,70,101823,2,0,P|155:90|106:83,1,100,0|0,1:0|0:0,0:0:0:0:
34,57,102154,2,0,P|59:101|60:126,1,50,0|0,1:0|0:0,0:0:0:0:
66,180,102374,1,0,1:0:0:0:
66,180,102483,1,0,1:0:0:0:
4,258,102705,1,0,0:0:0:0:
4,258,102814,1,0,1:0:0:0:
53,344,103036,1,0,1:0:0:0:
49,355,103145,1,0,1:0:0:0:
77,382,103256,5,6,1:2:0:0:
116,374,103367,1,0,1:0:0:0:
155,366,103477,1,0,1:0:0:0:
194,358,103587,1,0,1:0:0:0:
223,282,103698,1,0,1:0:0:0:
262,289,103808,1,0,1:0:0:0:
301,296,103918,1,0,1:0:0:0:
320,330,104028,1,0,1:0:0:0:
401,338,104139,6,0,L|444:343,2,25,6|0|0,1:2|1:0|1:0,1:0:0:0:
372,263,104358,1,2,1:2:0:0:
381,229,104470,1,0,1:0:0:0:
389,194,104580,2,0,L|398:148,2,25,2|0|0,1:3|1:0|1:0,1:0:0:0:
482,159,104801,2,0,L|473:113,4,25,0|0|0|0|0,1:0|2:0|2:0|2:0|2:0,2:0:0:0:
453,57,105020,5,2,0:1:0:0:
370,91,105130,1,0,0:0:0:0:
306,28,105242,1,2,0:0:0:0:
393,0,105352,2,0,P|325:62|300:147,1,179.999994506836,2|0,0:1|0:0,0:0:0:0:
293,284,105683,6,0,L|280:225,2,59.9999981689454,6|0|0,3:0|0:0|0:0,0:0:0:0:
224,336,105903,2,0,L|216:374,4,22.4999993133545,2|0|0|0|0,1:0|0:0|0:0|0:0|0:0,0:0:0:0:
162,278,106124,2,0,L|154:240,4,22.4999993133545,2|0|0|0|0,1:0|0:0|0:0|0:0|0:0,0:0:0:0:
91,331,106345,2,0,P|50:301|30:234,1,89.9999972534181,2|0,0:1|0:0,0:0:0:0:
39,86,106565,2,0,P|13:127|21:197,1,89.9999972534181,2|0,0:1|0:0,0:0:0:0:
179,174,106786,5,6,0:0:0:0:
185,162,106896,1,0,0:0:0:0:
196,176,107006,2,0,L|183:75,1,89.9999972534181,4|0,3:0|0:0,0:0:0:0:
352,12,107227,6,2,B|316:24|304:96|376:128|452:96,1,200,0|2,1:0|0:0,0:3:0:0:
462,89,107558,1,0,0:0:0:0:
477,80,107668,6,0,L|459:202,1,100,6|0,1:0|0:0,0:0:0:0:
436,252,108035,2,0,L|428:166,1,50.0000019073487,2|4,0:1|3:0,0:0:0:0:
324,28,108330,1,2,0:1:0:0:
324,28,108551,2,0,L|306:150,1,100,2|0,1:0|0:0,0:0:0:0:
295,203,108917,1,2,0:1:0:0:
190,384,109212,1,2,0:1:0:0:
190,384,109433,2,0,L|165:215,1,166.666666666667,2|0,1:0|0:0,0:0:0:0:
152,142,109874,1,2,1:1:0:0:
97,167,109984,1,0,0:0:0:0:
56,122,110095,1,0,0:0:0:0:
86,70,110205,1,0,0:0:0:0:
144,82,110315,5,6,1:0:0:0:
303,189,110536,1,0,0:0:0:0:
238,8,110756,1,2,1:0:0:0:
184,191,110977,1,0,0:0:0:0:
337,75,111198,2,0,P|389:77|446:50,1,100,2|0,1:0|0:0,0:0:0:0:
512,44,111564,2,0,P|483:82|470:135,1,100,2|0,0:1|0:0,0:0:0:0:
407,168,111859,2,0,P|440:193|459:225,1,50,2|0,0:1|0:0,0:0:0:0:
465,371,112080,6,0,P|486:322|485:264,1,100,6|0,1:0|0:0,0:0:0:0:
273,284,112521,1,2,1:0:0:0:
273,284,112742,1,2,0:0:0:0:
335,260,112852,1,0,0:0:0:0:
387,297,112962,1,2,1:0:0:0:
322,367,113183,1,2,0:0:0:0:
278,190,113403,1,2,1:0:0:0:
170,324,113624,1,2,0:0:0:0:
116,287,113734,1,0,0:0:0:0:
70,348,113845,6,0,P|21:286|26:173,1,179.999994506836,6|0,1:0|0:0,0:0:0:0:
0,71,114286,2,0,P|44:110|132:110,1,119.999996337891,10|0,0:1|0:0,0:0:0:0:
126,111,114617,1,0,0:0:0:0:
174,201,114727,2,0,P|202:149|284:119,1,119.999996337891,2|0,1:0|0:0,0:0:0:0:
278,120,115058,1,6,0:1:0:0:
358,35,115168,2,0,P|366:93|434:149,1,119.999996337891,14|0,1:0|0:0,0:0:0:0:
428,146,115499,1,0,0:0:0:0:
451,146,115609,5,6,1:0:0:0:
422,337,115830,1,2,0:0:0:0:
333,164,116051,1,10,0:1:0:0:
506,252,116271,1,2,0:0:0:0:
315,283,116492,2,0,P|245:271|126:317,1,199.999993896485,4|0,0:3|0:0,0:0:0:0:
85,377,116933,1,10,0:1:0:0:
32,349,117043,1,0,0:0:0:0:
1,297,117153,1,0,0:0:0:0:
8,237,117264,1,0,0:0:0:0:
46,190,117374,6,0,P|100:195|166:171,1,119.999996337891,6|2,1:0|0:0,0:0:0:0:
362,11,117815,2,0,P|331:55|319:124,1,119.999996337891,10|2,0:1|0:0,0:0:0:0:
359,374,118256,2,0,P|336:325|282:280,1,119.999996337891,2|0,1:0|0:0,0:0:0:0:
256,192,118698,1,10,0:1:0:0:
256,192,118918,1,2,1:0:0:0:
309,164,119028,1,0,0:0:0:0:
347,210,119139,6,0,P|400:245|508:175,1,199.999993896485,6|2,1:0|1:0,1:0:0:0:
512,108,119580,1,8,0:1:0:0:
344,21,119801,2,0,P|343:64|329:108,1,59.9999981689454,2|0,0:0|0:0,0:0:0:0:
256,192,120021,2,0,P|244:156|248:104,2,59.9999981689454,4|0|0,3:0|0:0|0:0,0:0:0:0:
24,49,120462,6,2,B|72:0|168:40|128:176|48:184|64:280,1,330.000010070801,0|0,1:0|0:0,0:3:0:0:
200,384,120904,6,0,P|206:342|195:301,1,85.0000016212464,6|0,1:0|0:0,0:0:0:0:
368,240,121123,1,0,0:0:0:0:
368,240,121234,2,0,L|488:262,2,94.9999974632264,2|8|0,0:1|0:1|0:0,0:0:0:0:
315,40,121565,2,0,P|291:74|282:116,1,85.0000016212464,2|0,0:0|0:0,0:0:0:0:
195,301,121786,5,4,3:0:0:0:
195,301,121896,2,0,L|75:323,2,94.9999974632264,2|0|0,0:1|0:0|0:0,0:0:0:0:
94,54,122226,1,8,0:1:0:0:
122,92,122336,1,2,0:0:0:0:
98,144,122447,1,2,0:0:0:0:
131,201,122558,2,0,L|18:227,2,94.9999974632264,2|4|0,0:1|0:0|0:0,0:0:0:0:
281,115,122889,6,0,P|257:81|248:40,1,85.0000016212464,2|0,0:0|0:0,0:0:0:0:
403,77,123108,1,8,0:1:0:0:
403,77,123220,2,0,L|388:186,2,94.9999974632264,2|2|0,0:1|0:0|0:0,0:0:0:0:
289,230,123551,6,0,P|264:264|255:305,1,85.0000016212464,4|0,3:0|0:0,0:0:0:0:
413,373,123770,1,0,0:0:0:0:
413,373,123881,2,0,L|518:355,2,94.9999974632264,2|8|0,0:1|0:1|0:0,0:0:0:0:
472,175,124212,1,2,0:0:0:0:
472,175,124322,1,0,0:0:0:0:
472,175,124433,6,0,P|444:166|358:189,1,85.0000016212464,4|0,0:0|0:0,0:0:0:0:
264,264,124654,1,2,0:0:0:0:
264,264,124764,2,0,L|242:384,2,94.9999974632264,2|8|0,0:1|0:1|0:0,0:0:0:0:
344,53,125095,2,0,P|289:47|239:16,1,85.0000016212464,2|0,0:0|0:0,0:0:0:0:
169,209,125314,5,4,3:0:0:0:
169,209,125426,2,0,L|183:109,2,94.9999974632264,2|0|0,0:1|0:0|0:0,0:0:0:0:
27,40,125755,1,8,0:1:0:0:
52,79,125867,1,2,0:0:0:0:
20,127,125976,1,2,0:0:0:0:
27,192,126087,2,0,L|43:304,2,94.9999974632264,2|4|0,0:1|0:0|0:0,0:0:0:0:
133,383,126418,6,0,P|142:346|132:287,1,85.0000016212464,2|0,0:0|0:0,0:0:0:0:
268,202,126639,1,8,0:1:0:0:
268,202,126749,2,0,L|377:187,2,94.9999974632264,2|0|0,0:1|0:0|0:0,0:0:0:0:
296,364,127080,6,0,P|276:331|227:296,1,85.0000016212464,4|0,3:0|0:0,0:0:0:0:
209,110,127301,1,0,0:0:0:0:
209,110,127411,2,0,L|275:22,2,94.9999974632264,2|8|0,0:1|0:1|0:0,0:0:0:0:
375,117,127742,1,2,0:0:0:0:
375,117,127851,1,0,0:0:0:0:
375,117,127962,6,0,P|360:162|369:214,1,75.0000028610231,4|0,0:0|0:0,0:0:0:0:
439,323,128183,1,0,0:0:0:0:
439,323,128293,2,0,P|459:259|440:149,1,150.000005722046,2|0,0:1|0:0,0:0:0:0:
277,203,128624,2,0,P|298:245|341:275,1,75.0000028610231,2|0,0:0|0:0,0:0:0:0:
238,369,128845,5,4,0:3:0:0:
238,369,128955,2,0,P|169:357|58:356,1,150.000005722046,2|0,0:1|0:0,0:0:0:0:
0,206,129286,1,8,0:0:0:0:
26,251,129395,1,0,0:0:0:0:
70,222,129505,1,2,0:0:0:0:
42,177,129617,2,0,P|45:101|63:22,1,150.000005722046,2|0,0:1|0:0,0:0:0:0:
148,146,129948,5,2,0:0:0:0:
148,146,130058,2,0,P|152:197|163:230,1,75.0000028610231,2|8,0:3|0:0,0:0:0:0:
285,19,130278,2,0,P|252:104|244:188,1,150.000005722046,2|0,0:1|0:0,0:0:0:0:
257,347,130608,6,0,P|246:310|245:265,1,75.0000028610231,4|0,0:3|0:0,0:0:0:0:
346,150,130829,1,2,0:0:0:0:
346,150,130939,2,0,P|331:230|339:332,1,150.000005722046,2|0,0:1|0:0,0:0:0:0:
454,364,131270,1,2,0:0:0:0:
454,364,131380,1,0,0:0:0:0:
454,364,131491,6,0,P|451:321|429:277,1,75.0000028610231,4|0,0:0|0:0,0:0:0:0:
492,161,131712,1,0,0:0:0:0:
492,161,131822,2,0,P|409:168|318:133,1,150.000005722046,2|0,0:1|0:0,0:0:0:0:
470,40,132154,2,0,P|443:63|393:75,1,75.0000028610231,2|0,0:3|0:0,0:0:0:0:
245,29,132374,5,4,0:3:0:0:
245,29,132484,2,0,P|259:103|262:212,1,150.000005722046,2|0,0:1|0:0,0:0:0:0:
241,340,132815,1,8,0:0:0:0:
204,378,132926,1,0,0:0:0:0:
156,354,133036,1,2,0:0:0:0:
194,318,133146,2,0,P|184:243|153:138,1,150.000005722046,2|0,0:1|0:0,0:0:0:0:
60,24,133476,6,0,P|48:71|22:105,1,75.0000028610231,2|0,0:0|0:0,0:0:0:0:
47,317,133698,1,8,0:0:0:0:
47,317,133808,2,0,P|69:238|78:134,1,150.000005722046,2|0,0:1|0:0,0:0:0:0:
187,15,134138,6,0,P|190:52|200:89,1,75.0000028610231,4|0,0:3|0:0,0:0:0:0:
348,57,134358,1,0,0:0:0:0:
348,57,134470,2,0,P|299:136|279:219,1,150.000005722046,2|0,0:1|0:0,0:0:0:0:
449,85,134801,2,0,P|452:45|443:10,2,75.0000028610231,2|0|4,0:1|0:0|3:0,0:0:0:0:
392,373,135242,5,2,0:0:0:0:
502,235,135573,1,2,0:0:0:0:
323,201,135903,1,2,0:0:0:0:
306,210,136014,1,0,0:0:0:0:
289,219,136124,1,2,0:0:0:0:
272,228,136234,1,0,0:0:0:0:
436,135,136565,2,0,L|481:106,2,50,2|0|4,0:0|3:0|0:3,0:0:0:0:
300,356,137006,5,2,0:0:0:0:
409,219,137337,1,2,0:0:0:0:
231,184,137667,1,2,3:2:0:0:
213,194,137778,1,0,3:0:0:0:
196,203,137888,1,2,3:2:0:0:
179,211,137998,1,0,3:0:0:0:
344,118,138330,2,0,L|430:62,1,100,2|4,0:0|0:3,0:0:0:0:
215,342,138771,5,2,0:0:0:0:
324,205,139102,1,2,0:0:0:0:
146,170,139432,1,2,0:0:0:0:
128,179,139543,1,0,0:0:0:0:
111,188,139653,1,2,0:0:0:0:
94,197,139763,1,0,0:0:0:0:
258,104,140095,2,0,L|303:75,2,50,2|0|4,0:0|0:0|0:3,0:0:0:0:
133,316,140536,5,2,0:0:0:0:
242,179,140867,1,2,0:0:0:0:
64,144,141197,1,2,0:0:0:0:
46,153,141308,1,0,0:0:0:0:
29,162,141418,1,2,0:0:0:0:
12,171,141528,1,0,0:0:0:0:
27,245,141639,5,6,1:2:0:0:
44,167,141749,1,0,1:0:0:0:
68,101,141859,1,0,3:0:0:0:
83,53,141970,1,0,3:0:0:0:
91,29,142080,1,0,0:0:0:0:
256,192,142190,12,0,145609,0:0:0:0:
