osu file format v14

[General]
AudioFilename: audio.mp3
AudioLeadIn: 0
PreviewTime: 120792
Countdown: 0
SampleSet: Soft
StackLeniency: 0.3
Mode: 0
LetterboxInBreaks: 0
WidescreenStoryboard: 0

[Editor]
Bookmarks: 883,7942,22060,29119,36178,43236,50295,57354,64413,78531,92648
DistanceSpacing: 1.1
BeatDivisor: 4
GridSize: 4
TimelineZoom: 1.7

[Metadata]
Title:Babaroque (Short Ver.)
TitleUnicode:Babaroque (Short Ver.)
Artist:cYsmix
ArtistUnicode:cYsmix
Creator:Mao
Version:Easy
Source:
Tags:kusemono records oracle niva chaoslitz mir mappers' lounge fa featured artist
BeatmapID:1660762
BeatmapSetID:791667

[Difficulty]
HPDrainRate:2
CircleSize:2.5
OverallDifficulty:2
ApproachRate:3
SliderMultiplier:0.88
SliderTickRate:1

[Events]
//Background and Video events
0,0,"easy.jpg",0,0
//Break Periods
2,36395,41816
//Storyboard Layer 0 (Background)
//Storyboard Layer 1 (Fail)
//Storyboard Layer 2 (Pass)
//Storyboard Layer 3 (Foreground)
//Storyboard Sound Samples

[TimingPoints]
904,441.176470588235,4,2,0,40,1,0
904,-100,4,2,0,40,0,0
1345,-100,4,2,0,40,0,0
7962,-100,4,2,0,50,0,0
8403,-100,4,2,0,50,0,0
15021,-100,4,2,0,50,0,0
15242,-100,4,2,0,50,0,0
22080,-100,4,2,0,65,0,0
23845,-100,4,2,0,70,0,0
25609,-100,4,2,0,75,0,0
27374,-100,4,2,0,80,0,0
28698,-100,4,2,0,80,0,0
28918,-100,4,2,0,80,0,0
29139,-100,4,2,0,85,0,0
30903,-100,4,2,0,90,0,0
33109,-100,4,2,0,91,0,0
33551,-100,4,2,0,92,0,0
33992,-100,4,2,0,93,0,0
34433,-100,4,2,0,94,0,0
35756,-100,4,2,0,70,0,0
36195,441.176470588235,4,3,0,30,1,0
36195,-100,4,3,0,30,0,0
43256,441.176470588235,4,2,0,40,1,0
45020,-100,4,2,0,50,0,0
46785,-100,4,2,0,60,0,0
48329,-100,4,2,0,60,0,0
48550,-100,4,2,0,60,0,0
49983,-100,4,2,0,60,0,0
50314,-100,4,2,0,60,0,0
53623,-100,4,2,0,60,0,0
57152,-100,4,2,0,60,0,0
57373,-100,4,2,0,70,0,0
60902,-100,4,2,0,70,0,0
64101,-100,4,2,0,70,0,0
64432,-100,4,2,0,80,0,1
64763,-100,4,2,0,80,0,1
65094,-100,4,2,0,80,0,1
65425,-100,4,2,0,80,0,1
66307,-100,4,2,0,80,0,1
66638,-100,4,2,0,80,0,1
67079,-100,4,2,0,80,0,1
67410,-100,4,2,0,80,0,1
67741,-100,4,2,0,80,0,1
68292,-100,4,2,0,80,0,1
68623,-100,4,2,0,80,0,1
68954,-100,4,2,0,80,0,1
69285,-100,4,2,0,80,0,1
69616,-100,4,2,0,80,0,1
69947,-100,4,2,0,80,0,1
70277,-100,4,2,0,80,0,1
70608,-100,4,2,0,80,0,1
70939,-100,4,2,0,80,0,1
71491,-100,4,2,0,80,0,1
71822,-100,4,2,0,80,0,1
72152,-100,4,2,0,80,0,1
72483,-100,4,2,0,80,0,1
73476,-100,4,2,0,80,0,1
73807,-100,4,2,0,80,0,1
74138,-100,4,2,0,80,0,1
74469,-100,4,2,0,80,0,1
75020,-100,4,2,0,80,0,1
75351,-100,4,2,0,80,0,1
75682,-100,4,2,0,80,0,1
76013,-100,4,2,0,80,0,1
77005,-100,4,2,0,80,0,1
77336,-100,4,2,0,80,0,1
77667,-100,4,2,0,80,0,1
77998,-100,4,2,0,80,0,1
78439,-100,4,2,0,80,0,0
78550,-100,4,2,0,90,0,1
78770,-100,4,2,0,90,0,1
79211,-100,4,2,0,90,0,1
79542,-100,4,2,0,90,0,1
80535,-100,4,2,0,90,0,1
80866,-100,4,2,0,90,0,1
81197,-100,4,2,0,90,0,1
81527,-100,4,2,0,90,0,1
82079,-100,4,2,0,90,0,1
82410,-100,4,2,0,90,0,1
82741,-100,4,2,0,90,0,1
83072,-100,4,2,0,90,0,1
84064,-100,4,2,0,90,0,1
84395,-100,4,2,0,90,0,1
84726,-100,4,2,0,90,0,1
85057,-100,4,2,0,90,0,1
85608,-100,4,2,0,90,0,1
85939,-100,4,2,0,90,0,1
86270,-100,4,2,0,90,0,1
86601,-100,4,2,0,90,0,1
87594,-100,4,2,0,90,0,1
87925,-100,4,2,0,90,0,1
88255,-100,4,2,0,90,0,1
88586,-100,4,2,0,90,0,1
89138,-100,4,2,0,90,0,1
89469,-100,4,2,0,90,0,1
89800,-100,4,2,0,90,0,1
90130,-100,4,2,0,90,0,1
91123,-100,4,2,0,90,0,1
91454,-100,4,2,0,90,0,1
92667,-100,4,2,0,30,0,0
99726,-100,4,2,0,40,0,0
101491,-100,4,2,0,50,0,0
103255,-100,4,2,0,60,0,0
104800,-100,4,2,0,60,0,0
105351,-100,4,2,0,60,0,0
107226,-100,4,2,0,60,0,0
107667,-100,4,2,0,60,0,0
107998,-100,4,2,0,60,0,0
108550,-100,4,2,0,60,0,0
113844,-100,4,2,0,70,0,0
120461,-100,4,2,0,70,0,0
120903,-100,4,2,0,90,0,1
121233,-100,4,2,0,90,0,1
121564,-100,4,2,0,90,0,1
121895,-100,4,2,0,90,0,1
122888,-100,4,2,0,90,0,1
123219,-100,4,2,0,90,0,1
123550,-100,4,2,0,90,0,1
123880,-100,4,2,0,90,0,1
124432,-100,4,2,0,90,0,1
124763,-100,4,2,0,90,0,1
125094,-100,4,2,0,90,0,1
125425,-100,4,2,0,90,0,1
126417,-100,4,2,0,90,0,1
126748,-100,4,2,0,90,0,1
127079,-100,4,2,0,90,0,1
127410,-100,4,2,0,90,0,1
127961,-100,4,2,0,70,0,1
135020,-100,4,2,0,50,0,0
141748,-100,4,2,0,40,0,0
141858,-100,4,2,0,30,0,0
141969,-100,4,2,0,25,0,0
142079,-100,4,2,0,20,0,0
142189,-100,4,2,0,5,0,0

[Colours]
Combo1 : 63,228,58
Combo2 : 152,254,175
Combo3 : 220,253,142
Combo4 : 39,228,153
SliderTrackOverride : 2,25,3
SliderBorder : 255,255,255

[HitObjects]
262,35,903,5,2,0:1:0:0:
321,111,1345,2,0,P|340:196|316:279,1,176,2|2,0:0|0:3,0:0:0:0:
261,359,2668,1,2,0:0:0:0:
158,194,3551,2,0,P|145:144|164:98,1,88,2|8,0:0|0:0,0:0:0:0:
174,15,4433,6,2,B|126:21|126:21|125:26|125:26|84:31,1,88,2|2,0:0|0:3,0:0:0:0:
376,88,6198,2,0,B|416:74|416:74|459:87,1,88,8|8,0:3|0:0,0:0:0:0:
502,174,7080,1,2,0:0:0:0:
419,223,7521,1,2,0:0:0:0:
465,307,7962,5,2,0:1:0:0:
377,347,8403,2,0,B|309:395|252:350|252:347|252:343|196:298|128:347,1,264,8|4,0:0|0:3,0:0:0:0:
22,185,10609,2,0,B|8:144|8:144|15:97,1,88,6|8,0:3|0:0,0:0:0:0:
85,33,11492,6,0,B|126:33|126:33|134:37|134:37|186:42,1,88,4|8,0:0|0:0,0:0:0:0:
269,47,12374,1,4,0:3:0:0:
327,231,13256,2,0,L|428:222,1,88,4|8,0:3|0:0,0:0:0:0:
507,194,14139,2,0,B|517:237|517:237|490:288,1,88,6|8,0:3|0:0,0:0:0:0:
444,357,15021,5,2,0:1:0:0:
353,323,15462,2,0,B|304:255|349:198|353:198|356:198|401:142|353:74,1,264,10|4,0:0|3:0,0:0:0:0:
168,21,17668,2,0,B|123:15|123:15|87:40,1,88,4|10,0:3|0:0,0:0:0:0:
22,110,18551,6,2,B|22:151|22:151|26:159|26:159|31:211,1,88,6|8,0:0|0:0,0:0:0:0:
35,293,19433,1,4,0:3:0:0:
214,364,20315,2,0,L|224:268,1,88,4|8,3:0|0:0,0:0:0:0:
180,189,21198,2,0,B|221:177|221:177|275:192,1,88,4|8,3:0|3:2,0:0:0:0:
346,240,22080,5,6,0:0:0:0:
442,230,22521,2,0,P|456:271|450:330,2,88,8|2|8,0:0|0:0|0:0,0:0:0:0:
385,151,23845,1,6,0:0:0:0:
346,240,24286,2,0,P|326:278|280:316,2,88,8|2|8,0:0|0:3|0:0,0:0:0:0:
288,162,25609,5,4,0:0:0:0:
345,83,26051,2,0,L|436:71,2,88,8|2|8,0:0|0:0|0:2,0:0:0:0:
263,30,27375,1,2,0:0:0:0:
205,107,27815,2,0,L|114:119,2,88,8|2|0,0:0|0:0|1:0,0:0:0:0:
263,30,29139,6,0,B|251:120|251:120|296:195|296:195|288:281,1,264,4|8,0:0|0:0,0:0:0:0:
225,354,30903,2,0,L|121:365,1,88,4|8,0:0|0:0,0:0:0:0:
56,310,31786,2,0,L|67:206,1,88,4|8,0:3|0:0,0:0:0:0:
20,136,32668,5,0,1:0:0:0:
87,66,33109,1,0,1:0:0:0:
179,94,33551,1,0,1:0:0:0:
249,28,33992,1,0,1:0:0:0:
256,192,34433,12,4,36195,0:0:0:0:
72,320,43256,6,0,B|139:368|196:323|196:320|196:316|252:271|320:320,1,264,4|0,0:0|1:0,0:0:0:0:
399,372,45020,2,0,P|438:359|494:238,1,176,6|0,0:0|1:0,0:0:0:0:
393,80,46785,2,0,P|354:93|298:214,1,176,6|6,1:2|1:2,0:0:0:0:
157,341,48550,2,0,L|67:348,2,88,2|0|6,1:0|0:0|0:0,0:0:0:0:
297,207,50314,6,0,P|300:120|252:48,1,176,6|2,1:0|1:0,0:0:0:0:
156,33,51638,1,2,0:0:0:0:
64,64,52079,2,0,P|27:142|42:227,1,176,2|2,1:0|1:0,0:0:0:0:
95,308,53403,1,2,0:0:0:0:
23,371,53844,6,0,L|200:343,1,176,6|2,1:0|1:0,0:0:0:0:
291,324,55167,1,2,0:0:0:0:
239,242,55608,2,0,L|416:214,1,176,2|2,1:0|1:0,0:0:0:0:
508,198,56932,1,2,0:0:0:0:
446,123,57373,6,0,L|459:34,2,88,6|8|2,1:0|0:1|1:0,0:0:0:0:
386,199,58697,1,8,0:1:0:0:
329,277,59138,2,0,L|322:368,2,88,2|8|2,1:0|0:1|1:0,0:0:0:0:
275,196,60461,1,8,0:1:0:0:
217,117,60903,6,0,P|229:75|229:18,2,88,6|8|2,1:1|0:1|0:1,0:0:0:0:
170,201,62226,1,8,0:1:0:0:
112,278,62667,2,0,P|100:320|100:377,2,88,0|8|4,1:0|0:1|3:0,0:0:0:0:
55,198,63991,1,0,1:0:0:0:
125,131,64432,6,0,B|112:86|112:86|21:55,2,132,6|2|8,1:0|0:0|0:1,0:0:0:0:
140,226,66197,2,0,P|175:217|214:168,1,88,4|8,0:0|0:1,0:0:0:0:
236,87,67079,1,4,3:0:0:0:
320,134,67520,1,8,0:1:0:0:
363,47,67961,6,0,B|403:33|403:33|500:61,2,132,6|2|8,0:0|0:0|0:1,0:0:0:0:
320,134,69726,2,0,P|324:186|346:225,1,88,4|8,0:0|0:1,0:0:0:0:
420,271,70608,1,4,3:0:0:0:
365,351,71050,1,8,0:1:0:0:
283,298,71491,6,0,B|243:276|243:276|157:301,2,132,4|2|8,0:0|0:0|0:1,0:0:0:0:
340,217,73256,2,0,P|345:162|331:118,1,88,4|8,0:0|0:1,0:0:0:0:
282,50,74138,1,4,3:0:0:0:
206,110,74579,1,8,0:1:0:0:
144,35,75020,6,0,B|107:15|107:15|7:38,2,132,4|2|8,0:0|0:0|0:1,0:0:0:0:
103,123,76785,2,0,P|115:164|150:207,1,88,4|8,0:0|0:1,0:0:0:0:
229,240,77667,1,4,3:0:0:0:
212,335,78109,1,8,0:1:0:0:
123,294,78550,6,0,B|79:288|79:288|1:340,2,132,6|2|8,1:0|0:0|0:1,0:0:0:0:
212,335,80315,2,0,P|224:293|214:251,1,88,4|8,0:0|0:1,0:0:0:0:
144,183,81197,1,4,3:0:0:0:
230,139,81638,1,8,0:1:0:0:
171,61,82079,6,0,B|133:41|133:41|31:66,2,132,6|2|8,0:0|0:0|0:1,0:0:0:0:
230,139,83844,2,0,P|274:130|314:92,1,88,4|8,0:0|0:1,0:0:0:0:
356,20,84726,1,4,3:0:0:0:
451,34,85168,1,8,0:1:0:0:
478,126,85609,6,0,B|461:174|461:174|485:262,2,132,4|2|8,0:0|0:0|0:1,0:0:0:0:
451,34,87374,2,0,L|358:21,1,88,4|8,0:0|0:1,0:0:0:0:
278,67,88256,1,4,3:0:0:0:
320,153,88697,1,8,0:1:0:0:
237,203,89138,6,0,B|216:246|216:246|242:343,2,132,4|2|8,0:0|0:0|0:1,0:0:0:0:
193,116,90903,2,0,P|179:82|133:44,1,88,4|8,0:0|0:1,0:0:0:0:
47,70,91785,1,4,3:0:0:0:
44,166,92227,1,0,1:0:0:0:
135,195,92667,6,0,B|166:239|136:277|135:277|132:277|102:314|135:359,1,176,4|2,0:0|0:0,0:0:0:0:
294,249,94432,2,0,B|262:204|292:166|294:166|296:166|326:129|294:84,1,176,2|2,0:0|0:0,0:0:0:0:
475,16,96197,5,6,0:0:0:0:
455,208,97079,2,0,L|444:311,1,88,2|2,0:0|0:0,0:0:0:0:
361,343,97961,2,0,B|310:367|279:331|279:328|280:326|248:290|198:314,1,176,6|0,0:0|3:0,0:0:0:0:
126,379,99285,1,2,0:0:0:0:
48,321,99726,6,0,B|38:256|38:256|72:198|72:198|67:154,1,176,4|0,0:0|1:0,0:0:0:0:
217,32,101491,2,0,B|227:97|227:97|193:155|193:155|199:203|199:203|194:225|194:225|200:260|200:260|194:287,1,264,6|0,0:0|1:0,0:0:0:0:
260,354,103255,6,0,B|281:346|281:346|302:358|302:358|322:351|322:351|344:362|344:362|367:356|367:356|383:365|383:365|404:359|404:359|429:366,1,176,6|6,1:2|1:2,0:0:0:0:
493,183,105020,1,2,0:1:0:0:
357,44,105903,2,0,B|352:53|352:53|357:62|357:62|338:67|338:67|350:84|350:84|340:92|340:92|333:111|333:111|337:135|337:135|319:162|319:162|318:205,1,176,2|6,1:0|0:0,0:0:0:0:
220,355,107667,6,0,L|114:350,1,88,6|4,1:0|3:0,0:0:0:0:
36,368,108550,2,0,P|83:334|116:209,1,176,2|2,1:0|1:0,0:0:0:0:
61,147,109873,1,2,1:1:0:0:
116,67,110314,6,0,P|89:23|45:6,2,88,6|2|2,1:0|1:0|1:0,0:0:0:0:
215,233,112079,1,6,1:0:0:0:
305,198,112520,1,2,1:0:0:0:
332,290,112961,2,0,L|431:328,1,88,2|2,1:0|1:0,0:0:0:0:
480,251,113844,5,6,1:0:0:0:
416,178,114285,1,10,0:1:0:0:
492,118,114726,2,0,L|508:32,1,88,2|14,1:0|1:0,0:0:0:0:
413,12,115608,2,0,B|398:97|398:97|306:122,1,176,6|4,1:0|0:3,0:0:0:0:
130,50,117373,6,0,P|85:32|36:40,2,88,6|10|2,1:0|0:1|1:0,0:0:0:0:
200,117,118697,1,10,0:1:0:0:
120,172,119138,2,0,L|103:276,1,88,6|8,1:0|0:1,0:0:0:0:
256,379,120461,1,0,1:0:0:0:
343,336,120903,6,0,B|387:316|387:316|469:339,2,132,2|2|8,1:0|0:0|0:1,0:0:0:0:
265,277,122668,2,0,P|250:243|247:178,1,88,4|8,0:0|0:1,0:0:0:0:
267,98,123550,1,4,3:0:0:0:
178,59,123991,1,8,0:1:0:0:
154,152,124432,6,0,B|112:179|112:179|25:163,2,132,4|2|8,0:0|0:0|0:1,0:0:0:0:
178,59,126197,2,0,P|217:31|262:27,1,88,4|8,0:0|0:1,0:0:0:0:
311,105,127079,1,4,3:0:0:0:
263,189,127521,1,8,0:1:0:0:
322,265,127962,6,0,B|361:292|361:292|446:283,2,132,4|2|8,0:0|0:0|0:0,0:0:0:0:
263,189,129726,1,2,0:0:0:0:
181,364,130608,2,0,L|92:347,1,88,4|8,0:3|0:0,0:0:0:0:
39,267,131491,6,0,P|38:212|27:128,2,132,4|2|8,0:0|0:3|0:0,0:0:0:0:
0,357,133255,1,2,0:0:0:0:
169,262,134138,2,0,L|255:277,1,88,4|8,0:3|0:0,0:0:0:0:
317,351,135020,5,4,3:0:0:0:
462,223,135903,2,0,L|476:125,1,88,2|0,0:0|0:0,0:0:0:0:
491,40,136785,1,4,0:3:0:0:
300,72,137667,2,0,L|314:170,1,88,2|0,3:2|0:0,0:0:0:0:
329,255,138549,5,4,0:3:0:0:
164,356,139432,2,0,L|178:258,1,88,2|8,0:0|0:0,0:0:0:0:
193,173,140314,1,4,0:3:0:0:
5,205,141196,2,0,L|19:303,1,88,2|6,0:0|1:2,0:0:0:0:
256,192,142079,12,0,145608,0:0:0:0:
