osu file format v14

[General]
AudioFilename: audio.mp3
AudioLeadIn: 0
PreviewTime: 120792
Countdown: 0
SampleSet: Soft
StackLeniency: 0.2
Mode: 0
LetterboxInBreaks: 0
WidescreenStoryboard: 0

[Editor]
Bookmarks: 92667
DistanceSpacing: 0.5
BeatDivisor: 6
GridSize: 32
TimelineZoom: 3.999998

[Metadata]
Title:Babaroque (Short Ver.)
TitleUnicode:Babaroque (Short Ver.)
Artist:cYsmix
ArtistUnicode:cYsmix
Creator:Mao
Version:Collab Insane
Source:
Tags:kusemono records oracle niva chaoslitz mir mappers' lounge fa featured artist
BeatmapID:1660761
BeatmapSetID:791667

[Difficulty]
HPDrainRate:5
CircleSize:4
OverallDifficulty:7.5
ApproachRate:8.7
SliderMultiplier:2
SliderTickRate:1

[Events]
//Background and Video events
0,0,"insane.jpg",0,0
//Break Periods
2,36395,42611
//Storyboard Layer 0 (Background)
//Storyboard Layer 1 (Fail)
//Storyboard Layer 2 (Pass)
//Storyboard Layer 3 (Foreground)
//Storyboard Sound Samples

[TimingPoints]
904,441.176470588235,4,2,0,40,1,0
1345,-133.333333333333,4,2,0,40,0,0
30903,-133.333333333333,4,2,0,50,0,0
32668,-133.333333333333,4,2,0,60,0,0
34433,-100,4,2,0,80,0,0
35315,-50,4,2,0,80,0,0
36195,441.176470588235,4,3,0,30,1,0
36195,-333.333333333333,4,3,0,30,0,0
43256,441.176470588235,4,2,0,40,1,0
48108,-50,4,2,0,60,0,0
48881,-333.333333333333,4,2,0,60,0,0
49653,-100,4,2,0,60,0,0
64432,-76.9230769230769,4,2,0,80,0,1
78439,-76.9230769230769,4,2,0,80,0,0
78550,-76.9230769230769,4,2,0,80,0,1
92667,-166.666666666667,4,2,0,40,0,0
98844,-166.666666666667,4,2,0,10,0,0
99285,-166.666666666667,4,2,0,40,0,0
99726,-142.857142857143,4,2,0,40,0,0
102373,-125,4,2,0,40,0,0
102704,-111.111111111111,4,2,0,40,0,0
103035,-100,4,2,0,40,0,0
104358,-142.857142857143,4,2,0,40,0,0
104579,-100,4,2,0,60,0,0
105351,-333.333333333333,4,2,0,60,0,0
105682,-100,4,2,0,60,0,0
105903,-50,4,2,0,60,0,0
106344,-100,4,2,0,60,0,0
106785,-58.8235294117647,4,2,0,60,0,0
107005,-83.3333333333333,4,2,0,60,0,0
107226,-66.6666666666667,4,2,0,60,0,0
107667,-100,5,2,0,60,0,0
111197,-111.111111111111,5,2,0,60,0,0
111638,-100,5,2,0,60,0,0
118255,-111.111111111111,5,2,0,60,0,0
120020,-100,5,2,0,60,0,0
120461,-62.5,5,2,0,60,0,0
120903,-76.9230769230769,5,2,0,80,0,1
127961,-76.9230769230769,5,2,0,60,0,1
135020,-100,5,2,0,40,0,0
142189,-100,5,2,0,5,0,0

[Colours]
Combo1 : 255,98,98
Combo2 : 251,123,149
Combo3 : 255,79,193
Combo4 : 253,208,249
SliderTrackOverride : 50,3,2
SliderBorder : 255,255,255

[HitObjects]
104,162,903,6,0,L|267:151,1,150,2|0,0:1|0:1,0:0:0:0:
289,132,1345,2,0,L|139:142,1,150,2|0,0:0|0:0,0:0:0:0:
71,73,2006,1,0,0:0:0:0:
71,73,2227,2,0,P|57:20|52:-13,1,75.0000028610231,2|0,0:3|0:0,0:0:0:0:
139,142,2558,1,0,0:0:0:0:
139,142,2668,6,0,P|153:195|158:228,1,75.0000028610231,2|0,0:0|0:0,0:0:0:0:
186,309,3109,2,0,L|87:299,1,75.0000028610231,2|0,3:0|0:0,0:0:0:0:
272,252,3551,5,2,0:0:0:0:
283,250,3661,1,0,0:0:0:0:
294,248,3771,1,0,0:0:0:0:
305,246,3881,1,0,0:0:0:0:
335,272,3992,5,8,0:0:0:0:
346,270,4102,1,0,0:0:0:0:
357,268,4212,1,0,0:0:0:0:
368,266,4322,1,0,0:0:0:0:
397,301,4433,6,0,B|387:240|387:240|395:215|395:215|385:134,1,150.000005722046,2|2,0:0|0:3,0:0:0:0:
423,55,5095,1,0,0:0:0:0:
423,55,5205,1,0,0:0:0:0:
423,55,5315,2,0,P|492:55|520:47,1,75.0000028610231,2|0,0:0|0:0,0:0:0:0:
329,89,5756,2,0,P|291:84|254:87,1,75.0000028610231,2|0,3:0|0:0,0:0:0:0:
167,133,6087,1,0,0:0:0:0:
167,133,6198,6,0,L|153:33,2,75.0000028610231,8|8|8,0:3|0:3|0:0,0:0:0:0:
182,249,6859,1,0,0:0:0:0:
182,249,6970,1,0,0:0:0:0:
182,249,7080,5,2,0:0:0:0:
303,257,7301,2,0,L|247:253,1,37.5000014305115,0|0,0:0|0:0,0:0:0:0:
390,272,7521,5,2,0:0:0:0:
391,260,7632,1,0,0:0:0:0:
389,248,7742,1,4,0:3:0:0:
182,249,7962,6,0,B|121:227|136:276|41:243,1,112.500004291535,2|0,0:1|0:0,0:0:0:0:
64,243,8403,1,8,0:0:0:0:
122,79,8845,2,0,P|129:132|132:177,1,75.0000028610231,4|0,0:3|0:0,0:0:0:0:
233,95,9286,2,0,P|240:42|243:-3,1,75.0000028610231,8|0,0:0|0:0,0:0:0:0:
327,188,9617,1,0,0:0:0:0:
350,147,9727,6,0,P|405:130|443:120,1,75.0000028610231,4|0,0:3|0:0,0:0:0:0:
315,227,10168,2,0,P|260:210|222:200,1,75.0000028610231,8|0,0:0|0:0,0:0:0:0:
366,314,10499,1,0,0:0:0:0:
389,273,10609,6,0,P|444:256|456:253,1,37.5000014305115,6|0,0:3|0:0,0:0:0:0:
307,329,10830,2,0,P|324:334|342:340,1,37.5000014305115,0|0,3:0|3:0,0:0:0:0:
279,238,11051,2,0,P|334:221|346:218,1,37.5000014305115,8|0,0:0|0:0,0:0:0:0:
197,294,11272,2,0,P|214:299|232:305,1,37.5000014305115,2|0,0:0|0:0,0:0:0:0:
117,346,11492,6,0,B|100:288|100:288|120:255|120:255|102:184,1,150.000005722046,4|8,0:0|0:0,0:0:0:0:
13,102,12153,1,0,0:0:0:0:
13,102,12264,1,0,0:0:0:0:
13,102,12374,2,0,P|67:116|99:120,1,75.0000028610231,4|0,0:3|0:0,0:0:0:0:
216,25,12815,2,0,P|179:31|143:41,1,75.0000028610231,8|0,0:0|0:0,0:0:0:0:
247,141,13146,1,0,3:0:0:0:
274,101,13256,6,0,L|374:99,1,75.0000028610231,4|0,0:3|0:0,0:0:0:0:
471,27,13698,2,0,L|371:25,1,75.0000028610231,8|0,0:0|0:0,0:0:0:0:
465,200,14028,1,0,0:0:0:0:
446,159,14139,6,0,L|459:112,1,37.5000014305115,6|0,0:3|0:0,0:0:0:0:
361,236,14359,2,0,L|348:189,1,37.5000014305115,0|0,0:0|3:0,0:0:0:0:
475,284,14580,2,0,L|488:237,1,37.5000014305115,8|0,0:0|0:0,0:0:0:0:
390,361,14801,1,0,3:0:0:0:
387,350,14911,1,0,3:0:0:0:
384,339,15021,5,2,0:1:0:0:
384,339,15462,2,0,P|303:327|213:318,1,150.000005722046,10|4,0:0|0:3,0:0:0:0:
149,353,16124,1,0,0:0:0:0:
149,353,16345,2,0,P|141:308|157:266,1,75.0000028610231,8|0,0:0|0:0,0:0:0:0:
166,170,16676,1,0,3:0:0:0:
197,200,16786,6,0,P|205:155|189:113,1,75.0000028610231,4|0,3:0|0:0,0:0:0:0:
44,159,17227,2,0,L|130:167,1,75.0000028610231,8|0,0:0|0:0,0:0:0:0:
251,257,17558,1,0,0:0:0:0:
233,209,17668,6,0,L|178:194,1,37.5000014305115,4|0,0:3|3:0,0:0:0:0:
316,273,17889,2,0,L|279:282,1,37.5000014305115,0|0,3:0|3:0,0:0:0:0:
366,178,18109,2,0,L|311:163,1,37.5000014305115,10|0,0:0|0:0,0:0:0:0:
449,242,18330,2,0,L|412:251,1,37.5000014305115,0|0,0:0|0:0,0:0:0:0:
459,140,18551,6,0,B|473:89|473:89|444:43|444:43|385:27,1,150.000005722046,6|8,0:0|0:0,0:0:0:0:
297,10,19212,1,0,0:0:0:0:
297,10,19323,1,0,0:0:0:0:
297,10,19433,2,0,B|288:46|288:46|305:102,1,75.0000028610231,4|0,0:3|0:0,0:0:0:0:
369,223,19874,2,0,B|378:187|378:187|361:131,1,75.0000028610231,8|0,0:0|0:0,0:0:0:0:
359,356,20205,1,0,3:0:0:0:
335,318,20315,6,0,L|431:313,1,75.0000028610231,4|0,3:0|0:0,0:0:0:0:
258,255,20756,2,0,L|183:258,1,75.0000028610231,8|0,0:0|0:0,0:0:0:0:
55,362,21087,1,0,0:0:0:0:
31,324,21197,6,0,L|96:329,1,37.5000014305115,0|0,0:0|3:0,0:0:0:0:
71,217,21418,2,0,L|113:266,1,37.5000014305115,0|0,0:0|3:0,0:0:0:0:
220,255,21639,2,0,L|183:258,1,37.5000014305115,8|0,3:2|0:0,0:0:0:0:
180,148,21860,2,0,L|156:177,1,37.5000014305115,0|0,3:0|3:0,0:0:0:0:
331,335,22080,5,6,0:0:0:0:
332,323,22190,1,0,0:0:0:0:
333,311,22301,1,0,0:0:0:0:
335,299,22411,1,0,0:0:0:0:
374,278,22521,5,8,0:0:0:0:
375,266,22631,1,0,0:0:0:0:
376,254,22742,1,0,0:0:0:0:
377,242,22852,1,2,0:3:0:0:
378,230,22962,6,0,L|383:186,3,37.5000014305115,0|0|2|0,0:0|0:0|0:3|0:0,0:0:0:0:
295,170,23403,2,0,L|290:126,3,37.5000014305115,8|0|0|0,0:0|0:0|0:0|0:0,0:0:0:0:
219,244,23845,5,6,0:0:0:0:
207,241,23955,1,0,0:0:0:0:
197,235,24065,1,0,0:0:0:0:
188,227,24176,1,0,0:0:0:0:
146,232,24286,5,8,0:0:0:0:
140,222,24396,1,0,0:0:0:0:
137,211,24506,1,0,0:0:0:0:
136,198,24617,1,2,0:3:0:0:
95,173,24727,6,0,L|87:122,3,37.5000014305115,0|0|2|0,0:0|0:0|0:3|0:0,0:0:0:0:
170,93,25168,2,0,L|178:42,3,37.5000014305115,8|0|0|0,0:0|0:0|0:0|0:0,0:0:0:0:
266,129,25609,5,4,0:0:0:0:
277,127,25720,1,0,0:0:0:0:
288,125,25830,1,0,0:0:0:0:
299,123,25940,1,0,0:0:0:0:
323,97,26051,5,8,0:0:0:0:
334,95,26162,1,0,0:0:0:0:
345,93,26272,1,0,0:0:0:0:
356,91,26382,1,2,0:3:0:0:
396,118,26492,6,0,P|403:135|407:161,3,37.5000014305115,0|0|2|0,0:0|0:0|0:3|0:0,0:0:0:0:
490,183,26933,2,0,P|486:201|479:218,3,37.5000014305115,8|0|0|0,0:0|0:0|0:0|0:0,0:0:0:0:
395,258,27374,5,4,0:0:0:0:
386,265,27484,1,0,0:0:0:0:
377,272,27595,1,0,0:0:0:0:
368,279,27705,1,0,0:0:0:0:
327,271,27815,5,8,0:0:0:0:
318,278,27925,1,0,0:0:0:0:
309,285,28036,1,0,0:0:0:0:
299,291,28146,6,0,L|239:299,1,37.5000014305115,2|0,0:3|0:0,0:0:0:0:
167,350,28367,2,0,L|227:358,1,37.5000014305115,0|2,0:0|0:3,0:0:0:0:
157,166,28587,5,0,0:0:0:0:
127,254,28698,1,0,1:0:0:0:
127,254,28918,2,0,L|62:252,1,37.5000014305115,2|0,0:1|0:0,0:0:0:0:
185,80,29139,5,4,0:0:0:0:
157,166,29359,1,0,0:0:0:0:
258,135,29580,1,8,0:0:0:0:
177,176,29800,1,0,0:0:0:0:
359,195,30021,5,4,0:3:0:0:
387,281,30241,1,0,0:0:0:0:
286,250,30462,1,8,0:0:0:0:
367,291,30682,1,0,0:0:0:0:
125,343,30903,5,4,0:0:0:0:
166,261,31124,1,0,0:0:0:0:
211,325,31345,1,8,0:0:0:0:
170,243,31566,1,0,0:0:0:0:
387,343,31786,5,4,0:3:0:0:
346,261,32007,1,0,0:0:0:0:
301,325,32228,1,0,0:0:0:0:
342,243,32449,1,0,0:0:0:0:
79,264,32668,5,0,1:0:0:0:
342,243,32889,1,4,0:3:0:0:
80,253,33109,5,0,1:0:0:0:
338,156,33330,1,4,0:3:0:0:
79,243,33551,5,0,1:0:0:0:
336,67,33772,1,4,0:3:0:0:
75,234,33992,5,0,1:0:0:0:
250,20,34212,1,4,0:3:0:0:
126,143,34433,5,0,1:0:0:0:
140,146,34543,1,0,3:0:0:0:
154,149,34653,1,4,3:0:0:0:
168,152,34764,1,0,3:0:0:0:
182,157,34874,6,0,L|220:167,2,25,4|0|0,3:0|3:0|3:0,0:0:0:0:
115,219,35095,2,0,P|114:262|116:286,1,50,4|0,3:0|3:0,0:0:0:0:
197,321,35315,6,0,L|229:327,4,25,4|0|0|0|0,3:0|0:0|3:0|0:0|3:0,0:0:0:0:
284,254,35536,2,0,L|308:249,4,25,4|0|0|0|0,3:0|0:0|3:0|0:0|3:0,0:0:0:0:
284,254,35977,6,0,L|396:238,1,100,0|0,1:0|0:0,0:0:0:0:
466,225,36195,5,4,0:0:0:0:
262,350,43256,5,6,0:0:0:0:
93,257,43586,1,0,1:0:0:0:
93,257,43697,2,0,L|86:184,1,50,2|0,1:3|0:0,0:0:0:0:
183,194,43917,2,0,L|190:121,1,50,0|0,1:0|0:0,0:0:0:0:
275,236,44138,1,0,1:0:0:0:
275,236,44248,2,0,P|334:240|389:261,1,100,0|0,1:0|1:0,0:0:0:0:
389,271,44579,2,0,L|403:375,1,100,2|0,1:3|1:0,0:0:0:0:
490,214,45020,5,6,0:0:0:0:
367,132,45241,1,0,1:0:0:0:
367,132,45351,1,0,1:0:0:0:
367,132,45461,2,0,P|472:132|493:117,1,100,2|0,1:3|1:0,0:0:0:0:
300,41,45903,1,0,1:0:0:0:
300,41,46013,2,0,P|195:41|174:56,1,100,0|0,1:0|1:0,0:0:0:0:
135,90,46344,1,2,1:3:0:0:
135,90,46564,2,0,L|143:164,1,50,0|0,1:0|1:0,0:0:0:0:
269,343,46785,5,6,1:2:0:0:
272,329,46895,1,0,1:0:0:0:
275,315,47006,1,0,1:0:0:0:
278,301,47116,1,0,1:0:0:0:
281,287,47226,1,0,1:0:0:0:
284,273,47336,1,0,1:0:0:0:
287,259,47447,1,0,1:0:0:0:
290,245,47557,1,0,1:0:0:0:
293,231,47667,6,0,L|302:188,2,25,6|0|0,1:2|1:0|1:0,0:0:0:0:
205,247,47888,1,0,1:0:0:0:
191,249,47998,1,0,1:0:0:0:
177,251,48108,6,0,L|139:256,4,25,0|0|0|0|0,1:0|0:0|1:0|0:0|1:0,0:0:0:0:
235,164,48329,2,0,L|259:167,4,25,0|0|0|0|0,2:0|2:0|2:0|2:0|2:0,0:0:0:0:
201,72,48550,5,2,1:0:0:0:
101,28,48660,1,0,0:0:0:0:
16,69,48770,1,0,0:0:0:0:
5,115,48881,6,0,L|11:198,1,74.9999977111817,2|6,0:0|0:0,0:0:0:0:
10,189,49653,6,0,L|15:258,1,50,2|0,0:0|0:0,0:0:0:0:
206,210,49873,1,0,1:0:0:0:
197,171,49983,2,0,B|139:154|139:154|83:194,1,100,4|0,0:0|0:0,0:0:0:0:
202,313,50314,6,0,L|324:302,1,100,6|0,1:0|0:0,0:0:0:0:
340,312,50682,2,0,L|240:320,1,100,2|0,0:1|0:0,0:0:0:0:
202,313,50976,1,2,0:1:0:0:
428,225,51197,6,0,L|306:214,1,100,2|0,1:0|0:0,0:0:0:0:
329,216,51564,1,2,0:1:0:0:
428,225,51859,1,2,0:1:0:0:
122,142,52079,6,0,L|244:131,1,100,2|0,1:0|0:0,0:0:0:0:
221,133,52447,1,2,0:1:0:0:
122,142,52741,1,2,0:1:0:0:
405,67,52961,6,0,L|283:56,1,100,2|0,1:0|0:0,0:0:0:0:
306,58,53329,1,2,0:1:0:0:
405,67,53623,2,0,L|481:75,1,50,2|0,0:1|0:0,0:0:0:0:
198,209,53844,6,0,P|177:138|209:93,1,100,6|0,1:0|0:0,0:0:0:0:
185,117,54211,1,2,0:1:0:0:
198,209,54505,1,2,0:1:0:0:
349,176,54726,6,0,P|370:247|338:292,1,100,2|0,1:0|0:0,0:0:0:0:
361,267,55094,1,2,0:1:0:0:
349,176,55387,1,2,0:1:0:0:
169,315,55608,6,0,L|299:296,1,100,2|0,1:0|0:0,0:0:0:0:
267,300,55976,1,2,0:1:0:0:
169,315,56270,1,2,0:1:0:0:
447,190,56491,6,0,L|317:171,1,100,2|0,1:0|0:0,0:0:0:0:
348,175,56858,1,2,0:1:0:0:
447,190,57153,1,2,0:1:0:0:
147,95,57373,6,0,P|139:184|141:219,1,100,6|0,1:0|0:0,0:0:0:0:
50,235,57741,2,0,P|66:249|86:278,1,33.3333333333333,2|8,0:1|0:1,0:0:0:0:
73,258,58035,1,2,0:1:0:0:
248,135,58255,6,0,P|256:224|254:259,1,100,2|0,1:0|0:0,0:0:0:0:
309,308,58623,2,0,P|293:322|273:351,1,33.3333333333333,2|8,0:1|0:1,0:0:0:0:
285,331,58917,1,2,0:1:0:0:
386,178,59138,6,0,L|497:167,1,100,2|0,1:0|0:0,0:0:0:0:
493,83,59505,2,0,L|430:87,1,33.3333333333333,2|8,0:1|0:1,0:0:0:0:
460,86,59800,1,2,0:1:0:0:
215,100,60020,6,0,B|270:112|270:112|326:89,1,100,2|0,1:0|0:0,0:0:0:0:
322,5,60388,2,0,L|261:9,1,33.3333333333333,2|8,0:1|0:1,0:0:0:0:
289,8,60682,2,0,L|213:14,1,50,2|0,0:1|0:0,0:0:0:0:
72,50,60903,6,0,B|60:109|60:109|88:176,1,100,6|0,1:1|0:0,0:0:0:0:
114,222,61270,1,2,0:1:0:0:
114,222,61344,2,0,L|235:211,1,100,8|2,0:1|0:1,0:0:0:0:
444,187,61785,6,0,L|379:180,1,50,2|0,1:0|0:0,0:0:0:0:
394,181,62153,2,0,L|329:174,1,33.3333333333333,2|8,0:1|0:1,0:0:0:0:
360,177,62447,2,0,L|295:170,1,50,2|0,0:1|0:0,0:0:0:0:
205,12,62667,6,0,P|177:79|181:132,1,100,2|0,1:0|0:0,0:0:0:0:
93,133,63035,2,0,P|84:83|85:75,1,33.3333333333333,2|8,0:1|0:1,0:0:0:0:
84,101,63329,1,2,0:1:0:0:
127,235,63550,6,0,L|51:257,1,50,4|0,3:0|0:0,0:0:0:0:
291,191,63770,1,4,0:3:0:0:
225,346,63991,6,0,L|203:155,1,150,0|0,1:0|0:0,0:0:0:0:
193,83,64432,5,6,1:0:0:0:
161,74,64542,1,0,0:0:0:0:
129,66,64653,1,0,0:0:0:0:
97,58,64763,6,0,L|15:37,2,64.9999970245363,2|8|0,0:1|0:1|0:0,0:0:0:0:
193,83,65094,2,0,L|252:22,2,64.9999970245363,2|0|4,0:0|0:0|0:3,0:0:0:0:
124,157,65425,2,0,L|146:238,2,64.9999970245363,2|0|0,0:1|0:0|0:0,0:0:0:0:
193,83,65755,5,8,0:1:0:0:
225,88,65866,1,2,0:0:0:0:
256,93,65976,1,2,0:0:0:0:
287,99,66086,6,0,L|364:112,2,64.9999970245363,2|4|0,0:1|0:0|0:0,0:0:0:0:
393,34,66417,2,0,L|457:23,2,64.9999970245363,2|0|8,0:0|0:0|0:1,0:0:0:0:
446,119,66748,2,0,L|510:129,2,64.9999970245363,2|0|0,0:1|0:0|0:0,0:0:0:0:
367,199,67079,5,4,3:0:0:0:
352,227,67189,1,0,0:0:0:0:
348,259,67300,1,0,0:0:0:0:
355,290,67410,6,0,P|388:310|451:331,2,64.9999970245363,2|8|0,0:1|0:1|0:0,0:0:0:0:
255,278,67741,2,0,P|264:315|293:374,1,64.9999970245363,2|0,0:0|0:0,0:0:0:0:
275,184,67961,6,0,B|211:161|220:211|106:180,1,129.999994049073,6|0,0:0|0:0,0:0:0:0:
70,127,68292,6,0,P|63:89|61:40,2,64.9999970245363,2|8|0,0:1|0:1|0:0,0:0:0:0:
147,188,68623,5,2,0:0:0:0:
156,219,68733,1,0,0:0:0:0:
159,251,68844,1,4,3:0:0:0:
153,283,68954,6,0,P|146:321|144:370,2,64.9999970245363,2|0|0,0:1|0:0|0:0,0:0:0:0:
262,217,69285,5,8,0:1:0:0:
293,210,69395,1,2,0:0:0:0:
324,203,69505,1,2,0:0:0:0:
356,196,69616,6,0,L|434:182,2,64.9999970245363,2|4|0,0:1|0:0|0:0,0:0:0:0:
262,217,69947,2,0,L|210:156,2,64.9999970245363,2|0|8,0:0|0:0|0:1,0:0:0:0:
326,293,70278,2,0,L|299:367,2,64.9999970245363,2|0|0,0:1|0:0|0:0,0:0:0:0:
262,217,70608,5,4,3:0:0:0:
232,202,70719,1,0,0:0:0:0:
198,200,70829,1,0,0:0:0:0:
167,211,70939,6,0,L|83:201,2,64.9999970245363,2|8|0,0:1|0:1|0:0,0:0:0:0:
147,303,71270,2,0,L|212:296,1,64.9999970245363,2|0,0:0|0:0,0:0:0:0:
332,130,71491,5,4,0:0:0:0:
340,98,71601,1,0,0:0:0:0:
350,67,71711,1,0,0:0:0:0:
358,35,71822,6,0,B|390:22|390:22|461:26,2,64.9999970245363,2|8|0,0:1|0:1|0:0,0:0:0:0:
243,23,72153,5,2,0:0:0:0:
251,55,72263,1,0,0:0:0:0:
261,86,72373,1,4,3:0:0:0:
269,118,72484,6,0,B|301:131|301:131|372:127,2,64.9999970245363,2|0|0,0:1|0:0|0:0,0:0:0:0:
154,129,72814,5,8,0:1:0:0:
162,97,72924,1,2,0:0:0:0:
172,66,73034,1,2,0:0:0:0:
180,34,73145,6,0,B|212:21|212:21|283:25,2,64.9999970245363,2|4|0,0:1|0:0|0:0,0:0:0:0:
154,129,73476,2,0,B|149:163|149:163|110:222,2,64.9999970245363,2|0|8,0:0|0:0|0:1,0:0:0:0:
79,62,73807,2,0,B|51:40|51:40|19:-22,2,64.9999970245363,2|4|0,0:1|0:0|0:0,0:0:0:0:
154,129,74138,5,4,3:0:0:0:
172,155,74248,1,0,0:0:0:0:
174,187,74358,1,2,0:0:0:0:
162,217,74469,6,0,L|150:302,2,64.9999970245363,2|8|0,0:1|0:1|0:0,0:0:0:0:
243,289,74800,2,0,L|253:354,1,64.9999970245363,2|0,0:0|0:0,0:0:0:0:
327,234,75020,6,0,P|404:210|481:211,1,129.999994049073,4|2,0:0|0:0,0:0:0:0:
512,131,75351,2,0,P|425:122|395:124,1,64.9999970245363,2|8,0:1|0:1,0:0:0:0:
363,84,75572,1,0,0:0:0:0:
363,84,75682,6,0,P|298:88|237:110,1,129.999994049073,2|4,0:0|3:0,0:0:0:0:
161,187,76013,2,0,P|193:189|225:195,1,64.9999970245363,2|0,0:1|0:0,0:0:0:0:
145,101,76233,1,2,0:0:0:0:
145,101,76344,2,0,P|112:103|80:109,2,64.9999970245363,8|2|2,0:1|0:0|0:0,0:0:0:0:
288,263,76675,6,0,L|301:352,2,64.9999970245363,2|4|0,0:1|0:0|0:0,0:0:0:0:
225,195,77005,2,0,L|238:106,2,64.9999970245363,2|0|8,0:0|0:0|0:1,0:0:0:0:
158,268,77336,2,0,L|171:357,2,64.9999970245363,2|0|0,0:1|0:0|0:0,0:0:0:0:
73,213,77667,5,4,3:0:0:0:
69,180,77778,1,0,0:0:0:0:
65,147,77888,1,0,0:0:0:0:
61,114,77998,6,0,P|30:102|-13:100,2,64.9999970245363,2|8|0,0:1|0:1|0:0,0:0:0:0:
159,172,78329,2,0,P|191:168|221:156,1,64.9999970245363,2|0,0:0|0:0,0:0:0:0:
318,97,78550,5,6,1:0:0:0:
349,102,78660,1,0,0:0:0:0:
380,107,78770,1,2,0:0:0:0:
411,112,78880,6,0,P|481:87|499:67,2,64.9999970245363,2|8|0,0:1|0:1|0:0,0:0:0:0:
334,206,79211,2,0,P|320:279|328:304,2,64.9999970245363,2|0|4,0:0|0:0|3:0,0:0:0:0:
285,92,79542,2,0,P|228:43|202:38,2,64.9999970245363,2|0|0,0:1|0:0|0:0,0:0:0:0:
153,163,79873,5,8,0:1:0:0:
129,155,79983,1,0,0:0:0:0:
103,148,80094,1,2,0:0:0:0:
74,139,80204,6,0,L|-17:119,2,64.9999970245363,2|4|0,0:1|0:0|0:0,0:0:0:0:
173,207,80535,2,0,L|264:187,2,64.9999970245363,2|0|8,0:0|0:0|0:1,0:0:0:0:
88,261,80866,2,0,L|-3:241,2,64.9999970245363,2|2|0,0:1|0:0|0:0,0:0:0:0:
157,342,81197,5,4,3:0:0:0:
188,336,81307,1,0,0:0:0:0:
220,331,81417,1,0,0:0:0:0:
252,326,81528,6,0,B|285:335|285:335|322:351,2,64.9999970245363,2|8|0,0:1|0:1|0:0,0:0:0:0:
318,252,81858,2,0,B|346:239|346:239|379:230,1,64.9999970245363,2|0,0:0|0:0,0:0:0:0:
248,90,82079,6,0,L|229:252,1,129.999994049073,6|0,0:0|0:0,0:0:0:0:
143,176,82410,2,0,P|114:163|84:151,2,64.9999970245363,2|8|0,0:1|0:1|0:0,0:0:0:0:
312,28,82741,6,0,P|233:2|165:57,1,129.999994049073,2|4,0:0|3:0,0:0:0:0:
346,116,83072,2,0,P|406:66|416:46,1,64.9999970245363,2|2,0:1|0:0,0:0:0:0:
248,90,83292,1,0,0:0:0:0:
245,122,83403,2,0,L|235:211,2,64.9999970245363,8|0|2,0:1|0:0|0:0,0:0:0:0:
67,140,83733,6,0,P|-11:134|-23:136,2,64.9999970245363,2|4|0,0:1|0:0|0:0,0:0:0:0:
165,58,84064,2,0,P|209:-6|213:-17,2,64.9999970245363,2|0|8,0:0|0:0|0:1,0:0:0:0:
192,202,84395,2,0,P|225:272|233:281,2,64.9999970245363,2|0|0,0:1|0:0|0:0,0:0:0:0:
297,135,84726,5,4,3:0:0:0:
329,132,84836,1,0,0:0:0:0:
361,129,84947,1,2,0:0:0:0:
393,126,85057,6,0,L|479:115,2,64.9999970245363,2|8|0,0:1|0:1|0:0,0:0:0:0:
309,217,85388,2,0,L|374:226,1,64.9999970245363,2|0,0:0|0:0,0:0:0:0:
441,343,85608,6,0,P|290:328|267:334,1,129.999994049073,4|0,0:0|0:0,0:0:0:0:
156,318,85939,6,0,P|115:315|63:288,2,64.9999970245363,2|8|0,0:1|0:1|0:0,0:0:0:0:
246,228,86270,2,0,P|276:218|309:217,2,64.9999970245363,2|0|4,0:0|0:0|3:0,0:0:0:0:
148,163,86601,2,0,P|117:153|84:152,2,64.9999970245363,2|0|0,0:1|0:0|0:0,0:0:0:0:
241,96,86932,5,8,0:1:0:0:
253,65,87042,1,2,0:0:0:0:
251,32,87153,1,2,0:0:0:0:
233,4,87263,6,0,L|341:19,2,64.9999970245363,2|4|0,0:1|0:0|0:0,0:0:0:0:
156,79,87594,5,2,0:0:0:0:
124,86,87704,2,0,P|61:48|44:32,1,64.9999970245363,0|8,0:0|0:1,0:0:0:0:
213,152,87925,1,2,0:1:0:0:
245,159,88035,2,0,P|308:121|325:105,1,64.9999970245363,4|0,0:0|0:0,0:0:0:0:
124,206,88255,5,4,3:0:0:0:
124,206,88366,2,0,L|112:282,1,64.9999970245363,0|0,0:0|0:0,0:0:0:0:
255,223,88586,2,0,L|244:158,1,64.9999970245363,2|8,0:1|0:1,0:0:0:0:
224,320,88807,1,0,0:0:0:0:
224,320,88917,2,0,P|290:319|317:307,1,64.9999970245363,2|0,0:0|0:0,0:0:0:0:
483,257,89138,6,0,B|418:227|429:294|311:240,1,129.999994049073,4|2,0:0|0:0,0:0:0:0:
405,171,89469,2,0,P|477:164|510:172,1,64.9999970245363,2|8,0:1|0:1,0:0:0:0:
303,186,89689,1,0,0:0:0:0:
303,186,89800,2,0,P|321:101|364:70,1,129.999994049073,2|4,0:0|3:0,0:0:0:0:
209,102,90130,6,0,P|191:187|148:218,1,129.999994049073,2|0,0:1|0:0,0:0:0:0:
33,104,90461,1,8,0:1:0:0:
65,98,90572,1,2,0:0:0:0:
96,105,90682,1,2,0:0:0:0:
115,130,90792,6,0,P|51:172|16:179,2,64.9999970245363,2|4|0,0:1|0:0|0:0,0:0:0:0:
163,27,91123,1,2,0:0:0:0:
163,27,91233,2,0,L|78:11,1,64.9999970245363,0|8,0:0|0:1,0:0:0:0:
236,113,91454,1,2,0:1:0:0:
236,113,91564,2,0,L|321:97,1,64.9999970245363,0|0,0:0|0:0,0:0:0:0:
417,79,91785,5,4,3:0:0:0:
417,79,91895,1,2,0:0:0:0:
417,79,92005,2,0,L|376:254,1,129.999994049073,2|0,0:0|1:0,0:0:0:0:
363,300,92336,1,0,3:0:0:0:
363,300,92447,1,0,3:0:0:0:
236,222,92667,6,0,P|176:204|119:247,1,119.999996337891,4|0,0:0|3:0,0:0:0:0:
140,356,93550,2,0,P|200:374|256:331,1,119.999996337891,2|0,0:0|3:0,0:0:0:0:
332,213,94432,6,0,P|383:185|439:203,1,119.999996337891,2|0,0:0|3:0,0:0:0:0:
450,327,95315,2,0,P|398:354|343:336,1,119.999996337891,2|0,0:0|3:0,0:0:0:0:
129,230,96197,6,0,P|180:202|236:220,1,119.999996337891,2|0,0:0|3:0,0:0:0:0:
342,335,97079,1,2,0:0:0:0:
450,327,97520,1,2,0:0:0:0:
438,202,97961,6,0,P|390:123|354:234,1,239.999992675781,2|0,0:0|0:0,0:0:0:0:
319,359,99285,1,2,0:0:0:0:
319,359,99395,2,0,L|259:351,1,59.9999981689454,0|0,0:0|0:0,0:0:0:0:
248,341,99726,6,0,P|190:374|122:351,1,139.999995727539,4|0,0:0|1:0,0:0:0:0:
39,192,100388,1,0,1:0:0:0:
12,281,100608,1,0,1:0:0:0:
12,281,100719,2,0,L|91:271,1,69.9999978637696,0|0,1:0|0:0,0:0:0:0:
97,270,101050,1,0,1:0:0:0:
135,94,101270,2,0,L|65:102,1,69.9999978637696,0|6,1:0|0:0,0:0:0:0:
181,289,101711,5,0,1:0:0:0:
181,289,101822,2,0,L|191:210,1,69.9999978637696,0|0,1:0|0:0,0:0:0:0:
186,203,102153,1,0,1:0:0:0:
274,264,102373,5,0,1:0:0:0:
271,248,102483,2,0,L|277:200,1,40,0|0,1:0|0:0,0:0:0:0:
226,129,102704,2,0,L|319:118,1,89.9999972534181,0|0,0:0|0:0,0:0:0:0:
390,92,103035,2,0,B|397:102|397:102|391:144,1,50,0|0,1:0|1:0,0:0:0:0:
371,215,103255,5,6,1:2:0:0:
390,249,103365,1,0,1:0:0:0:
423,271,103475,1,0,1:0:0:0:
462,275,103585,1,0,1:0:0:0:
499,259,103697,5,0,1:0:0:0:
453,242,103807,1,0,1:0:0:0:
407,259,103917,1,0,1:0:0:0:
384,302,104027,1,0,1:0:0:0:
395,350,104138,6,0,P|403:364|413:373,2,25,6|0|0,1:2|1:0|1:0,0:0:0:0:
462,275,104358,6,0,L|457:309,1,34.9999989318848,2|0,1:2|1:0,0:0:0:0:
371,215,104579,6,0,L|329:219,2,25,2|0|0,1:3|1:0|1:0,0:0:0:0:
302,282,104800,2,0,L|260:286,2,25,0|0|0,1:0|2:0|2:0,0:0:0:0:
233,349,105020,5,2,0:1:0:0:
170,286,105130,1,0,0:0:0:0:
99,340,105241,1,2,0:0:0:0:
71,329,105351,6,0,L|100:326,1,29.9999990844727,2|0,0:1|0:0,0:0:0:0:
170,286,105682,6,0,L|174:244,2,33.3333333333333,2|0|0,1:0|0:0|0:0,0:0:0:0:
133,170,105903,6,0,L|137:128,4,25,2|0|0|0|0,1:0|0:0|0:0|0:0|0:0,0:0:0:0:
96,76,106123,2,0,L|100:34,4,25,2|0|0|0|0,1:0|0:0|0:0|0:0|0:0,0:0:0:0:
57,146,106344,6,0,B|47:139|47:139|5:145,1,50,2|0,0:1|0:0,0:0:0:0:
174,75,106564,2,0,B|184:82|184:82|226:76,1,50,2|0,0:1|0:0,0:0:0:0:
398,150,106785,6,0,P|352:108|292:119,1,127.50000243187,6|0,0:0|0:0,0:0:0:0:
287,123,107005,6,0,P|300:96|300:66,1,59.9999981689454,4|0,3:0|0:0,0:0:0:0:
133,170,107226,6,0,L|207:161,1,75.0000028610231,0|0,1:0|0:0,0:0:0:0:
398,150,107447,2,0,P|366:176|324:174,1,75.0000028610231,2|0,0:0|0:0,0:0:0:0:
133,170,107667,6,0,P|163:222|273:203,1,166.666666666667,6|2,1:0|0:1,0:0:0:0:
263,215,108108,2,0,L|253:324,1,100,4|2,3:0|0:1,0:0:0:0:
167,366,108550,5,2,1:0:0:0:
338,273,108770,1,0,0:0:0:0:
353,303,108917,2,0,L|251:315,1,100,2|0,0:1|0:0,0:0:0:0:
240,317,109211,1,2,0:1:0:0:
441,363,109432,2,0,B|428:347|428:347|438:251,1,100,2|0,1:0|0:0,0:0:0:0:
410,152,109873,1,2,1:1:0:0:
410,152,109983,2,0,L|417:83,2,50,0|0|0,0:0|0:0|0:0,0:0:0:0:
338,186,110314,5,6,1:0:0:0:
475,197,110535,1,0,0:0:0:0:
486,60,110755,1,2,1:0:0:0:
349,49,110976,1,0,0:0:0:0:
174,186,111197,6,0,P|125:227|31:193,1,150,2|2,1:0|0:1,0:0:0:0:
37,197,111638,1,0,0:0:0:0:
182,370,111858,1,2,0:1:0:0:
100,142,112079,5,6,1:0:0:0:
0,310,112300,1,0,0:0:0:0:
20,337,112447,2,0,L|122:326,1,100
182,370,112741,1,2,0:0:0:0:
216,365,112851,1,0,0:0:0:0:
251,361,112961,1,2,1:0:0:0:
271,187,113182,1,2,0:0:0:0:
251,361,113403,1,2,1:0:0:0:
271,187,113624,1,2,0:0:0:0:
266,226,113734,1,0,0:0:0:0:
261,265,113844,6,0,P|330:245|396:309,1,166.666666666667,6|0,1:0|0:0,0:0:0:0:
418,374,114285,2,0,L|429:272,1,100,10|0,0:1|0:0,0:0:0:0:
512,154,114726,6,0,P|443:174|377:109,1,166.666666666667,6|0,1:0|0:0,0:0:0:0:
355,45,115167,2,0,L|344:147,1,100,10|0,0:1|0:0,0:0:0:0:
457,91,115608,5,6,1:0:0:0:
256,186,115829,1,2,0:0:0:0:
256,186,115939,1,0,0:0:0:0:
256,186,116050,2,0,L|266:86,1,100,10|2,0:1|0:0,0:0:0:0:
35,80,116491,2,0,P|112:61|160:142,1,166.666666666667,4|0,0:3|0:0,0:0:0:0:
156,196,116932,1,10,0:1:0:0:
180,193,117042,1,0,0:0:0:0:
205,190,117152,1,0,0:0:0:0:
230,187,117262,1,0,0:0:0:0:
255,185,117373,6,0,L|244:284,1,100,6|2,1:0|0:0,0:0:0:0:
270,373,117704,1,0,0:0:0:0:
270,373,117814,1,10,0:1:0:0:
180,351,118035,1,2,0:0:0:0:
335,243,118255,2,0,P|414:231|462:319,1,150,2|0,1:0|0:0,0:0:0:0:
385,306,118697,1,10,0:1:0:0:
285,180,118917,1,2,1:0:0:0:
410,70,119138,6,0,B|384:175|384:175|409:208,1,149.999995422363,6|2,1:0|1:0,0:0:0:0:
458,277,119579,1,8,0:1:0:0:
335,242,119800,1,2,0:0:0:0:
212,209,120020,2,0,L|273:202,1,50,4|0,3:0|0:0,0:0:0:0:
285,180,120241,1,0,0:0:0:0:
458,277,120461,6,0,B|362:287|362:287|330:290|303:333|339:369|370:366|370:366|418:361,1,240,0|0,1:0|0:0,0:0:0:0:
464,341,120903,6,0,L|457:276,1,64.9999970245363,2|0,1:0|0:0,0:0:0:0:
285,180,121123,1,0,0:0:0:0:
285,180,121233,2,0,P|364:168|411:218,1,129.999994049073,2|0,0:1|0:0,0:0:0:0:
406,206,121564,1,2,0:0:0:0:
512,73,121785,1,4,3:0:0:0:
512,73,121895,2,0,L|382:86,1,129.999994049073,2|0,0:1|0:0,0:0:0:0:
373,88,122226,2,0,L|379:23,1,64.9999970245363,8|0,0:1|0:0,0:0:0:0:
275,115,122447,1,2,0:0:0:0:
288,129,122557,6,0,L|302:0,1,129.999994049073,2|0,0:1|0:0,0:0:0:0:
302,0,122888,1,2,0:0:0:0:
225,188,123108,1,8,0:1:0:0:
225,188,123218,2,0,P|146:200|99:149,1,129.999994049073,2|0,0:1|0:0,0:0:0:0:
104,161,123549,1,4,3:0:0:0:
104,161,123660,2,0,L|39:167,1,64.9999970245363,0|0,0:0|0:0,0:0:0:0:
0,295,123880,2,0,L|129:281,1,129.999994049073,2|0,0:1|0:0,0:0:0:0:
140,288,124211,2,0,L|75:294,1,64.9999970245363,2|0,0:0|0:0,0:0:0:0:
170,365,124432,6,0,L|105:371,1,64.9999970245363,4|0,0:0|0:0,0:0:0:0:
222,301,124653,1,2,0:0:0:0:
222,301,124763,2,0,P|301:289|348:339,1,129.999994049073,2|0,0:1|0:0,0:0:0:0:
343,327,125094,1,2,0:0:0:0:
473,373,125314,1,4,3:0:0:0:
473,373,125425,2,0,L|487:244,1,129.999994049073,2|0,0:1|0:0,0:0:0:0:
488,231,125755,2,0,L|423:237,1,64.9999970245363,8|2,0:1|0:0,0:0:0:0:
315,152,125976,1,2,0:0:0:0:
304,167,126086,6,0,L|433:153,1,129.999994049073,2|0,0:1|0:0,0:0:0:0:
441,152,126417,2,0,L|447:87,2,64.9999970245363,2|0|8,0:0|0:0|0:1,0:0:0:0:
283,79,126748,1,2,0:1:0:0:
283,79,126858,2,0,L|289:14,1,64.9999970245363,0|0,0:0|0:0,0:0:0:0:
367,72,127079,1,4,3:0:0:0:
367,72,127189,2,0,L|373:7,1,64.9999970245363,0|0,0:0|0:0,0:0:0:0:
304,167,127410,2,0,L|175:181,1,129.999994049073,2|0,0:1|0:0,0:0:0:0:
167,171,127741,2,0,L|231:163,1,64.9999970245363,2|0,0:0|0:0,0:0:0:0:
342,245,127961,6,0,L|278:252,1,64.9999970245363,4|0,0:0|0:0,0:0:0:0:
160,348,128182,1,0,0:0:0:0:
160,348,128292,2,0,P|239:336|286:386,1,129.999994049073,2|0,0:1|0:0,0:0:0:0:
281,374,128623,1,2,0:0:0:0:
460,303,128844,1,4,0:3:0:0:
460,303,128954,2,0,P|405:335|344:319,1,129.999994049073,2|0,0:1|0:0,0:0:0:0:
336,309,129285,2,0,L|342:244,2,64.9999970245363,8|0|2,0:0|0:0|0:0,0:0:0:0:
291,183,129616,6,0,P|370:171|417:221,1,129.999994049073,2|0,0:1|0:0,0:0:0:0:
411,209,129947,2,0,L|476:203,2,64.9999970245363,2|2|8,0:0|0:3|0:0,0:0:0:0:
451,60,130278,1,2,0:1:0:0:
451,60,130388,2,0,L|445:125,1,64.9999970245363,0|0,0:0|0:0,0:0:0:0:
370,19,130608,1,4,0:3:0:0:
370,19,130718,2,0,L|364:84,1,64.9999970245363,0|2,0:0|0:0,0:0:0:0:
291,183,130939,2,0,P|370:171|417:221,1,129.999994049073,2|0,0:1|0:0,0:0:0:0:
411,209,131270,2,0,L|476:203,1,64.9999970245363,2|0,0:0|0:0,0:0:0:0:
502,283,131491,6,0,L|437:289,1,64.9999970245363,4|0,0:0|0:0,0:0:0:0:
325,387,131711,1,0,0:0:0:0:
325,387,131822,2,0,L|339:258,1,129.999994049073,2|0,0:1|0:0,0:0:0:0:
341,243,132153,1,2,0:3:0:0:
339,108,132373,1,4,0:3:0:0:
339,108,132483,2,0,P|260:96|213:146,1,129.999994049073,2|0,0:1|0:0,0:0:0:0:
218,134,132814,2,0,L|212:199,2,64.9999970245363,8|0|2,0:0|0:0|0:0,0:0:0:0:
263,260,133145,6,0,P|184:272|137:222,1,129.999994049073,2|0,0:1|0:0,0:0:0:0:
143,233,133476,2,0,L|78:239,2,64.9999970245363,2|0|8,0:0|0:0|0:0,0:0:0:0:
102,381,133807,1,2,0:1:0:0:
102,381,133917,2,0,L|108:315,1,64.9999970245363,0|0,0:0|0:0,0:0:0:0:
48,160,134138,1,4,0:3:0:0:
48,160,134248,2,0,L|164:147,1,64.9999970245363,0|0,0:0|0:0,0:0:0:0:
260,158,134469,2,0,L|195:165,1,64.9999970245363,2|0,0:1|0:0,0:0:0:0:
78,240,134689,1,0,0:0:0:0:
78,240,134799,2,0,L|194:227,1,64.9999970245363,2|0,0:1|0:0,0:0:0:0:
226,240,135020,6,0,L|326:230,2,100,4|2|0,3:0|0:0|0:0,0:0:0:0:
219,246,135572,2,0,L|208:345,1,100,2|0,0:0|0:0,0:0:0:0:
288,363,135903,2,0,L|295:293,2,50,2|0|2,0:0|0:0|0:0,0:0:0:0:
286,372,136233,2,0,L|385:361,1,100,0|0,0:0|0:0,0:0:0:0:
413,286,136564,1,2,0:0:0:0:
413,286,136675,1,0,3:0:0:0:
413,286,136785,6,0,L|512:275,2,100,4|2|0,0:3|0:0|0:0,0:0:0:0:
403,282,137336,2,0,L|413:182,1,100,2|0,0:0|0:0,0:0:0:0:
345,141,137667,2,0,L|352:71,1,50,2|0,3:2|3:0,0:0:0:0:
281,49,137888,1,2,3:2:0:0:
281,49,137998,1,0,3:0:0:0:
281,49,138108,2,0,L|288:-20,2,50,0|0|2,0:0|0:0|0:0,0:0:0:0:
259,155,138550,6,0,L|159:165,2,100,4|2|0,0:3|0:0|0:0,0:0:0:0:
268,160,139101,2,0,L|257:259,1,100,2|0,0:0|0:0,0:0:0:0:
178,259,139432,2,0,L|170:328,2,50,2|0|2,0:0|0:0|0:0,0:0:0:0:
180,250,139762,2,0,L|80:260,1,100,0|0,0:0|0:0,0:0:0:0:
0,268,140094,1,2,0:0:0:0:
0,268,140205,1,0,0:0:0:0:
0,268,140315,6,0,L|10:168,2,100,4|2|0,0:3|0:0|0:0,0:0:0:0:
5,283,140866,2,0,L|-3:352,1,50,2|0,0:0|0:0,0:0:0:0:
83,307,141086,2,0,L|75:376,1,50,0|2,0:0|0:0,0:0:0:0:
76,366,141307,2,0,L|216:349,1,100,0|0,0:0|0:0,0:0:0:0:
226,291,141638,1,6,1:2:0:0:
238,300,141748,1,0,1:0:0:0:
250,310,141858,2,0,L|320:301,1,50,0|0,3:0|3:0,0:0:0:0:
385,293,142079,5,0,0:0:0:0:
256,192,142189,12,0,145608,0:0:0:0:
