osu file format v14

[General]
AudioFilename: audio.mp3
AudioLeadIn: 500
PreviewTime: 2553
Countdown: 1
SampleSet: Soft
StackLeniency: 0.7
Mode: 0
LetterboxInBreaks: 0
WidescreenStoryboard: 1

[Editor]
Bookmarks: 8752,18934,30570,42206,53843,58206,65479,71297,77115,82934,94570,106206
DistanceSpacing: 1
BeatDivisor: 4
GridSize: 8
TimelineZoom: 1

[Metadata]
Title:Arcade Busters
TitleUnicode:Arcade Busters
Artist:cYsmix
ArtistUnicode:cYsmix
Creator:borborygmos
Version:Normal
Source:osu!
Tags:featured artist electronic video game videogame
BeatmapID:1271306
BeatmapSetID:601840

[Difficulty]
HPDrainRate:4
CircleSize:3.4
OverallDifficulty:4.5
ApproachRate:5
SliderMultiplier:1.1
SliderTickRate:1

[Events]
//Background and Video events
0,0,"CYsmix_bg.jpg",0,0
//Break Periods
2,54043,57006
2,65679,75915
//Storyboard Layer 0 (Background)
//Storyboard Layer 1 (Fail)
//Storyboard Layer 2 (Pass)
//Storyboard Layer 3 (Foreground)
//Storyboard Sound Samples

[TimingPoints]
25,363.636363636364,4,2,0,100,1,0
2934,-111.111111111111,4,2,0,30,0,0
8025,-111.111111111111,4,2,0,45,0,0
8752,-100,4,2,0,70,0,0
30570,-100,4,2,0,70,0,1
40752,-100,4,2,0,70,0,0
42206,-100,4,2,0,70,0,1
53843,-100,4,2,0,70,0,0
77115,-111.111111111111,4,2,0,30,0,0
81479,-100,4,2,0,70,0,0
82934,-100,4,2,0,70,0,1
93115,-100,4,2,0,70,0,0
94570,-100,4,2,0,70,0,1
106206,-100,4,2,0,70,0,0
109115,-100,4,2,0,5,0,0

[Colours]
Combo1 : 220,217,107
Combo2 : 237,92,198
Combo3 : 45,50,236

[HitObjects]
35,36,2934,6,0,L|143:54,1,98.9999969787599,0|0,3:0|3:0,0:0:0:0:
214,108,3661,2,0,P|245:77|321:68,1,98.9999969787599,0|0,3:0|3:0,0:0:0:0:
375,112,4388,2,0,L|490:125,1,98.9999969787599,0|0,3:0|3:0,0:0:0:0:
490,220,5115,2,0,P|422:226|381:264,1,98.9999969787599,0|0,3:0|3:0,0:0:0:0:
363,327,5843,6,0,P|284:361|170:331,1,197.99999395752,2|0,0:0|3:0,0:0:0:0:
26,207,7297,1,2,0:0:0:0:
86,128,7661,1,2,0:0:0:0:
146,207,8025,1,2,3:2:0:0:
206,128,8388,1,4,3:0:0:0:
300,184,8752,6,0,P|353:169|428:180,1,110,2|0,0:0|1:0,0:0:0:0:
414,283,9479,2,0,L|503:299,2,82.5,4|0|0,3:0|1:0|1:0,0:0:0:0:
374,320,10206,2,0,L|232:336,1,110,2|0,0:0|1:0,0:0:0:0:
154,330,10934,1,0,3:0:0:0:
108,299,11115,2,0,P|90:241|103:177,1,110,2|0,0:1|0:0,0:0:0:0:
142,162,11661,6,0,P|172:114|159:40,1,110,2|0,0:0|1:0,0:0:0:0:
276,32,12388,2,0,L|293:121,2,82.5,4|4|0,3:0|3:0|1:0,0:0:0:0:
329,23,13115,2,0,P|388:39|433:84,1,110,2|0,0:0|1:0,0:0:0:0:
452,177,13843,1,4,3:0:0:0:
417,220,14025,2,0,L|284:270,1,110,2|2,1:0|1:0,0:0:0:0:
221,319,14752,1,4,3:0:0:0:
180,356,14934,6,0,P|125:367|51:339,1,110,6|6,0:1|0:0,0:0:0:0:
24,196,15843,1,0,1:0:0:0:
73,220,16025,2,0,L|201:229,1,110,4|4,3:0|3:0,0:0:0:0:
231,251,16570,2,0,L|359:260,1,110,4|4,3:0|3:0,0:0:0:0:
424,187,17297,1,4,0:0:0:0:
10,79,18934,6,0,L|25:220,2,110,2|0|4,0:0|1:0|3:0,0:0:0:0:
106,25,20025,1,0,1:0:0:0:
208,65,20388,2,0,L|223:206,2,110,2|0|4,0:0|1:0|3:0,0:0:0:0:
304,11,21479,1,2,0:0:0:0:
410,39,21843,6,0,P|444:87|449:144,1,110,2|0,0:0|1:0,0:0:0:0:
426,186,22388,1,0,3:0:0:0:
359,273,22752,2,0,L|446:288,2,55,0|2|2,3:0|1:2|0:0,0:0:0:0:
322,314,23297,2,0,L|181:325,2,110,2|0|4,0:0|1:0|3:0,0:0:0:0:
273,214,24388,1,2,1:0:0:0:
348,134,24752,6,0,L|337:-7,2,110,2|0|4,0:0|1:0|3:0,0:0:0:0:
273,214,25843,1,0,1:0:0:0:
188,144,26206,2,0,L|177:3,2,110,2|0|0,0:0|1:0|1:0,0:0:0:0:
113,224,27297,1,2,0:0:0:0:
36,303,27661,6,0,P|91:308|163:336,1,110,2|0,0:0|1:0,0:0:0:0:
192,349,28206,1,0,3:0:0:0:
284,289,28570,2,0,L|265:224,2,55,0|0|2,3:0|1:0|0:0,0:0:0:0:
330,318,29115,2,0,P|388:315|441:291,1,110,2|2,0:0|0:0,0:0:0:0:
467,249,29661,1,4,3:0:0:0:
490,199,29843,2,0,P|481:139|436:97,1,110,0|2,1:0|1:0,0:0:0:0:
361,36,30570,6,0,L|217:58,1,110,4|2,3:0|1:0,0:0:0:0:
204,79,31115,1,0,3:0:0:0:
155,53,31297,2,0,L|46:36,1,110,2|2,3:1|1:2,0:0:0:0:
12,141,32025,2,0,P|65:158|129:206,1,110,4|2,3:0|3:1,0:0:0:0:
145,229,32570,1,0,3:0:0:0:
165,280,32752,2,0,P|210:309|263:326,1,110,2|0,1:0|1:0,0:0:0:0:
373,327,33479,5,2,3:2:0:0:
410,223,33843,2,0,P|465:211|507:172,2,110,2|2|2,1:1|3:1|1:0,0:0:0:0:
315,165,34934,2,0,L|219:182,1,55,2|2,3:1|3:1,0:0:0:0:
208,190,35297,2,0,L|153:180,1,55,2|2,1:1|3:1,0:0:0:0:
107,149,35661,2,0,P|46:164|8:209,1,110,2|0,3:1|1:0,0:0:0:0:
9,306,36388,6,0,P|68:318|130:351,1,110,2|2,3:2|1:1,0:0:0:0:
213,383,37115,1,2,3:1:0:0:
314,339,37479,1,2,1:0:0:0:
413,383,37843,2,0,P|436:333|440:278,1,110,2|0,3:1|1:0,0:0:0:0:
371,192,38570,1,2,3:1:0:0:
404,87,38934,1,2,1:0:0:0:
474,2,39297,6,0,P|387:62|266:18,1,220,2|4,3:2|3:0,0:0:0:0:
174,13,40388,1,0,1:0:0:0:
94,89,40752,2,0,L|10:73,2,55,2|2|2,2:0|2:0|2:0,0:0:0:0:
126,133,41297,1,0,1:0:0:0:
215,272,41843,2,0,L|287:284,1,55,0|0,3:0|3:0,0:0:0:0:
313,313,42206,6,0,B|366:300|366:300|411:330,1,110,4|2,3:0|1:0,0:0:0:0:
462,307,42752,1,0,3:0:0:0:
494,262,42934,2,0,B|481:209|481:209|511:163,1,110,2|0,3:1|1:0,0:0:0:0:
494,53,43661,2,0,P|437:58|347:81,1,110,2|2,3:2|1:0,0:0:0:0:
333,86,44206,1,0,3:0:0:0:
293,124,44388,2,0,P|239:135|184:139,1,110,2|0,3:1|1:0,0:0:0:0:
96,72,45115,5,2,3:2:0:0:
64,177,45479,2,0,P|10:231|-6:286,2,110,2|2|2,1:1|3:1|1:1,0:0:0:0:
170,203,46570,2,0,L|235:214,1,55,2|2,3:1|3:1,0:0:0:0:
272,238,46934,2,0,L|326:228,1,55,2|2,1:0|3:1,0:0:0:0:
377,208,47297,2,0,P|436:218|482:276,1,110,2|0,3:1|1:0,0:0:0:0:
431,354,48025,6,0,P|375:359|320:385,1,110,2|2,3:2|1:0,0:0:0:0:
225,336,48752,1,2,3:1:0:0:
123,377,49115,1,2,1:0:0:0:
28,320,49479,2,0,P|48:269|50:199,1,110,2|0,3:1|1:0,0:0:0:0:
10,112,50206,1,2,3:1:0:0:
73,22,50570,1,2,1:0:0:0:
175,62,50934,6,0,P|250:86|406:90,1,220,2|0,3:1|3:0,0:0:0:0:
493,52,52025,1,0,3:0:0:0:
500,161,52388,2,0,L|439:181,1,55,4|2,3:0|3:2,0:0:0:0:
412,220,52752,1,4,3:0:0:0:
348,309,53115,2,0,L|290:303,1,55,2|0,3:2|3:0,0:0:0:0:
253,265,53479,2,0,L|198:270,1,55,2|2,3:2|3:2,0:0:0:0:
150,297,53843,5,4,2:0:0:0:
73,96,58206,6,0,L|165:110,1,55,4|0,3:0|3:0,0:0:0:0:
171,138,58570,2,0,L|225:129,1,55,4|0,3:0|3:0,0:0:0:0:
275,106,58934,1,2,3:2:0:0:
382,127,59297,1,0,3:0:0:0:
447,215,59661,6,0,P|378:236|331:296,1,110,2|0,3:2|1:0,0:0:0:0:
317,304,60206,1,0,3:0:0:0:
275,339,60388,2,0,P|217:344|160:363,1,110,2|0,3:1|1:0,0:0:0:0:
87,284,61115,2,0,L|94:222,1,55,0|2,3:0|3:2,0:0:0:0:
71,179,61479,2,0,L|9:188,2,55,2|2|2,1:2|3:2|3:2,0:0:0:0:
88,126,62025,1,2,3:2:0:0:
111,76,62206,2,0,L|195:73,1,55,2|2,1:2|3:2,0:0:0:0:
215,99,62570,6,0,P|293:121|400:29,1,220,2|2,3:1|3:1,0:0:0:0:
503,19,63661,1,0,1:0:0:0:
461,121,64025,2,0,B|432:170|459:215|463:222|467:228|492:270|475:333|475:333|444:333|394:286|341:309,1,330,2|0,3:1|1:0,0:0:0:0:
312,317,65297,1,0,3:0:0:0:
276,358,65479,5,2,3:0:0:0:
77,323,77115,6,0,P|134:298|240:311,1,148.49999546814,4|0,0:0|3:0,0:0:0:0:
264,322,77843,1,0,1:0:0:0:
359,347,78206,1,0,3:0:0:0:
455,318,78570,2,0,P|430:261|443:188,1,98.9999969787599,4|4,3:0|3:0,0:0:0:0:
468,133,79297,1,0,1:0:0:0:
433,40,79661,1,2,0:1:0:0:
343,79,80025,6,0,P|279:55|186:68,1,148.49999546814,4|4,3:0|3:0,0:0:0:0:
152,74,80752,1,0,1:0:0:0:
89,150,81115,1,0,3:0:0:0:
43,250,81479,6,0,L|71:301,1,55,2|2,0:0|0:0,0:0:0:0:
124,296,81843,2,0,L|196:310,1,55,2|2,1:2|0:0,0:0:0:0:
231,291,82206,2,0,B|280:323|299:375|299:375|315:328|355:308,1,165,2|0,0:1|1:0,0:0:0:0:
372,296,82934,6,0,P|435:284|477:237,1,110,4|2,3:0|1:0,0:0:0:0:
481,200,83479,1,0,3:0:0:0:
477,145,83661,2,0,P|435:110|381:102,1,110,2|2,3:1|1:2,0:0:0:0:
279,142,84388,2,0,L|145:133,1,110,4|2,3:0|1:0,0:0:0:0:
119,158,84934,1,0,3:0:0:0:
77,193,85115,2,0,L|69:302,1,110,2|0,1:0|1:0,0:0:0:0:
158,367,85843,5,2,3:2:0:0:
233,286,86206,2,0,P|239:200|221:144,2,110,2|2|2,1:1|3:1|1:1,0:0:0:0:
317,356,87297,2,0,L|388:344,1,55,2|2,3:1|3:1,0:0:0:0:
399,299,87661,2,0,L|419:231,1,55,2|2,1:0|3:1,0:0:0:0:
447,202,88025,2,0,P|411:154|338:141,1,110,2|2,3:1|1:0,0:0:0:0:
266,187,88752,5,2,3:2:0:0:
159,160,89115,2,0,L|139:287,2,110,2|2|2,1:1|3:1|1:0,0:0:0:0:
84,79,90206,2,0,B|126:41|240:31|323:56,1,220,2|2,3:1|3:1,0:0:0:0:
399,87,91297,1,2,1:0:0:0:
455,181,91661,6,0,B|393:208|314:199|292:142|191:137|131:179,1,330,2|0,3:1|1:0,0:0:0:0:
53,248,93115,2,0,L|0:236,2,55,2|2|2,0:0|0:0|3:0,0:0:0:0:
95,284,93661,1,0,1:0:0:0:
202,309,94025,1,4,3:0:0:0:
251,286,94206,2,0,L|318:290,1,55,2|2,1:2|1:2,0:0:0:0:
358,307,94570,6,0,P|361:243|385:182,1,110,4|2,3:0|1:0,0:0:0:0:
428,184,95115,1,0,3:0:0:0:
469,147,95297,2,0,P|485:95|486:40,1,110,2|0,3:1|1:0,0:0:0:0:
379,67,96025,2,0,L|236:70,1,110,2|2,3:1|1:0,0:0:0:0:
217,50,96570,1,0,3:0:0:0:
164,32,96752,2,0,L|21:35,1,110,2|2,3:1|1:0,0:0:0:0:
0,137,97479,5,2,3:1:0:0:
98,187,97843,2,0,P|159:171|232:178,2,110,2|2|2,1:0|3:1|1:0,0:0:0:0:
33,275,98934,2,0,L|99:287,1,55,2|2,3:1|3:1,0:0:0:0:
137,306,99297,2,0,L|203:294,1,55,2|2,1:0|3:1,0:0:0:0:
240,270,99661,2,0,P|300:279|341:318,1,110,2|2,3:1|1:0,0:0:0:0:
437,267,100388,5,2,3:1:0:0:
432,157,100752,2,0,P|483:133|516:77,2,110,2|2|2,1:0|3:1|1:0,0:0:0:0:
361,72,101843,2,0,L|295:84,1,55,2|2,3:1|3:1,0:0:0:0:
257,103,102206,2,0,L|191:91,1,55,2|2,1:1|3:1,0:0:0:0:
154,67,102570,2,0,P|94:76|53:115,1,110,2|2,3:1|1:0,0:0:0:0:
2,202,103297,6,0,B|50:244|132:248|218:178|328:202,1,330,2|2,3:1|1:0,0:0:0:0:
375,216,104570,1,2,3:1:0:0:
427,198,104752,2,0,L|431:131,2,55,2|2|2,0:0|0:0|3:0,0:0:0:0:
470,231,105297,1,0,1:0:0:0:
410,323,105661,1,4,3:0:0:0:
357,340,105843,2,0,L|261:345,1,55,4|4,2:0|2:0,0:0:0:0:
251,363,106206,5,6,1:0:0:0:
256,192,106388,12,0,109115,0:0:0:0:
