osu file format v14

[General]
AudioFilename: audio.mp3
AudioLeadIn: 500
PreviewTime: 2553
Countdown: 1
SampleSet: Soft
StackLeniency: 0.7
Mode: 0
LetterboxInBreaks: 0
WidescreenStoryboard: 1

[Editor]
Bookmarks: 8752,18934,30570,42206,53843,58206,65479,71297,77115,82934,94570,106206
DistanceSpacing: 1
BeatDivisor: 4
GridSize: 4
TimelineZoom: 1.4

[Metadata]
Title:Arcade Busters
TitleUnicode:Arcade Busters
Artist:cYsmix
ArtistUnicode:cYsmix
Creator:borborygmos
Version:Insane
Source:osu!
Tags:featured artist electronic video game videogame
BeatmapID:1271791
BeatmapSetID:601840

[Difficulty]
HPDrainRate:5
CircleSize:4
OverallDifficulty:8
ApproachRate:9
SliderMultiplier:1.6
SliderTickRate:1

[Events]
//Background and Video events
0,0,"CYsmix_bg.jpg",0,0
//Break Periods
2,54043,57606
2,65679,76515
//Storyboard Layer 0 (Background)
//Storyboard Layer 1 (Fail)
//Storyboard Layer 2 (Pass)
//Storyboard Layer 3 (Foreground)
//Storyboard Sound Samples

[TimingPoints]
25,363.636363636364,4,2,0,100,1,0
2934,-133.333333333333,4,2,0,30,0,0
8388,-133.333333333333,4,2,0,45,0,0
8752,-100,4,2,0,70,0,0
18752,-100,4,2,0,5,0,0
18934,-100,4,2,0,70,0,0
30570,-100,4,2,0,70,0,1
40752,-100,4,2,0,70,0,0
42206,-100,4,2,0,70,0,1
53843,-100,4,2,0,70,0,0
77115,-111.111111111111,4,2,0,30,0,0
81479,-100,4,2,0,70,0,0
82934,-100,4,2,0,70,0,1
93115,-100,4,2,0,70,0,0
94570,-100,4,2,0,70,0,1
106206,-100,4,2,0,70,0,0
109115,-100,4,2,0,5,0,0

[Colours]
Combo1 : 220,217,107
Combo2 : 237,92,198
Combo3 : 45,50,236

[HitObjects]
95,109,2934,6,0,P|140:106|185:121,1,80.0000030517579,0|0,3:0|0:0,0:0:0:0:
173,115,3297,2,0,P|210:123|254:122,1,80.0000030517579,0|0,3:0|0:0,0:0:0:0:
251,123,3661,1,0,3:0:0:0:
449,45,4025,1,0,3:0:0:0:
493,221,4388,6,0,P|450:234|404:232,1,80.0000030517579,0|0,3:0|0:0,0:0:0:0:
415,234,4752,2,0,P|369:234|318:249,1,80.0000030517579,0|0,3:0|0:0,0:0:0:0:
336,242,5115,1,0,3:0:0:0:
143,323,5479,1,0,3:0:0:0:
67,170,5843,6,0,P|110:149|153:156,1,80.0000030517579,2|0,0:0|0:0,0:0:0:0:
141,151,6206,2,0,L|152:65,1,80.0000030517579,0|0,3:0|0:0,0:0:0:0:
151,71,6570,2,0,L|229:49,1,80.0000030517579,0|0,3:0|0:0,0:0:0:0:
229,50,7297,6,0,P|271:77|272:112,1,80.0000030517579,2|0,0:0|0:0,0:0:0:0:
263,160,7661,2,0,P|279:184|332:195,1,80.0000030517579,2|0,0:0|0:0,0:0:0:0:
383,178,8025,2,0,B|382:191|382:191|378:199|378:199|381:211|381:211|377:221|377:221|378:231|378:231|374:241|374:241|375:251|375:251|372:260|372:260|373:269|373:269|371:281|371:281|374:294|374:294|372:308,1,120.000004577637,2|4,3:2|3:0,0:0:0:0:
354,300,8449,1,4,3:0:0:0:
335,307,8509,1,4,3:0:0:0:
316,315,8570,1,4,3:0:0:0:
297,321,8631,1,4,3:0:0:0:
278,328,8691,1,4,3:0:0:0:
255,342,8752,6,0,L|266:284,2,40,2|2|2,0:0|0:0|0:0,0:0:0:0:
150,338,9115,1,0,1:0:0:0:
111,349,9206,1,0,1:0:0:0:
51,295,9388,1,0,1:0:0:0:
63,256,9479,1,4,3:0:0:0:
114,198,9661,2,0,L|110:129,1,40,4|0,3:0|1:0,0:0:0:0:
55,103,9934,2,0,L|59:34,1,40,4|0,3:0|1:0,0:0:0:0:
156,0,10206,6,0,L|164:47,2,40,2|2|2,0:0|0:0|0:0,0:0:0:0:
275,41,10570,1,0,1:0:0:0:
314,30,10661,1,0,1:0:0:0:
374,84,10843,1,0,1:0:0:0:
362,123,10934,1,0,3:0:0:0:
388,220,11115,2,0,P|451:225|491:134,1,160,2|0,0:1|0:0,0:0:0:0:
356,240,11661,6,0,L|361:307,2,40,2|2|2,0:0|0:0|0:0,0:0:0:0:
270,323,12025,1,0,1:0:0:0:
231,334,12115,1,0,1:0:0:0:
171,280,12297,1,0,1:0:0:0:
183,241,12388,1,4,3:0:0:0:
234,183,12570,2,0,L|230:114,1,40,0|4,1:0|3:0,0:0:0:0:
175,88,12843,2,0,L|177:48,1,40,4|0,3:0|1:0,0:0:0:0:
90,3,13115,6,0,L|82:50,2,40,2|2|2,0:0|0:0|0:0,0:0:0:0:
11,83,13479,1,0,1:0:0:0:
0,122,13570,1,0,1:0:0:0:
54,182,13752,1,0,1:0:0:0:
93,170,13843,1,4,3:0:0:0:
191,148,14025,2,0,B|189:163|189:163|184:173|184:173|188:188|188:188|183:200|183:200|184:212|184:212|179:225|179:225|181:237|181:237|177:248|177:248|178:259|178:259|176:274|176:274|179:290|179:290|177:307,1,160,2|2,1:0|1:0,0:0:0:0:
178,302,14479,1,2,0:0:0:0:
178,302,14570,1,2,0:0:0:0:
278,368,14752,1,4,3:0:0:0:
314,351,14843,1,4,3:0:0:0:
350,334,14934,6,0,P|379:288|360:202,1,120,6|0,0:1|0:0,0:0:0:0:
357,232,15297,2,0,P|466:214|437:80,1,240,6|0,0:0|1:0,0:0:0:0:
473,110,15934,1,0,1:0:0:0:
473,110,16025,6,0,L|364:130,1,80,4|4,3:0|3:0,0:0:0:0:
306,91,16388,1,4,3:0:0:0:
220,51,16570,2,0,P|171:51|138:67,1,80,4|0,3:0|1:0,0:0:0:0:
33,153,16934,2,0,P|82:153|115:137,1,80,4|0,3:0|1:0,0:0:0:0:
124,48,17297,1,4,0:0:0:0:
256,192,17388,12,0,18752,0:0:0:0:
81,56,18934,6,0,L|192:63,1,80,2|0,0:0|3:0,0:0:0:0:
234,98,19206,1,0,3:0:0:0:
267,119,19297,2,0,P|318:118|373:99,1,80,0|0,1:0|3:0,0:0:0:0:
455,47,19661,2,0,L|449:159,1,80,4|0,3:0|3:0,0:0:0:0:
481,218,19934,1,4,3:0:0:0:
499,253,20025,1,0,1:0:0:0:
439,331,20206,1,0,3:0:0:0:
400,342,20297,1,0,3:0:0:0:
361,353,20388,6,0,L|253:344,1,80,2|0,0:0|3:0,0:0:0:0:
217,278,20661,1,0,3:0:0:0:
184,257,20752,2,0,P|133:258|78:277,1,80,0|0,1:0|3:0,0:0:0:0:
25,195,21115,2,0,L|3:242,2,40,4|0|0,3:0|3:0|3:0,0:0:0:0:
43,160,21388,1,0,3:0:0:0:
76,139,21479,2,0,P|126:136|203:171,1,120,2|0,0:0|3:0,0:0:0:0:
226,180,21843,6,0,L|237:73,1,80,2|0,0:0|3:0,0:0:0:0:
296,33,22115,1,0,3:0:0:0:
331,13,22206,1,0,1:0:0:0:
430,47,22388,2,0,L|421:126,1,80,0|4,3:0|3:0,0:0:0:0:
379,220,22752,1,0,3:0:0:0:
340,231,22843,1,4,3:0:0:0:
301,242,22934,1,2,1:2:0:0:
226,180,23115,1,2,0:0:0:0:
178,100,23297,6,0,P|129:103|65:125,1,80,2|0,0:0|3:0,0:0:0:0:
5,177,23570,1,0,3:0:0:0:
32,206,23661,2,0,P|71:204|110:195,1,80,0|0,1:0|3:0,0:0:0:0:
194,261,24025,2,0,L|242:269,2,40,4|0|4,3:0|3:0|3:0,0:0:0:0:
143,349,24388,2,0,B|154:350|154:350|162:354|162:354|174:351|174:351|183:355|183:355|193:354|193:354|203:358|203:358|213:356|213:356|221:360|221:360|230:359|230:359|242:360|242:360|254:358|254:358|268:360,1,120,2|0,1:0|0:0,0:0:0:0:
258,358,24752,6,0,P|329:348|358:324,1,80,2|0,0:0|3:0,0:0:0:0:
407,270,25025,1,0,3:0:0:0:
428,236,25115,2,0,L|422:145,1,80,0|0,1:0|3:0,0:0:0:0:
333,34,25479,2,0,P|283:39|232:56,1,80,4|0,3:0|3:0,0:0:0:0:
175,100,25752,1,4,3:0:0:0:
135,94,25843,1,0,1:0:0:0:
46,43,26025,1,0,3:0:0:0:
43,82,26115,1,0,3:0:0:0:
40,121,26206,6,0,P|43:164|57:211,1,80,2|0,0:0|3:0,0:0:0:0:
122,275,26479,1,0,3:0:0:0:
153,299,26570,2,0,L|262:304,1,80,0|0,1:0|3:0,0:0:0:0:
374,345,26934,2,0,L|384:395,2,40,0|0|4,1:0|3:0|3:0,0:0:0:0:
399,311,27206,1,0,0:0:0:0:
373,278,27297,1,2,0:0:0:0:
467,43,27661,6,0,P|440:79|377:106,1,80,2|0,0:0|3:0,0:0:0:0:
305,98,27934,1,0,3:0:0:0:
273,72,28025,1,0,1:0:0:0:
169,104,28206,2,0,L|154:187,1,80,0|4,3:0|3:0,0:0:0:0:
207,274,28570,1,0,3:0:0:0:
245,283,28661,1,4,3:0:0:0:
283,292,28752,1,0,1:0:0:0:
366,247,28934,1,2,0:0:0:0:
450,188,29115,6,0,L|464:238,2,40,2|2|2,0:0|0:0|0:0,0:0:0:0:
388,108,29479,1,2,0:0:0:0:
284,133,29661,1,4,3:0:0:0:
277,93,29752,1,4,3:0:0:0:
270,53,29843,2,0,P|247:62|223:68,1,40,0|0,1:0|3:0,0:0:0:0:
193,55,30025,2,0,P|181:100|193:160,1,80,0|2,3:0|1:0,0:0:0:0:
251,218,30388,1,2,1:0:0:0:
377,223,30570,6,0,L|367:319,1,80,4|4,3:0|3:0,0:0:0:0:
287,357,30843,1,0,3:0:0:0:
254,380,30934,2,0,L|152:384,1,80,2|0,1:0|3:0,0:0:0:0:
76,356,31206,1,0,3:0:0:0:
46,329,31297,2,0,P|41:263|55:230,1,80,2|0,3:1|3:0,0:0:0:0:
121,197,31570,1,0,3:0:0:0:
144,164,31661,2,0,P|160:102|132:19,1,120,2|0,1:2|3:0,0:0:0:0:
135,58,32025,6,0,L|239:68,1,80,4|0,3:0|3:0,0:0:0:0:
314,44,32297,1,0,3:0:0:0:
350,26,32388,2,0,L|454:36,1,80,2|0,3:1|3:0,0:0:0:0:
488,120,32661,1,0,3:0:0:0:
512,151,32752,2,0,P|512:190|499:238,1,80,2|0,1:0|3:0,0:0:0:0:
433,303,33025,1,0,3:0:0:0:
401,327,33115,2,0,L|404:379,2,40,0|0|0,1:0|3:0|3:0,0:0:0:0:
193,384,33479,6,0,L|189:275,1,80,2|0,3:2|3:0,0:0:0:0:
244,220,33752,1,0,3:0:0:0:
269,189,33843,2,0,P|273:136|254:94,1,80,2|0,1:1|3:0,0:0:0:0:
194,36,34115,1,0,3:0:0:0:
156,20,34206,2,0,L|65:30,1,80,2|0,3:1|3:0,0:0:0:0:
0,127,34479,1,0,3:0:0:0:
38,143,34570,2,0,L|129:133,1,80,2|0,1:0|3:0,0:0:0:0:
244,242,34934,5,2,3:1:0:0:
284,100,35115,1,2,3:1:0:0:
325,242,35297,1,2,1:1:0:0:
365,100,35479,1,2,3:1:0:0:
405,242,35661,2,0,P|457:205|477:137,1,120,2|0,3:1|3:0,0:0:0:0:
472,115,36025,1,0,1:0:0:0:
409,30,36206,1,0,3:0:0:0:
370,39,36297,1,0,3:0:0:0:
331,48,36388,6,0,L|225:42,1,80,2|0,3:2|3:0,0:0:0:0:
82,136,36752,2,0,L|77:215,1,80,2|0,1:1|3:0,0:0:0:0:
180,374,37115,2,0,L|184:294,1,80,2|0,3:1|3:0,0:0:0:0:
306,148,37479,2,0,L|300:227,1,80,2|0,1:0|3:0,0:0:0:0:
376,347,37843,6,0,P|415:327|476:320,1,80,2|0,3:1|3:0,0:0:0:0:
512,231,38115,1,0,3:0:0:0:
483,202,38206,2,0,P|468:157|476:113,1,80,0|0,1:0|3:0,0:0:0:0:
386,0,38570,2,0,L|372:96,1,80,2|0,3:1|3:0,0:0:0:0:
300,227,38934,2,0,L|289:148,1,80,2|0,1:0|3:0,0:0:0:0:
215,0,39297,6,0,L|203:79,1,80,2|0,3:2|3:0,0:0:0:0:
134,151,39661,2,0,L|147:217,2,40,0|0|0,1:0|3:0|3:0,0:0:0:0:
37,123,40025,2,0,P|24:171|25:219,1,80,4|0,3:0|3:0,0:0:0:0:
79,293,40388,2,0,L|171:287,1,80,0|0,1:0|3:0,0:0:0:0:
250,345,40752,6,0,L|246:386,2,40,2|2|2,2:0|2:0|2:0,0:0:0:0:
328,287,41115,1,2,2:0:0:0:
415,333,41297,1,0,1:0:0:0:
448,311,41388,1,4,3:0:0:0:
449,226,41570,1,0,1:0:0:0:
416,204,41661,1,4,3:0:0:0:
414,119,41843,1,0,3:0:0:0:
252,0,42206,6,0,L|237:112,1,80,4|4,3:0|3:0,0:0:0:0:
195,164,42479,1,0,3:0:0:0:
172,196,42570,2,0,P|168:240|185:283,1,80,2|0,1:0|3:0,0:0:0:0:
269,333,42843,1,0,3:0:0:0:
306,319,42934,2,0,L|422:326,1,80,2|0,3:1|3:0,0:0:0:0:
439,237,43206,1,0,3:0:0:0:
466,208,43297,2,0,L|446:73,1,120,0|0,1:0|3:0,0:0:0:0:
432,88,43661,6,0,P|424:129|396:169,1,80,2|0,3:2|3:0,0:0:0:0:
305,170,43934,1,0,3:0:0:0:
272,147,44025,2,0,P|251:112|244:73,1,80,2|0,1:0|3:0,0:0:0:0:
169,12,44297,1,0,3:0:0:0:
141,40,44388,2,0,L|45:48,1,80,2|0,3:1|3:0,0:0:0:0:
7,134,44661,1,0,3:0:0:0:
32,165,44752,2,0,L|78:160,2,40,0|0|0,1:0|3:0|3:0,0:0:0:0:
175,202,45115,6,0,B|160:309,1,80,2|0,3:2|3:0,0:0:0:0:
234,353,45388,1,0,3:0:0:0:
269,372,45479,2,0,P|307:369|351:354,1,80,2|0,1:1|3:0,0:0:0:0:
418,291,45752,1,0,3:0:0:0:
444,260,45843,2,0,B|455:180,1,80,2|0,3:1|3:0,0:0:0:0:
421,93,46115,1,0,3:0:0:0:
389,68,46206,2,0,L|296:77,1,80,2|0,1:1|3:0,0:0:0:0:
214,191,46570,5,2,3:1:0:0:
173,49,46751,1,2,3:1:0:0:
133,190,46933,1,2,1:1:0:0:
93,48,47115,1,2,3:1:0:0:
54,190,47297,2,0,P|9:144|3:74,1,120,2|0,3:1|3:0,0:0:0:0:
0,90,47661,1,0,1:0:0:0:
83,0,47843,1,0,3:0:0:0:
121,10,47934,1,0,3:0:0:0:
159,20,48025,6,0,L|264:11,1,80,2|0,3:2|3:0,0:0:0:0:
409,89,48388,2,0,L|304:98,1,80,2|0,1:0|3:0,0:0:0:0:
174,201,48752,2,0,L|278:191,1,80,2|0,3:1|3:0,0:0:0:0:
424,270,49115,2,0,L|319:279,1,80,2|0,1:0|3:0,0:0:0:0:
189,382,49479,6,0,P|146:367|97:330,1,80,2|0,3:1|3:0,0:0:0:0:
53,267,49752,1,0,3:0:0:0:
37,229,49843,2,0,L|52:139,1,80,0|0,1:0|3:0,0:0:0:0:
26,47,50206,2,0,L|120:63,1,80,2|0,3:1|3:0,0:0:0:0:
236,136,50570,2,0,L|314:122,1,80,2|0,1:0|3:0,0:0:0:0:
445,11,50934,6,0,P|430:48|430:106,1,80,2|0,3:1|3:0,0:0:0:0:
474,185,51297,2,0,L|514:175,2,40,0|0|0,1:0|3:0|3:0,0:0:0:0:
405,267,51661,2,0,P|367:256|318:253,1,80,0|0,3:0|3:0,0:0:0:0:
242,315,52025,2,0,L|231:209,1,80,0|0,3:0|3:0,0:0:0:0:
197,134,52388,5,4,3:0:0:0:
143,245,52570,1,2,3:2:0:0:
118,113,52752,1,4,3:0:0:0:
118,113,52934,1,2,3:2:0:0:
30,177,53115,1,2,3:2:0:0:
35,216,53206,1,0,3:0:0:0:
40,255,53297,1,0,3:0:0:0:
103,356,53479,2,0,L|159:344,1,40,2|0,3:2|3:0,0:0:0:0:
182,347,53661,2,0,L|238:359,1,40,2|0,3:2|3:0,0:0:0:0:
261,353,53843,5,4,2:0:0:0:
262,313,58206,6,0,L|259:364,2,40,4|0|0,3:0|3:0|3:0,0:0:0:0:
356,271,58570,1,4,3:0:0:0:
368,232,58661,1,0,3:0:0:0:
380,194,58752,1,0,3:0:0:0:
433,71,58934,2,0,P|388:112|325:124,1,120,2|0,3:2|3:0,0:0:0:0:
298,102,59297,2,0,P|264:101|234:112,1,40,0|0,3:0|3:0,0:0:0:0:
226,127,59479,1,0,3:0:0:0:
226,127,59570,1,0,3:0:0:0:
226,127,59661,6,0,L|230:219,1,80,2|0,3:2|3:0,0:0:0:0:
146,265,59934,1,0,3:0:0:0:
115,239,60025,2,0,L|111:159,1,80,0|0,1:0|3:0,0:0:0:0:
26,46,60388,2,0,P|71:77|150:71,1,120,2|0,3:1|3:0,0:0:0:0:
163,48,60752,2,0,L|250:45,1,80,0|0,1:0|3:0,0:0:0:0:
333,76,61025,1,0,3:0:0:0:
368,94,61115,6,0,P|374:142|361:189,1,80,0|2,3:0|3:2,0:0:0:0:
310,248,61479,1,2,1:2:0:0:
379,313,61661,1,2,3:2:0:0:
314,382,61843,2,0,P|274:372|225:371,1,80,2|2,3:2|3:2,0:0:0:0:
110,325,62206,2,0,P|148:313|192:290,1,80,2|2,1:2|3:2,0:0:0:0:
231,198,62570,6,0,L|127:208,1,80,2|0,3:1|3:0,0:0:0:0:
68,159,62843,1,0,3:0:0:0:
42,128,62934,2,0,P|44:79|66:49,1,80,0|0,1:0|3:0,0:0:0:0:
175,0,63297,2,0,L|279:10,1,80,2|0,3:1|3:0,0:0:0:0:
326,67,63570,1,0,3:0:0:0:
361,85,63661,2,0,L|465:75,1,80,0|0,1:0|3:0,0:0:0:0:
488,201,64025,6,0,P|430:211|397:226,1,80,2|0,3:1|3:0,0:0:0:0:
320,267,64297,1,0,3:0:0:0:
281,279,64388,2,0,P|241:271|205:255,1,80,0|0,1:0|3:0,0:0:0:0:
110,243,64752,2,0,L|104:285,2,40,0|0|0,3:0|3:0|3:0,0:0:0:0:
49,171,65115,1,0,1:0:0:0:
97,91,65297,1,0,3:0:0:0:
136,96,65388,1,0,3:0:0:0:
175,101,65479,5,2,3:0:0:0:
74,37,77115,6,0,L|221:55,1,143.999995605469,4|0,0:0|0:0,0:0:0:0:
310,116,77661,2,0,L|381:107,1,71.9999978027344,0|0,3:0|1:0,0:0:0:0:
491,270,78206,1,0,3:0:0:0:
491,270,78388,1,0,3:0:0:0:
491,270,78570,6,0,L|344:288,1,143.999995605469,4|4,3:0|3:0,0:0:0:0:
184,222,79297,1,0,1:0:0:0:
184,222,79661,2,0,L|181:300,1,71.9999978027344,2|2,0:1|0:2,0:0:0:0:
91,359,80025,6,0,P|104:280|84:210,1,143.999995605469,4|0,3:0|3:0,0:0:0:0:
22,149,80570,2,0,P|22:105|32:73,1,71.9999978027344,4|0,3:0|1:0,0:0:0:0:
202,7,81115,1,0,3:0:0:0:
202,7,81297,1,0,3:0:0:0:
202,7,81479,6,0,L|155:-2,2,40,2|2|2,0:0|0:0|0:0,0:0:0:0:
285,78,81843,1,2,1:2:0:0:
324,70,81934,1,2,0:0:0:0:
363,62,82025,1,2,0:0:0:0:
459,14,82206,2,0,B|457:30|457:30|457:29|457:29|452:39|452:39|452:39|452:39|452:39|452:39|456:54|456:54|451:65|451:65|451:64|451:64|451:64|451:64|451:78|451:78|451:78|451:78|447:91|447:91|447:91|447:91|449:103|449:103|445:114|445:114|445:114|445:114|446:125|446:125|443:140|443:140|445:153|445:153|440:169,1,160,2|0,0:1|0:0,0:0:0:0:
486,257,82752,1,0,1:0:0:0:
432,335,82934,6,0,L|321:351,1,80,4|4,3:0|3:0,0:0:0:0:
254,308,83206,1,0,3:0:0:0:
215,297,83297,2,0,P|172:294|121:307,1,80,2|0,1:0|3:0,0:0:0:0:
32,277,83570,1,0,3:0:0:0:
0,252,83661,2,0,L|16:166,1,80,2|0,3:1|3:0,0:0:0:0:
106,113,83934,1,0,3:0:0:0:
140,91,84025,2,0,L|133:3,1,80,2|0,1:2|3:0,0:0:0:0:
0,157,84388,6,0,P|52:172|95:201,1,80,4|0,3:0|3:0,0:0:0:0:
137,254,84661,1,0,3:0:0:0:
166,280,84752,2,0,P|205:293|256:287,1,80,2|0,1:0|3:0,0:0:0:0:
320,240,85025,1,0,3:0:0:0:
353,218,85115,2,0,P|420:215|454:223,1,80,2|0,1:0|3:0,0:0:0:0:
510,151,85388,1,0,3:0:0:0:
480,124,85479,2,0,L|472:67,2,40,0|0|0,1:0|3:0|3:0,0:0:0:0:
345,0,85843,6,0,L|251:16,1,80,2|0,3:2|3:0,0:0:0:0:
194,78,86115,1,0,3:0:0:0:
158,96,86206,2,0,L|79:82,1,80,2|0,1:1|3:0,0:0:0:0:
6,152,86479,1,0,3:0:0:0:
21,188,86570,2,0,P|58:211|110:222,1,80,2|0,3:1|3:0,0:0:0:0:
214,217,86843,1,0,3:0:0:0:
251,204,86934,2,0,L|346:213,1,80,2|0,1:1|3:0,0:0:0:0:
457,303,87297,5,2,3:1:0:0:
416,162,87478,1,2,3:1:0:0:
376,303,87660,1,2,1:1:0:0:
336,161,87842,1,2,3:1:0:0:
296,302,88025,2,0,P|247:298|185:326,1,80,2|0,3:1|3:0,0:0:0:0:
135,357,88297,1,0,3:0:0:0:
96,345,88388,2,0,P|77:309|72:270,1,80,2|0,1:0|3:0,0:0:0:0:
123,158,88661,1,0,3:0:0:0:
159,175,88752,6,0,L|269:168,1,80,2|0,3:2|3:0,0:0:0:0:
440,116,89115,2,0,L|420:213,1,80,2|0,1:1|3:0,0:0:0:0:
321,47,89479,2,0,L|326:145,1,80,2|0,3:1|3:0,0:0:0:0:
188,11,89843,2,0,L|219:105,1,80,2|0,1:0|3:0,0:0:0:0:
172,193,90206,6,0,P|138:163|89:143,1,80,2|0,3:1|3:0,0:0:0:0:
0,220,90479,1,0,3:0:0:0:
7,259,90570,2,0,P|36:285|71:304,1,80,0|0,1:1|3:0,0:0:0:0:
266,324,90934,2,0,P|228:306|176:301,1,80,2|0,3:1|3:0,0:0:0:0:
337,257,91297,2,0,P|313:222|270:192,1,80,2|0,1:0|3:0,0:0:0:0:
319,53,91661,6,0,P|329:92|375:144,1,80,2|0,3:1|3:0,0:0:0:0:
432,157,92025,2,0,L|426:206,2,40,0|0|0,1:0|3:0|3:0,0:0:0:0:
506,272,92388,2,0,L|400:282,1,80,0|0,3:0|3:0,0:0:0:0:
352,338,92752,1,0,1:0:0:0:
352,338,92843,1,0,3:0:0:0:
352,338,92934,1,0,3:0:0:0:
285,257,93115,6,0,L|289:217,2,40,2|2|2,0:0|0:0|0:0,0:0:0:0:
219,311,93479,1,2,3:0:0:0:
135,269,93661,1,0,1:0:0:0:
97,282,93752,1,0,1:0:0:0:
31,236,93934,1,0,1:0:0:0:
18,198,94025,1,4,3:0:0:0:
82,138,94206,1,2,1:2:0:0:
82,138,94388,1,2,1:2:0:0:
80,49,94570,6,0,L|191:33,1,80,4|4,3:0|3:0,0:0:0:0:
258,76,94843,1,0,3:0:0:0:
297,87,94934,2,0,P|340:90|391:77,1,80,2|0,1:0|3:0,0:0:0:0:
480,107,95206,1,0,3:0:0:0:
512,132,95297,2,0,L|496:218,1,80,2|0,3:1|3:0,0:0:0:0:
406,271,95570,1,0,3:0:0:0:
372,293,95661,2,0,L|379:381,1,80,0|0,1:0|3:0,0:0:0:0:
512,227,96025,6,0,P|460:212|417:183,1,80,2|0,3:1|3:0,0:0:0:0:
375,130,96297,1,0,3:0:0:0:
346,104,96388,2,0,P|307:91|256:97,1,80,2|0,1:0|3:0,0:0:0:0:
192,144,96661,1,0,3:0:0:0:
159,166,96752,2,0,P|92:169|58:161,1,80,2|0,3:1|3:0,0:0:0:0:
2,233,97025,1,0,3:0:0:0:
32,260,97115,2,0,L|37:341,1,80,2|0,1:0|3:0,0:0:0:0:
167,384,97479,6,0,L|261:368,1,80,2|0,3:1|3:0,0:0:0:0:
318,306,97752,1,0,3:0:0:0:
354,288,97843,2,0,L|433:302,1,80,2|0,1:0|3:0,0:0:0:0:
506,232,98115,1,0,3:0:0:0:
491,196,98206,2,0,P|454:173|402:162,1,80,2|0,3:1|3:0,0:0:0:0:
298,167,98479,1,0,3:0:0:0:
261,180,98570,2,0,L|166:171,1,80,2|0,1:0|3:0,0:0:0:0:
53,76,98934,5,2,3:1:0:0:
93,218,99115,1,2,3:1:0:0:
133,77,99297,1,2,1:1:0:0:
173,219,99479,1,2,3:1:0:0:
213,78,99661,2,0,P|262:82|324:54,1,80,2|0,3:1|3:0,0:0:0:0:
377,27,99934,1,0,3:0:0:0:
416,39,100025,2,0,P|435:75|440:114,1,80,2|0,1:0|3:0,0:0:0:0:
389,226,100297,1,0,3:0:0:0:
353,209,100388,6,0,L|243:216,1,80,2|0,3:1|3:0,0:0:0:0:
196,277,100661,1,0,3:0:0:0:
166,304,100752,2,0,L|78:308,1,80,2|0,1:0|3:0,0:0:0:0:
21,237,101025,1,0,3:0:0:0:
3,201,101115,2,0,P|13:161|48:126,1,80,2|0,3:1|3:0,0:0:0:0:
126,83,101388,1,0,3:0:0:0:
161,101,101479,2,0,L|267:104,1,80,2|0,1:0|3:0,0:0:0:0:
391,180,101843,5,2,3:1:0:0:
350,39,102024,1,2,3:1:0:0:
310,180,102206,1,2,1:1:0:0:
270,38,102388,1,2,3:1:0:0:
228,181,102570,2,0,P|179:177|117:205,1,80,2|0,3:1|3:0,0:0:0:0:
64,247,102843,1,0,3:0:0:0:
25,235,102934,2,0,P|6:199|1:160,1,80,2|0,1:0|1:0,0:0:0:0:
52,48,103206,1,0,1:0:0:0:
88,65,103297,6,0,L|198:58,1,80,2|0,3:1|3:0,0:0:0:0:
256,19,103570,1,0,3:0:0:0:
291,0,103661,2,0,L|401:7,1,80,0|0,1:0|3:0,0:0:0:0:
499,100,104025,2,0,L|389:107,1,80,0|0,3:0|3:0,0:0:0:0:
331,146,104297,1,0,3:0:0:0:
296,165,104388,2,0,L|186:158,1,80,2|2,1:0|3:1,0:0:0:0:
103,193,104752,6,0,L|88:143,2,40,2|2|2,0:0|0:0|0:0,0:0:0:0:
48,260,105115,1,2,3:0:0:0:
112,328,105297,1,0,1:0:0:0:
150,341,105388,1,0,1:0:0:0:
216,295,105570,1,0,1:0:0:0:
229,257,105661,1,4,3:0:0:0:
196,178,105843,1,4,2:0:0:0:
196,178,106025,1,4,2:0:0:0:
292,84,106206,5,6,1:0:0:0:
256,192,106297,12,0,109115,0:0:0:0:
