osu file format v14

[General]
AudioFilename: audio.mp3
AudioLeadIn: 500
PreviewTime: 2553
Countdown: 1
SampleSet: Soft
StackLeniency: 0.7
Mode: 0
LetterboxInBreaks: 0
WidescreenStoryboard: 1

[Editor]
Bookmarks: 8752,18934,30570,42206,53843,58206,65479,71297,77115,82934,94570,106206
DistanceSpacing: 1
BeatDivisor: 4
GridSize: 4
TimelineZoom: 1.4

[Metadata]
Title:Arcade Busters
TitleUnicode:Arcade Busters
Artist:cYsmix
ArtistUnicode:cYsmix
Creator:borborygmos
Version:Hard
Source:osu!
Tags:featured artist electronic video game videogame
BeatmapID:1271385
BeatmapSetID:601840

[Difficulty]
HPDrainRate:4
CircleSize:4
OverallDifficulty:6
ApproachRate:7
SliderMultiplier:1.3
SliderTickRate:1

[Events]
//Background and Video events
0,0,"CYsmix_bg.jpg",0,0
//Break Periods
2,54043,57306
2,65679,76215
//Storyboard Layer 0 (Background)
//Storyboard Layer 1 (Fail)
//Storyboard Layer 2 (Pass)
//Storyboard Layer 3 (Foreground)
//Storyboard Sound Samples

[TimingPoints]
25,363.636363636364,4,2,0,100,1,0
2934,-133.333333333333,4,2,0,30,0,0
8388,-133.333333333333,4,2,0,45,0,0
8752,-100,4,2,0,70,0,0
18570,-100,4,2,0,5,0,0
18934,-100,4,2,0,70,0,0
30570,-100,4,2,0,70,0,1
40752,-100,4,2,0,70,0,0
42206,-100,4,2,0,70,0,1
53843,-100,4,2,0,70,0,0
77115,-111.111111111111,4,2,0,30,0,0
81479,-100,4,2,0,70,0,0
82934,-100,4,2,0,70,0,1
93115,-100,4,2,0,70,0,0
94570,-100,4,2,0,70,0,1
106206,-100,4,2,0,70,0,0
109115,-100,4,2,0,5,0,0

[Colours]
Combo1 : 220,217,107
Combo2 : 237,92,198
Combo3 : 45,50,236

[HitObjects]
33,100,2934,6,0,L|162:93,1,97.50000371933,0|0,3:0|3:0,0:0:0:0:
213,43,3661,1,0,3:0:0:0:
469,160,4388,2,0,L|340:153,1,97.50000371933,0|0,3:0|3:0,0:0:0:0:
289,103,5115,1,0,3:0:0:0:
148,298,5843,6,0,L|182:187,2,97.50000371933,2|0|0,0:0|3:0|3:0,0:0:0:0:
192,354,6812,1,0,0:0:0:0:
329,274,7297,2,0,L|315:361,1,65.0000024795533,2|0,0:0|0:0,0:0:0:0:
296,358,7661,2,0,L|209:372,1,65.0000024795533,2|0,0:0|0:0,0:0:0:0:
204,384,8025,1,2,3:2:0:0:
107,335,8388,2,0,L|116:306,5,16.2500006198883,4|4|4|4|4|4,3:0|3:0|3:0|3:0|3:0|3:0,0:0:0:0:
126,313,8752,6,0,L|130:218,1,65,2|2,0:0|0:0,0:0:0:0:
46,187,9115,2,0,L|-5:203,2,32.5,0|0|0,1:0|1:0|0:0,0:0:0:0:
91,113,9479,2,0,P|126:129|172:126,1,65,4|4,3:0|3:0,0:0:0:0:
184,124,9752,2,0,P|215:101|235:60,1,65,0|4,1:0|3:0,0:0:0:0:
232,46,10025,1,0,1:0:0:0:
315,0,10206,6,0,L|311:95,1,65,2|2,0:0|0:0,0:0:0:0:
378,137,10570,2,0,L|430:124,2,32.5,0|0|0,1:0|1:0|0:0,0:0:0:0:
320,212,10934,1,0,3:0:0:0:
320,212,11115,2,0,B|315:249|315:249|317:277|317:277|311:305|311:305|310:344,1,130,2|0,0:1|0:0,0:0:0:0:
400,383,11661,6,0,L|407:306,1,65,2|2,0:0|0:0,0:0:0:0:
475,260,12025,2,0,L|512:271,2,32.5,0|0|0,1:0|1:0|0:0,0:0:0:0:
440,181,12388,2,0,P|405:197|359:194,1,65,4|0,3:0|1:0,0:0:0:0:
347,192,12661,2,0,P|316:169|296:128,1,65,4|4,3:0|3:0,0:0:0:0:
299,114,12934,1,0,1:0:0:0:
221,47,13115,6,0,L|207:132,1,65,2|2,0:0|0:0,0:0:0:0:
134,159,13479,2,0,L|79:150,2,32.5,0|0|0,1:0|1:0|0:0,0:0:0:0:
192,233,13843,1,4,3:0:0:0:
192,233,14025,2,0,B|195:255|195:255|187:271|192:293|192:293|186:313|192:338|192:338|188:371,1,130,2|2,1:0|1:0,0:0:0:0:
189,361,14479,1,2,0:0:0:0:
189,361,14570,2,0,P|239:342|270:348,1,65,2|4,0:0|3:0,0:0:0:0:
332,363,14934,5,6,0:1:0:0:
252,183,15297,1,6,0:0:0:0:
260,191,15843,1,0,1:0:0:0:
260,191,15934,1,0,1:0:0:0:
260,191,16025,6,0,L|347:182,2,65,4|4|4,3:0|3:0|3:0,0:0:0:0:
181,142,16570,2,0,P|125:136|89:144,1,65,4|0,3:0|1:0,0:0:0:0:
1,213,16934,2,0,P|32:219|65:218,1,65,4|0,3:0|1:0,0:0:0:0:
143,276,17297,1,4,0:0:0:0:
256,192,17388,12,0,18570,0:0:0:0:
368,25,18934,6,0,P|356:88|356:164,2,130,2|0|4,0:0|1:0|3:0,0:0:0:0:
456,14,19843,1,0,3:0:0:0:
492,95,20025,2,0,P|484:155|474:188,1,65,0|0,1:0|3:0,0:0:0:0:
417,250,20388,6,0,P|368:234|276:235,2,130,2|0|4,0:0|1:0|3:0,0:0:0:0:
470,323,21297,1,0,3:0:0:0:
398,374,21479,1,2,0:0:0:0:
172,368,21843,6,0,P|197:296|197:220,1,130,2|0,0:0|1:0,0:0:0:0:
139,166,22388,2,0,P|143:101|166:40,1,130,0|0,3:0|3:0,0:0:0:0:
252,9,22934,1,2,1:2:0:0:
318,71,23115,1,2,0:0:0:0:
406,96,23297,6,0,P|444:46|516:22,2,130,2|0|4,0:0|1:0|3:0,0:0:0:0:
442,177,24206,1,4,3:0:0:0:
400,264,24388,2,0,B|393:260|393:260|387:264|387:264|380:260|380:260|374:264|374:264|368:260|368:260|361:264|361:264|355:260|355:260|349:264|349:264|342:260|342:260|336:264|336:264|330:260|330:260|323:264|323:264|317:260|317:260|310:264|310:264|304:260|304:260|298:264,1,97.5,2|0,1:0|0:0,0:0:0:0:
317,260,24752,6,0,P|300:326|246:379,2,130,2|0|4,0:0|1:0|3:0,0:0:0:0:
264,182,25661,1,0,3:0:0:0:
184,224,25843,2,0,P|151:212|119:183,1,65,0|0,1:0|3:0,0:0:0:0:
57,239,26206,6,0,P|72:303|72:374,2,130,2|0|0,0:0|1:0|1:0,0:0:0:0:
0,169,27115,1,4,3:0:0:0:
43,86,27297,1,2,0:0:0:0:
253,0,27661,6,0,P|208:49|195:126,1,130,2|0,0:0|1:0,0:0:0:0:
255,178,28206,2,0,P|269:242|242:316,1,130,0|0,3:0|3:0,0:0:0:0:
171,335,28752,1,0,1:0:0:0:
122,266,28934,1,2,0:0:0:0:
39,278,29115,6,0,L|32:314,2,32.5,2|2|2,0:0|0:0|0:0,0:0:0:0:
0,204,29479,1,2,0:0:0:0:
65,137,29661,1,4,3:0:0:0:
65,137,29752,1,4,3:0:0:0:
65,137,29843,2,0,B|97:150|127:130|127:130|166:147|210:118,1,130,0|2,1:0|1:0,0:0:0:0:
253,70,30388,1,2,1:0:0:0:
311,4,30570,6,0,P|364:57|374:119,1,130,4|2,3:0|1:0,0:0:0:0:
346,189,31115,1,0,3:0:0:0:
312,269,31297,2,0,P|323:309|347:338,1,65,2|0,3:1|3:0,0:0:0:0:
423,349,31661,1,2,1:2:0:0:
226,226,32025,6,0,P|212:295|142:343,1,130,4|2,3:0|3:1,0:0:0:0:
82,324,32570,1,0,3:0:0:0:
22,256,32752,2,0,P|26:220|40:190,1,65,2|0,1:0|3:0,0:0:0:0:
99,134,33115,1,0,1:0:0:0:
0,0,33479,6,0,L|153:15,1,130,2|2,3:2|1:1,0:0:0:0:
338,79,34206,2,0,L|467:66,1,130,2|2,3:1|1:0,0:0:0:0:
490,262,34934,5,2,3:1:0:0:
490,262,35115,1,2,3:1:0:0:
406,222,35297,1,2,1:1:0:0:
406,222,35479,1,2,3:1:0:0:
332,285,35661,2,0,L|199:297,1,130,2|0,3:1|1:0,0:0:0:0:
114,346,36206,1,0,3:0:0:0:
114,346,36297,1,0,3:0:0:0:
114,346,36388,6,0,P|116:265|94:214,1,130,2|2,3:2|1:1,0:0:0:0:
34,158,36934,1,0,3:0:0:0:
29,68,37115,2,0,P|97:88|122:88,1,65,2|0,3:1|3:0,0:0:0:0:
179,77,37479,2,0,P|241:43|258:25,1,65,2|0,1:0|3:0,0:0:0:0:
336,8,37843,6,0,P|315:68|343:151,1,130,2|0,3:1|1:0,0:0:0:0:
395,192,38388,1,0,3:0:0:0:
454,263,38570,2,0,P|385:279|363:292,1,65,2|0,3:1|3:0,0:0:0:0:
319,330,38934,2,0,P|282:390|275:414,1,65,2|0,1:0|3:0,0:0:0:0:
175,378,39297,6,0,P|173:321|198:239,1,130,2|0,3:2|1:0,0:0:0:0:
257,196,39843,1,0,3:0:0:0:
309,129,40025,2,0,L|311:28,1,97.5,4|0,3:0|3:0,0:0:0:0:
311,32,40388,2,0,P|258:42|240:38,1,65,0|0,1:0|3:0,0:0:0:0:
168,8,40752,5,2,2:0:0:0:
168,8,40843,1,2,2:0:0:0:
168,8,40934,1,2,2:0:0:0:
81,35,41115,1,2,2:0:0:0:
34,102,41297,2,0,L|41:144,1,32.5,0|4,1:0|3:0,0:0:0:0:
102,194,41570,2,0,L|95:236,1,32.5,0|4,1:0|3:0,0:0:0:0:
38,291,41843,1,0,3:0:0:0:
311,380,42206,6,0,P|364:327|374:265,1,130,4|2,3:0|1:0,0:0:0:0:
346,195,42752,1,0,3:0:0:0:
312,115,42934,2,0,P|323:75|347:46,1,65,2|0,3:1|3:0,0:0:0:0:
423,35,43297,1,0,1:0:0:0:
226,158,43661,6,0,P|212:89|142:41,1,130,2|2,3:2|1:0,0:0:0:0:
82,60,44206,1,0,3:0:0:0:
22,128,44388,2,0,P|26:164|40:194,1,65,2|0,3:1|3:0,0:0:0:0:
99,250,44752,1,0,1:0:0:0:
0,384,45115,6,0,L|153:369,1,130,2|2,3:2|1:1,0:0:0:0:
338,305,45843,2,0,L|467:318,1,130,2|2,3:1|1:1,0:0:0:0:
490,122,46570,5,2,3:1:0:0:
490,122,46752,1,2,3:1:0:0:
406,162,46934,1,2,1:0:0:0:
406,162,47115,1,2,3:1:0:0:
332,99,47297,2,0,L|199:87,1,130,2|0,3:1|1:0,0:0:0:0:
114,38,47843,1,0,3:0:0:0:
114,38,47934,1,0,3:0:0:0:
114,38,48025,6,0,P|116:119|94:170,1,130,2|2,3:2|1:0,0:0:0:0:
34,226,48570,1,0,3:0:0:0:
29,316,48752,2,0,P|97:296|122:296,1,65,2|0,3:1|3:0,0:0:0:0:
179,307,49115,2,0,P|241:341|258:359,1,65,2|0,1:0|3:0,0:0:0:0:
336,376,49479,6,0,P|315:316|343:233,1,130,2|0,3:1|1:0,0:0:0:0:
395,192,50025,1,0,3:0:0:0:
454,121,50206,2,0,P|385:105|363:92,1,65,2|0,3:1|3:0,0:0:0:0:
319,54,50570,2,0,P|282:-6|275:-30,1,65,2|0,1:0|3:0,0:0:0:0:
175,6,50934,6,0,P|173:63|198:145,1,130,2|0,3:1|1:0,0:0:0:0:
249,199,51479,1,0,3:0:0:0:
322,255,51661,2,0,L|310:351,1,97.5,0|0,3:0|3:0,0:0:0:0:
311,352,52025,2,0,P|258:342|240:346,1,65,0|0,3:0|3:0,0:0:0:0:
163,368,52388,6,0,L|92:378,1,65,4|2,3:0|3:2,0:0:0:0:
54,299,52752,2,0,L|11:310,2,32.5,4|0|2,3:0|3:0|3:2,0:0:0:0:
132,234,53115,2,0,P|110:209|92:176,1,65,2|0,3:2|3:0,0:0:0:0:
150,111,53479,1,2,3:2:0:0:
150,111,53661,1,2,3:2:0:0:
112,35,53843,5,4,2:0:0:0:
112,35,58206,6,0,P|129:88|129:130,1,97.5,4|0,3:0|3:0,0:0:0:0:
129,129,58570,2,0,P|124:191|143:251,1,97.5,4|0,3:0|3:0,0:0:0:0:
131,225,58934,2,0,P|148:278|148:320,1,97.5,2|0,3:2|3:0,0:0:0:0:
148,319,59297,2,0,L|132:366,3,32.5,0|0|0|0,3:0|3:0|3:0|3:0,0:0:0:0:
121,353,59661,6,0,P|157:359|202:369,1,65,2|0,3:2|3:0,0:0:0:0:
284,384,60025,2,0,P|320:377|365:368,1,65,0|0,1:0|3:0,0:0:0:0:
347,371,60297,1,0,3:0:0:0:
347,371,60388,2,0,P|348:331|361:283,1,65,2|0,3:1|3:0,0:0:0:0:
410,228,60752,2,0,P|409:188|396:140,1,65,0|0,1:0|3:0,0:0:0:0:
313,94,61115,6,0,L|305:183,2,65,0|2|2,3:0|3:2|1:2,0:0:0:0:
243,32,61661,1,2,3:2:0:0:
165,77,61843,2,0,P|130:64|75:67,1,65,2|2,3:2|3:2,0:0:0:0:
44,146,62206,2,0,P|79:159|134:156,1,65,2|2,1:2|3:2,0:0:0:0:
201,195,62570,6,0,L|186:340,1,130,2|0,3:1|1:0,0:0:0:0:
256,384,63115,1,0,3:0:0:0:
324,324,63297,2,0,L|311:195,1,130,2|0,3:1|1:0,0:0:0:0:
377,134,63843,1,0,3:0:0:0:
422,40,64025,6,0,P|294:63|171:31,1,260,2|0,3:1|3:0,0:0:0:0:
170,30,64843,1,0,3:0:0:0:
170,30,64934,1,0,3:0:0:0:
92,35,65115,2,0,L|94:123,1,65,0|0,1:0|3:0,0:0:0:0:
93,99,65388,1,0,3:0:0:0:
93,99,65479,5,2,3:0:0:0:
56,79,77115,6,0,P|61:111|189:142,1,175.499994644165,4|0,0:0|3:0,0:0:0:0:
232,83,77843,1,0,1:0:0:0:
440,32,78206,2,0,L|430:95,1,58.4999982147217,0|0,3:0|3:0,0:0:0:0:
374,154,78570,6,0,L|401:277,1,116.999996429443,4|4,3:0|3:0,0:0:0:0:
243,343,79297,1,0,1:0:0:0:
243,343,79661,2,0,L|171:335,1,58.4999982147217,2|2,0:1|0:2,0:0:0:0:
116,384,80025,6,0,P|137:307|77:234,1,175.499994644165,4|4,3:0|3:0,0:0:0:0:
0,200,80752,1,0,1:0:0:0:
17,40,81115,2,0,L|90:48,1,58.4999982147217,0|0,3:0|3:0,0:0:0:0:
157,103,81479,6,0,L|164:154,2,32.5,2|2|2,0:0|0:0|0:0,0:0:0:0:
224,32,81843,2,0,L|217:-19,2,32.5,2|2|2,1:2|0:0|0:0,0:0:0:0:
332,55,82206,2,0,B|336:62|336:62|332:69|332:69|336:77|336:77|332:84|332:84|336:90|336:90|332:98|332:98|336:105|336:105|332:112|332:112|336:120|336:120|332:127|332:127|336:133|336:133|332:141|332:141|336:148|336:148|332:156|332:156|336:163|336:163|332:169,1,130,2|0,0:1|0:0,0:0:0:0:
407,226,82752,1,0,1:0:0:0:
435,320,82934,6,0,P|387:309|294:329,1,130,4|2,3:0|1:0,0:0:0:0:
238,377,83479,1,0,3:0:0:0:
148,380,83661,2,0,P|106:370|70:340,1,65,2|0,3:1|3:0,0:0:0:0:
33,288,84025,1,2,1:2:0:0:
0,126,84388,6,0,P|48:137|141:117,1,130,4|2,3:0|1:0,0:0:0:0:
197,69,84934,1,0,3:0:0:0:
287,66,85115,2,0,P|329:76|365:106,1,65,2|0,1:0|3:0,0:0:0:0:
402,158,85479,1,0,1:0:0:0:
507,8,85843,6,0,L|496:152,1,130,2|2,3:2|1:1,0:0:0:0:
335,304,86570,2,0,L|325:174,1,130,2|2,3:1|1:1,0:0:0:0:
163,27,87297,5,2,3:1:0:0:
163,27,87479,1,2,3:1:0:0:
219,101,87661,1,2,1:0:0:0:
219,101,87843,1,2,3:1:0:0:
160,165,88025,2,0,L|152:306,1,130,2|2,3:1|1:0,0:0:0:0:
212,370,88570,1,0,3:0:0:0:
212,370,88661,1,0,3:0:0:0:
212,370,88752,6,0,P|282:363|352:390,1,130,2|2,3:2|1:1,0:0:0:0:
424,372,89297,1,0,3:0:0:0:
462,294,89479,2,0,L|478:214,1,65,2|0,3:1|3:0,0:0:0:0:
429,153,89843,2,0,L|413:73,1,65,2|0,1:0|3:0,0:0:0:0:
462,10,90206,6,0,P|400:47|322:52,1,130,2|0,3:1|1:1,0:0:0:0:
258,29,90752,1,0,3:0:0:0:
173,6,90934,2,0,P|132:11|96:26,1,65,2|0,3:1|3:0,0:0:0:0:
43,77,91297,2,0,P|17:109|2:145,1,65,2|0,1:0|3:0,0:0:0:0:
61,217,91661,6,0,P|118:215|200:240,1,130,2|0,3:1|1:0,0:0:0:0:
254,294,92206,1,0,3:0:0:0:
311,371,92388,2,0,L|417:350,1,97.5,0|0,3:0|3:0,0:0:0:0:
407,353,92752,2,0,P|397:300|401:282,1,65,0|0,1:0|3:0,0:0:0:0:
469,236,93115,6,0,L|520:242,2,32.5,2|2|2,0:0|0:0|0:0,0:0:0:0:
408,171,93479,1,2,3:0:0:0:
354,100,93661,2,0,L|317:102,1,32.5,0|0,1:0|1:0,0:0:0:0:
245,149,93934,2,0,L|208:147,1,32.5,0|4,1:0|3:0,0:0:0:0:
132,189,94206,1,2,1:2:0:0:
51,151,94388,1,2,1:2:0:0:
47,49,94570,6,0,P|106:75|169:90,1,130,4|2,3:0|1:0,0:0:0:0:
241,33,95115,1,0,3:0:0:0:
328,3,95297,2,0,P|404:23|461:51,1,130,2|0,3:1|1:0,0:0:0:0:
461,223,96025,6,0,P|401:249|338:264,1,130,2|2,3:1|1:0,0:0:0:0:
253,240,96570,1,0,3:0:0:0:
167,217,96752,2,0,P|103:232|44:258,1,130,2|2,3:1|1:0,0:0:0:0:
227,384,97479,6,0,P|254:324|267:261,1,130,2|2,3:1|1:0,0:0:0:0:
173,65,98206,2,0,P|146:124|133:187,1,130,2|2,3:1|1:0,0:0:0:0:
291,277,98934,5,2,3:1:0:0:
291,277,99115,1,2,3:1:0:0:
376,317,99297,1,2,1:0:0:0:
376,317,99479,1,2,3:1:0:0:
452,268,99661,2,0,P|450:193|419:128,1,130,2|2,3:1|1:0,0:0:0:0:
349,106,100206,1,0,3:0:0:0:
349,106,100297,1,0,3:0:0:0:
349,106,100388,6,0,L|198:111,1,130,2|2,3:1|1:0,0:0:0:0:
141,69,100934,1,0,3:0:0:0:
57,95,101115,2,0,P|28:153|39:223,1,130,2|2,3:1|1:0,0:0:0:0:
136,384,101843,5,2,3:1:0:0:
136,384,102025,1,2,3:1:0:0:
160,306,102206,1,2,1:1:0:0:
160,306,102388,1,2,3:1:0:0:
245,322,102570,2,0,P|312:331|382:327,1,130,2|2,3:1|1:0,0:0:0:0:
445,276,103115,1,0,1:0:0:0:
445,276,103206,1,0,1:0:0:0:
445,276,103297,6,0,P|432:151|303:69,1,260,2|0,3:1|3:0,0:0:0:0:
142,140,104388,2,0,P|84:118|63:96,1,65,2|2,1:0|3:1,0:0:0:0:
32,191,104752,6,0,L|-19:185,2,32.5,2|2|2,0:0|0:0|0:0,0:0:0:0:
93,256,105115,1,2,3:0:0:0:
147,327,105297,2,0,L|184:325,1,32.5,0|0,1:0|1:0,0:0:0:0:
256,278,105570,2,0,L|293:280,1,32.5,0|4,1:0|3:0,0:0:0:0:
369,238,105843,1,4,2:0:0:0:
369,238,106025,1,4,2:0:0:0:
450,276,106206,5,6,1:0:0:0:
256,192,106297,12,0,109115,0:0:0:0:
