osu file format v14

[General]
AudioFilename: audio.mp3
AudioLeadIn: 500
PreviewTime: 2553
Countdown: 1
SampleSet: Soft
StackLeniency: 0.7
Mode: 0
LetterboxInBreaks: 0
WidescreenStoryboard: 1

[Editor]
Bookmarks: 8752,18934,30570,42206,53843,58206,65479,71297,77115,82934,94570,106206
DistanceSpacing: 0.5
BeatDivisor: 4
GridSize: 8
TimelineZoom: 2.5

[Metadata]
Title:Arcade Busters
TitleUnicode:Arcade Busters
Artist:cYsmix
ArtistUnicode:cYsmix
Creator:borborygmos
Version:Expert
Source:osu!
Tags:featured artist electronic video game videogame
BeatmapID:1272209
BeatmapSetID:601840

[Difficulty]
HPDrainRate:6.5
CircleSize:4
OverallDifficulty:8
ApproachRate:9
SliderMultiplier:1.9
SliderTickRate:1

[Events]
//Background and Video events
0,0,"CYsmix_bg.jpg",0,0
//Break Periods
2,54043,57243
2,65679,76515
//Storyboard Layer 0 (Background)
//Storyboard Layer 1 (Fail)
//Storyboard Layer 2 (Pass)
//Storyboard Layer 3 (Foreground)
//Storyboard Sound Samples

[TimingPoints]
25,363.636363636364,4,2,0,100,1,0
2934,-133.333333333333,4,2,0,30,0,0
8388,-133.333333333333,4,2,0,45,0,0
8752,-100,4,2,0,70,0,0
18752,-100,4,2,0,5,0,0
18934,-100,4,2,0,70,0,0
30570,-100,4,2,0,70,0,1
40752,-100,4,2,0,70,0,0
42206,-100,4,2,0,70,0,1
53843,-100,4,2,0,70,0,0
57843,-100,4,2,0,30,0,0
57934,-100,4,2,0,40,0,0
58025,-100,4,2,0,50,0,0
58115,-100,4,2,0,60,0,0
58206,-100,4,2,0,70,0,0
77115,-111.111111111111,4,2,0,30,0,0
81479,-100,4,2,0,70,0,0
82934,-100,4,2,0,70,0,1
93115,-100,4,2,0,70,0,0
94570,-100,4,2,0,70,0,1
106206,-100,4,2,0,70,0,0
109115,-100,4,2,0,5,0,0

[Colours]
Combo1 : 220,217,107
Combo2 : 237,92,198
Combo3 : 45,50,236

[HitObjects]
133,23,2934,6,0,L|143:132,1,95.0000036239625,0|0,3:0|0:0,0:0:0:0:
141,117,3297,1,0,3:0:0:0:
261,133,3540,1,0,0:0:0:0:
261,133,3661,2,0,L|271:27,1,95.0000036239625,0|0,3:0|0:0,0:0:0:0:
269,38,4025,1,0,3:0:0:0:
390,29,4267,1,0,0:0:0:0:
390,29,4388,6,0,L|400:138,1,95.0000036239625,0|0,3:0|0:0,0:0:0:0:
398,123,4752,1,0,3:0:0:0:
470,242,4994,1,0,0:0:0:0:
470,242,5115,2,0,L|354:249,1,95.0000036239625,0|0,3:0|0:0,0:0:0:0:
375,247,5479,1,0,3:0:0:0:
249,299,5721,1,0,0:0:0:0:
249,299,5843,6,0,L|135:274,1,95.0000036239625,2|0,0:0|0:0,0:0:0:0:
156,278,6206,2,0,L|50:282,1,95.0000036239625,0|0,3:0|0:0,0:0:0:0:
61,281,6570,2,0,L|51:168,1,95.0000036239625,0|0,3:0|0:0,0:0:0:0:
52,186,7297,6,0,L|-7:175,2,47.5000018119813,2|0|0,0:0|0:0|0:0,0:0:0:0:
164,103,7661,2,0,L|223:92,2,47.5000018119813,2|0|0,0:0|0:0|0:0,0:0:0:0:
291,44,8025,6,0,L|297:8,1,23.7500009059906,2|0,3:2|3:0,3:0:0:0:
358,74,8146,2,0,L|381:45,1,23.7500009059906,2|0,3:2|3:0,3:0:0:0:
401,133,8267,2,0,L|435:120,1,23.7500009059906,2|0,3:2|3:0,3:0:0:0:
374,211,8388,5,4,3:0:0:0:
379,221,8449,1,4,3:0:0:0:
384,231,8509,1,4,3:0:0:0:
389,241,8570,1,4,3:0:0:0:
394,251,8631,1,4,3:0:0:0:
398,261,8691,1,4,3:0:0:0:
417,273,8752,5,2,0:0:0:0:
370,285,8843,1,2,0:0:0:0:
324,297,8934,1,2,0:0:0:0:
220,342,9115,1,0,1:0:0:0:
175,325,9206,1,0,1:0:0:0:
85,356,9388,1,0,1:0:0:0:
40,339,9479,1,4,3:0:0:0:
64,247,9661,2,0,L|60:197,1,47.5,4|0,3:0|1:0,0:0:0:0:
17,114,9934,2,0,L|21:64,1,47.5,4|0,3:0|1:0,0:0:0:0:
112,115,10206,5,2,0:0:0:0:
159,103,10297,1,2,0:0:0:0:
205,91,10388,1,2,0:0:0:0:
309,46,10570,1,0,1:0:0:0:
354,63,10661,1,0,1:0:0:0:
444,32,10843,1,0,1:0:0:0:
489,49,10934,1,0,3:0:0:0:
512,165,11115,2,2,B|465:194|421:175|421:175|421:229|375:271,1,190,2|0,0:1|0:0,0:1:0:0:
305,376,11661,5,2,0:0:0:0:
298,328,11752,1,2,0:0:0:0:
291,280,11843,1,2,0:0:0:0:
225,168,12025,1,0,1:0:0:0:
181,185,12115,1,0,1:0:0:0:
90,154,12297,1,0,1:0:0:0:
46,171,12388,1,4,3:0:0:0:
19,263,12570,2,0,P|47:297|65:309,1,47.5,0|4,1:0|3:0,0:0:0:0:
133,345,12843,2,0,P|176:349|198:345,1,47.5,4|0,3:0|1:0,0:0:0:0:
291,280,13115,5,2,0:0:0:0:
338,286,13206,1,2,0:0:0:0:
385,293,13297,1,2,0:0:0:0:
475,238,13479,1,0,1:0:0:0:
488,192,13570,1,0,1:0:0:0:
432,114,13752,1,0,1:0:0:0:
419,68,13843,1,4,3:0:0:0:
330,145,14025,2,0,B|322:137|322:137|314:145|314:145|306:137|306:137|298:145|298:145|290:137|290:137|284:145|284:145|274:137|274:137|266:145|266:145|258:137|258:137|250:145|250:145|242:137|242:137|234:145|234:145|226:137|226:137|218:145|218:145|210:137|210:137|202:145|202:145|194:137|194:137|186:145|186:145|178:137|178:137|170:145|170:145,1,190,2|2,1:0|1:0,0:0:0:0:
160,112,14479,1,2,0:0:0:0:
123,85,14570,1,2,0:0:0:0:
15,140,14752,1,4,3:0:0:0:
25,185,14843,1,4,3:0:0:0:
47,226,14934,6,0,P|82:257|188:237,1,142.5,6|0,0:1|0:0,0:0:0:0:
209,220,15297,2,0,P|206:300|306:361,1,190,6|0,0:0|0:0,0:0:0:0:
456,301,15843,2,0,L|455:333,1,23.75,0|0,1:0|1:0,0:0:0:0:
436,286,15934,2,0,L|437:318,1,23.75,0|0,1:0|1:0,0:0:0:0:
417,271,16025,6,0,B|402:224|402:224|412:158,1,95,4|4,3:0|3:0,0:0:0:0:
489,108,16388,1,4,3:0:0:0:
418,27,16570,2,0,L|312:45,1,95,4|0,3:0|1:0,0:0:0:0:
244,107,16934,2,0,L|138:89,1,95,4|0,3:0|1:0,0:0:0:0:
74,36,17297,1,4,0:0:0:0:
256,192,17343,12,0,18752,0:0:0:0:
0,69,18934,6,0,L|104:91,1,95,2|0,0:0|3:0,3:0:0:0:
226,42,19206,1,0,3:0:0:0:
189,72,19297,2,0,P|181:104|179:154,1,47.5,0|0,1:0|3:0,3:0:0:0:
226,201,19479,1,0,3:0:0:0:
226,201,19570,1,0,3:0:0:0:
226,201,19661,2,0,L|290:211,2,47.5,4|0|0,3:0|3:0|3:0,3:0:0:0:
153,261,19934,1,4,3:0:0:0:
110,282,20025,1,0,1:0:0:0:
223,367,20206,1,0,3:0:0:0:
266,346,20297,1,0,3:0:0:0:
309,325,20388,6,0,P|337:330|370:342,1,47.5,2|0,0:0|3:0,3:0:0:0:
450,382,20570,1,0,3:0:0:0:
450,382,20661,1,0,3:0:0:0:
450,382,20752,2,0,L|460:320,1,47.5,0|0,1:0|3:0,3:0:0:0:
492,260,20934,2,0,L|482:198,1,47.5,0|4,3:0|3:0,3:0:0:0:
413,161,21115,1,4,3:0:0:0:
413,161,21206,1,0,3:0:0:0:
413,161,21297,2,0,P|379:168|341:172,1,47.5,0|0,3:0|3:0,3:0:0:0:
290,126,21479,2,0,P|207:132|129:169,1,142.5,2|0,0:0|3:0,3:0:0:0:
77,204,21843,6,0,L|83:84,1,95,2|0,0:0|3:0,3:0:0:0:
148,28,22115,1,0,3:0:0:0:
191,46,22206,2,0,P|219:50|259:43,1,47.5,0|0,1:0|3:0,3:0:0:0:
330,101,22388,1,0,3:0:0:0:
330,101,22479,1,0,3:0:0:0:
330,101,22570,2,0,L|319:164,2,47.5,4|0|0,3:0|3:0|3:0,3:0:0:0:
401,37,22843,1,4,3:0:0:0:
444,56,22934,1,2,1:2:0:0:
506,158,23115,1,2,0:0:0:0:
445,262,23297,6,0,L|363:268,1,47.5,2|0,0:0|3:0,3:0:0:0:
315,313,23479,1,0,3:0:0:0:
315,313,23570,1,0,3:0:0:0:
315,313,23661,2,0,P|306:277|280:235,1,47.5,0|0,1:0|3:0,3:0:0:0:
248,195,23843,2,0,P|216:175|168:164,1,47.5,0|0,3:0|3:0,3:0:0:0:
120,209,24025,1,4,3:0:0:0:
120,209,24115,1,0,3:0:0:0:
120,209,24206,1,4,3:0:0:0:
40,146,24388,2,0,B|44:139|44:139|37:134|37:134|42:127|42:127|35:123|35:123|39:116|39:116|33:113|33:113|37:105|37:105|30:100|30:100|34:94|34:94|28:89|28:89|32:82|32:82|25:78|25:78|30:71|30:71|23:67|23:67|27:60|27:60|20:55|20:55|25:48|25:48|18:44|18:44|22:37|22:37|16:33|16:33,1,142.5,2|0,1:0|0:0,0:0:0:0:
22,46,24752,6,0,P|78:63|134:60,1,95,2|0,0:0|3:0,3:0:0:0:
199,20,25025,1,0,3:0:0:0:
242,1,25115,2,0,P|270:-3|317:9,1,47.5,0|0,1:0|3:0,3:0:0:0:
378,51,25297,1,0,3:0:0:0:
378,51,25388,1,0,3:0:0:0:
378,51,25479,2,0,L|428:42,2,47.5,4|0|0,3:0|3:0|3:0,3:0:0:0:
330,129,25752,1,4,3:0:0:0:
316,174,25843,1,0,1:0:0:0:
441,235,26025,1,0,3:0:0:0:
398,254,26115,1,0,3:0:0:0:
362,285,26206,6,0,P|331:290|289:286,1,47.5,2|0,0:0|3:0,3:0:0:0:
213,236,26388,1,0,3:0:0:0:
213,236,26479,1,0,3:0:0:0:
213,236,26570,2,0,L|217:294,1,47.5,0|0,1:0|3:0,3:0:0:0:
134,348,26752,2,0,L|130:290,1,47.5,0|4,3:0|3:0,3:0:0:0:
59,231,26934,1,0,1:0:0:0:
59,231,27025,1,0,3:0:0:0:
59,231,27115,1,4,3:0:0:0:
96,93,27297,2,0,L|91:35,3,47.5,2|0|0|0,0:0|3:0|0:0|3:0,3:0:0:0:
65,5,27661,6,0,L|189:17,1,95,2|0,0:0|3:0,3:0:0:0:
259,73,27934,1,0,3:0:0:0:
305,72,28025,2,0,P|328:66|350:55,1,47.5,0|0,1:0|3:0,3:0:0:0:
451,35,28206,1,0,3:0:0:0:
451,35,28297,1,0,3:0:0:0:
451,35,28388,2,0,L|515:47,2,47.5,4|0|0,3:0|3:0|3:0,3:0:0:0:
415,118,28661,1,4,3:0:0:0:
378,149,28752,1,0,1:0:0:0:
423,266,28934,1,2,0:0:0:0:
320,353,29115,5,2,0:0:0:0:
309,306,29206,1,2,0:0:0:0:
298,259,29297,1,2,0:0:0:0:
209,322,29479,1,2,0:0:0:0:
135,261,29661,1,4,3:0:0:0:
89,275,29752,1,4,3:0:0:0:
43,289,29843,2,0,L|57:218,1,47.5,0|0,1:0|3:0,0:0:0:0:
101,161,30025,2,0,L|87:90,1,47.5,0|0,3:0|3:0,3:0:0:0:
32,42,30206,1,2,1:0:0:0:
153,0,30388,1,2,1:0:0:0:
292,24,30570,6,0,L|283:96,1,47.5,4|0,3:0|3:0,3:0:0:0:
424,39,30752,2,0,L|433:111,1,47.5,4|0,3:0|3:0,3:0:0:0:
328,164,30934,5,2,1:0:0:0:
371,184,31025,1,0,3:0:0:0:
413,203,31115,1,0,3:0:0:0:
455,223,31206,1,0,3:0:0:0:
471,267,31297,6,0,P|415:278|401:285,1,47.5,2|0,3:1|3:0,3:0:0:0:
341,317,31479,2,0,P|298:354|289:367,1,47.5,0|0,3:0|3:0,3:0:0:0:
201,380,31661,6,0,P|190:324|183:310,1,47.5,2|0,1:2|3:0,3:0:0:0:
151,250,31843,2,0,P|114:207|101:198,1,47.5,0|0,3:0|3:0,3:0:0:0:
39,166,32025,5,4,3:0:0:0:
39,166,32115,1,0,3:0:0:0:
39,166,32206,1,0,3:0:0:0:
39,166,32297,1,0,3:0:0:0:
39,166,32388,6,0,P|43:133|48:100,1,47.5,2|0,3:1|3:0,3:0:0:0:
167,135,32570,2,0,P|163:102|158:69,1,47.5,0|0,3:0|3:0,3:0:0:0:
277,197,32752,6,0,P|281:230|286:263,1,47.5,2|0,1:0|3:0,3:0:0:0:
405,228,32934,2,0,P|401:261|396:294,1,47.5,0|0,3:0|3:0,3:0:0:0:
469,346,33115,5,0,1:0:0:0:
487,302,33206,1,0,3:0:0:0:
483,254,33297,1,0,3:0:0:0:
474,207,33388,1,0,3:0:0:0:
505,171,33479,6,0,L|511:114,3,47.5,2|0|0|0,3:2|3:0|3:0|3:0,3:0:0:0:
481,84,33843,6,0,L|397:100,1,47.5,2|0,1:1|3:0,3:0:0:0:
386,8,34025,2,0,L|339:0,1,47.5,0|0,3:0|3:0,3:0:0:0:
245,47,34206,6,0,L|237:-13,1,47.5,2|0,3:1|3:0,3:0:0:0:
126,85,34388,2,0,L|119:132,1,47.5,0|0,3:0|3:0,3:0:0:0:
234,217,34570,6,0,L|225:154,1,47.5,2|0,1:0|3:0,3:0:0:0:
344,244,34752,2,0,L|350:196,1,47.5,0|0,3:0|3:0,3:0:0:0:
240,352,34934,6,0,L|233:304,1,47.5,2|0,3:1|3:0,3:0:0:0:
109,297,35115,2,0,L|115:344,1,47.5,2|0,3:1|3:0,3:0:0:0:
213,228,35297,6,0,L|207:180,1,47.5,2|0,1:1|3:0,3:0:0:0:
82,173,35479,2,0,L|88:220,1,47.5,2|0,3:1|3:0,3:0:0:0:
207,159,35661,6,0,L|279:170,1,47.5,2|0,3:1|3:0,3:0:0:0:
352,125,35843,2,0,L|424:136,1,47.5,0|0,3:0|3:0,3:0:0:0:
485,251,36025,5,0,1:0:0:0:
439,260,36115,1,0,3:0:0:0:
392,270,36206,1,0,3:0:0:0:
345,280,36297,1,0,3:0:0:0:
347,327,36388,6,0,P|330:349|323:368,1,47.5,2|0,3:2|3:0,3:0:0:0:
257,275,36570,2,0,P|246:300|244:320,1,47.5,0|0,3:0|3:0,3:0:0:0:
68,259,36752,6,0,P|85:281|92:300,1,47.5,2|0,1:1|3:0,3:0:0:0:
158,207,36934,2,0,P|168:232|170:252,1,47.5,0|0,3:0|3:0,3:0:0:0:
347,191,37115,6,0,P|330:213|323:232,1,47.5,2|0,3:1|3:0,3:0:0:0:
257,139,37297,2,0,P|246:164|244:184,1,47.5,0|0,3:0|3:0,3:0:0:0:
68,123,37479,6,0,P|85:145|92:164,1,47.5,2|0,1:0|3:0,3:0:0:0:
158,71,37661,2,0,P|168:96|170:116,1,47.5,0|0,3:0|3:0,3:0:0:0:
266,20,37843,6,0,L|329:26,1,47.5,2|0,3:1|3:0,3:0:0:0:
413,70,38025,1,0,3:0:0:0:
413,70,38115,1,0,3:0:0:0:
413,70,38206,5,0,1:0:0:0:
418,117,38297,1,0,3:0:0:0:
409,163,38388,1,0,3:0:0:0:
363,149,38479,1,0,3:0:0:0:
335,110,38570,6,0,P|306:116|278:148,1,47.5,2|0,3:1|3:0,3:0:0:0:
245,61,38752,2,0,P|223:80|214:122,1,47.5,0|0,3:0|3:0,3:0:0:0:
111,159,38934,6,0,P|132:139|141:97,1,47.5,2|0,1:0|3:0,3:0:0:0:
21,110,39115,2,0,P|49:103|78:72,1,47.5,0|0,3:0|3:0,3:0:0:0:
8,213,39297,5,2,3:2:0:0:
53,226,39388,1,0,3:0:0:0:
98,239,39479,1,0,3:0:0:0:
143,253,39570,1,0,3:0:0:0:
153,299,39661,6,0,L|214:313,3,47.5,0|0|0|0,1:0|3:0|3:0|3:0,3:0:0:0:
245,296,40025,1,4,3:0:0:0:
261,312,40115,1,4,3:0:0:0:
278,327,40206,1,0,3:0:0:0:
298,338,40297,1,0,3:0:0:0:
320,346,40388,5,0,1:0:0:0:
353,311,40479,1,0,3:0:0:0:
361,264,40570,1,0,3:0:0:0:
374,218,40661,1,0,3:0:0:0:
407,184,40752,5,2,2:0:0:0:
407,184,40843,1,2,2:0:0:0:
407,184,40934,1,2,2:0:0:0:
501,129,41115,1,2,2:0:0:0:
446,37,41297,1,0,1:0:0:0:
401,52,41388,1,4,3:0:0:0:
311,19,41570,1,0,1:0:0:0:
266,34,41661,1,4,3:0:0:0:
173,55,41843,2,0,P|149:74|163:29,1,95,0|0,3:0|3:0,3:0:0:0:
146,32,42206,6,0,L|155:104,1,47.5,4|0,3:0|3:0,3:0:0:0:
14,47,42388,2,0,L|5:119,1,47.5,4|0,3:0|3:0,3:0:0:0:
143,157,42570,5,2,1:0:0:0:
100,177,42661,1,0,3:0:0:0:
58,196,42752,1,0,3:0:0:0:
16,216,42843,1,0,3:0:0:0:
0,260,42934,6,0,P|56:271|70:278,1,47.5,2|0,3:1|3:0,3:0:0:0:
130,310,43115,2,0,P|173:347|182:360,1,47.5,0|0,3:0|3:0,3:0:0:0:
276,379,43297,6,0,P|287:323|294:309,1,47.5,0|0,1:0|3:0,3:0:0:0:
326,249,43479,2,0,P|363:206|376:197,1,47.5,0|0,3:0|3:0,3:0:0:0:
473,166,43661,5,2,3:2:0:0:
473,166,43752,1,0,3:0:0:0:
473,166,43843,1,0,3:0:0:0:
473,166,43934,1,0,3:0:0:0:
473,166,44025,6,0,P|469:133|464:100,1,47.5,2|0,1:0|3:0,3:0:0:0:
345,135,44206,2,0,P|349:102|354:69,1,47.5,0|0,3:0|3:0,3:0:0:0:
235,197,44388,6,0,P|231:230|226:263,1,47.5,2|0,3:1|3:0,3:0:0:0:
107,228,44570,2,0,P|111:261|116:294,1,47.5,0|0,3:0|3:0,3:0:0:0:
43,346,44752,5,0,1:0:0:0:
25,302,44843,1,0,3:0:0:0:
29,254,44934,1,0,3:0:0:0:
38,207,45025,1,0,3:0:0:0:
7,171,45115,6,0,L|1:114,3,47.5,2|0|0|0,3:2|3:0|3:0|3:0,3:0:0:0:
31,84,45479,6,0,L|115:100,1,47.5,2|0,1:1|3:0,3:0:0:0:
126,8,45661,2,0,L|173:0,1,47.5,0|0,3:0|3:0,3:0:0:0:
267,47,45843,6,0,L|275:-13,1,47.5,2|0,3:1|3:0,3:0:0:0:
386,85,46025,2,0,L|393:132,1,47.5,0|0,3:0|3:0,3:0:0:0:
278,217,46206,6,0,L|287:154,1,47.5,2|0,1:1|3:0,3:0:0:0:
168,244,46388,2,0,L|162:196,1,47.5,0|0,3:0|3:0,3:0:0:0:
272,352,46570,6,0,L|279:304,1,47.5,2|0,3:1|3:0,3:0:0:0:
403,297,46752,2,0,L|397:344,1,47.5,2|0,3:1|3:0,3:0:0:0:
299,228,46934,6,0,L|305:180,1,47.5,2|0,1:0|3:0,3:0:0:0:
430,173,47115,2,0,L|424:220,1,47.5,2|0,3:1|3:0,3:0:0:0:
305,159,47297,6,0,L|233:170,1,47.5,2|0,3:1|3:0,3:0:0:0:
160,125,47479,2,0,L|88:136,1,47.5,0|0,3:0|3:0,3:0:0:0:
27,251,47661,5,0,1:0:0:0:
73,260,47752,1,0,3:0:0:0:
120,270,47843,1,0,3:0:0:0:
167,280,47934,1,0,3:0:0:0:
165,327,48025,6,0,P|182:349|189:368,1,47.5,2|0,3:2|3:0,3:0:0:0:
255,275,48206,2,0,P|266:300|268:320,1,47.5,0|0,3:0|3:0,3:0:0:0:
444,259,48388,6,0,P|427:281|420:300,1,47.5,2|0,1:0|3:0,3:0:0:0:
354,207,48570,2,0,P|344:232|342:252,1,47.5,0|0,3:0|3:0,3:0:0:0:
165,191,48752,6,0,P|182:213|189:232,1,47.5,2|0,3:1|3:0,3:0:0:0:
255,139,48934,2,0,P|266:164|268:184,1,47.5,0|0,3:0|3:0,3:0:0:0:
444,123,49115,6,0,P|427:145|420:164,1,47.5,2|0,1:0|3:0,3:0:0:0:
354,71,49297,2,0,P|344:96|342:116,1,47.5,0|0,3:0|3:0,3:0:0:0:
246,20,49479,6,0,L|183:26,1,47.5,2|0,3:1|3:0,3:0:0:0:
99,70,49661,1,0,3:0:0:0:
99,70,49752,1,0,3:0:0:0:
99,70,49843,5,0,1:0:0:0:
94,117,49934,1,0,3:0:0:0:
103,163,50025,1,0,3:0:0:0:
149,149,50116,1,0,3:0:0:0:
177,110,50206,6,0,P|206:116|234:148,1,47.5,2|0,3:1|3:0,3:0:0:0:
267,61,50388,2,0,P|289:80|298:122,1,47.5,0|0,3:0|3:0,3:0:0:0:
401,159,50570,6,0,P|380:139|371:97,1,47.5,2|0,1:0|3:0,3:0:0:0:
491,110,50752,2,0,P|463:103|434:72,1,47.5,0|0,3:0|3:0,3:0:0:0:
504,213,50934,5,2,3:1:0:0:
459,226,51024,1,0,3:0:0:0:
414,239,51115,1,0,3:0:0:0:
369,253,51206,1,0,3:0:0:0:
359,299,51297,6,0,L|298:313,3,47.5,0|0|0|0,1:0|3:0|3:0|3:0,3:0:0:0:
267,296,51661,1,0,3:0:0:0:
251,312,51752,1,0,3:0:0:0:
234,327,51843,1,0,3:0:0:0:
214,338,51934,1,0,3:0:0:0:
192,346,52025,5,0,3:0:0:0:
159,311,52115,1,0,3:0:0:0:
151,264,52206,1,0,3:0:0:0:
138,218,52297,1,0,3:0:0:0:
174,187,52388,6,0,L|183:111,1,47.5,4|0,3:0|3:0,3:0:0:0:
68,269,52570,1,2,3:2:0:0:
184,198,52752,6,0,L|193:122,1,47.5,4|0,3:0|3:0,3:0:0:0:
78,280,52934,1,2,3:2:0:0:
194,209,53115,6,0,L|203:133,1,47.5,2|0,3:2|3:0,3:0:0:0:
301,230,53297,2,0,L|310:154,1,47.5,0|0,3:0|3:0,3:0:0:0:
392,103,53479,6,0,L|383:179,1,47.5,2|0,3:2|3:0,3:0:0:0:
499,124,53661,2,0,L|490:200,1,47.5,2|0,3:2|3:0,3:0:0:0:
463,28,53843,5,4,2:0:0:0:
452,52,57843,6,0,L|451:28,1,23.75,0|0,1:0|1:0,1:0:0:0:
432,67,57934,2,0,L|432:43,1,23.75,0|0,1:0|1:0,1:0:0:0:
406,81,58025,2,0,L|406:57,1,23.75,0|0,1:0|1:0,1:0:0:0:
386,96,58115,2,0,L|386:72,1,23.75,0|0,1:0|1:0,1:0:0:0:
366,111,58206,6,0,P|329:104|281:101,1,47.5,4|0,3:0|3:0,3:0:0:0:
199,44,58388,1,0,3:0:0:0:
199,44,58479,1,0,3:0:0:0:
199,44,58570,2,0,P|211:81|212:118,1,47.5,4|0,3:0|3:0,3:0:0:0:
198,231,58752,1,0,3:0:0:0:
198,231,58843,1,0,3:0:0:0:
198,231,58934,2,0,P|161:243|124:244,1,47.5,2|0,3:2|3:0,3:0:0:0:
119,246,59115,2,0,P|80:237|48:220,1,47.5,2|0,3:2|3:0,3:0:0:0:
16,316,59297,6,0,L|0:333,1,23.75,0|0,3:0|3:0,3:0:0:0:
39,319,59388,2,0,L|22:335,1,23.75,0|0,3:0|3:0,3:0:0:0:
68,327,59479,2,0,L|51:343,1,23.75,0|0,3:0|3:0,3:0:0:0:
93,330,59570,2,0,L|76:346,1,23.75,0|0,3:0|3:0,3:0:0:0:
118,334,59661,6,0,P|144:357|177:372,1,47.5,2|0,3:2|3:0,3:0:0:0:
248,373,59843,1,0,3:0:0:0:
248,373,59934,1,0,3:0:0:0:
248,373,60025,2,0,P|283:369|311:353,1,47.5,0|0,1:0|3:0,3:0:0:0:
379,347,60206,1,0,3:0:0:0:
379,347,60297,1,0,3:0:0:0:
379,347,60388,6,0,L|366:254,1,47.5,2|0,3:1|3:0,3:0:0:0:
331,209,60570,2,0,L|344:116,1,47.5,0|0,3:0|3:0,3:0:0:0:
393,338,60752,2,0,L|380:245,1,47.5,0|0,1:0|3:0,3:0:0:0:
345,200,60934,2,0,L|358:107,1,47.5,0|0,3:0|3:0,3:0:0:0:
431,83,61115,5,0,3:0:0:0:
431,83,61206,1,0,3:0:0:0:
431,83,61297,2,0,L|354:77,1,47.5,2|0,3:2|3:0,3:0:0:0:
264,15,61479,2,0,L|274:82,1,47.5,2|0,1:2|3:0,3:0:0:0:
168,138,61661,2,0,L|175:91,1,47.5,2|0,3:2|3:0,3:0:0:0:
66,10,61843,6,0,L|76:77,1,47.5,2|0,3:2|3:0,3:0:0:0:
178,147,62025,2,0,L|185:100,1,47.5,2|0,3:2|3:0,3:0:0:0:
274,24,62206,2,0,L|284:91,1,47.5,2|0,1:2|3:0,3:0:0:0:
396,87,62388,2,0,L|443:90,1,47.5,2|0,3:2|3:0,3:0:0:0:
499,196,62570,5,2,3:1:0:0:
452,206,62661,1,0,3:0:0:0:
405,216,62752,1,0,3:0:0:0:
358,227,62843,1,0,3:0:0:0:
360,274,62934,6,0,P|333:276|299:286,3,47.5,0|0|0|0,1:0|3:0|3:0|3:0,3:0:0:0:
248,342,63297,5,2,3:1:0:0:
209,314,63388,1,0,3:0:0:0:
164,297,63479,1,0,3:0:0:0:
116,293,63570,1,0,3:0:0:0:
79,323,63661,6,0,P|107:351|126:360,3,47.5,0|0|0|0,1:0|3:0|3:0|3:0,3:0:0:0:
15,229,64025,6,0,L|6:182,1,47.5,2|0,3:1|3:0,3:0:0:0:
102,184,64206,2,0,L|105:136,1,47.5,0|0,3:0|3:0,3:0:0:0:
197,163,64388,2,0,L|212:117,1,47.5,0|0,1:0|3:0,3:0:0:0:
294,167,64570,2,0,L|320:127,1,47.5,0|0,3:0|3:0,3:0:0:0:
386,195,64752,1,0,3:0:0:0:
386,195,64843,1,0,3:0:0:0:
386,195,64934,1,0,3:0:0:0:
337,36,65115,1,0,1:0:0:0:
449,98,65297,1,0,3:0:0:0:
449,98,65388,1,0,3:0:0:0:
449,98,65479,5,2,3:0:0:0:
68,271,77115,6,0,P|122:268|123:167,1,170.999994781494,4|0,0:0|0:0,0:0:0:0:
128,170,77661,1,0,3:0:0:0:
128,170,77843,1,0,1:0:0:0:
256,80,78206,1,0,3:0:0:0:
256,192,78388,1,0,3:0:0:0:
444,271,78570,6,0,P|390:268|389:167,1,170.999994781494,4|4,3:0|3:0,0:0:0:0:
383,170,79115,1,0,3:0:0:0:
383,170,79297,1,0,1:0:0:0:
256,80,79661,1,2,0:1:0:0:
256,192,79843,1,2,0:2:0:0:
256,216,79934,1,2,0:2:0:0:
255,240,80025,6,0,L|70:256,1,170.999994781494,4|0,3:0|3:0,0:0:0:0:
84,254,80570,1,4,3:0:0:0:
84,254,80752,1,0,1:0:0:0:
0,75,81115,2,0,L|100:90,1,85.4999973907472,0|0,3:0|3:0,3:0:0:0:
195,28,81479,5,2,0:0:0:0:
241,35,81570,1,2,0:0:0:0:
287,42,81661,1,2,0:0:0:0:
399,123,81843,1,2,1:2:0:0:
445,116,81934,1,2,0:0:0:0:
491,109,82025,1,2,0:0:0:0:
495,230,82206,2,2,B|448:259|405:238|405:238|404:294|357:337,1,190,2|0,0:1|0:0,0:1:0:0:
478,345,82752,1,0,1:0:0:0:
357,319,82934,6,0,L|360:379,1,47.5,4|0,3:0|3:0,3:0:0:0:
242,300,83115,2,0,L|239:360,1,47.5,4|0,3:0|3:0,3:0:0:0:
133,246,83297,5,2,1:0:0:0:
179,234,83388,1,0,3:0:0:0:
225,222,83479,1,0,3:0:0:0:
271,210,83570,1,0,3:0:0:0:
317,198,83661,6,0,P|338:212|372:226,1,47.5,2|0,3:1|3:0,3:0:0:0:
257,109,83843,2,0,P|237:122|215:132,1,47.5,0|0,3:0|3:0,3:0:0:0:
332,35,84025,6,0,L|330:106,1,47.5,2|0,1:2|3:0,3:0:0:0:
434,4,84206,2,0,L|432:75,1,47.5,0|0,3:0|3:0,3:0:0:0:
503,214,84388,5,4,3:0:0:0:
503,214,84480,1,0,3:0:0:0:
503,214,84570,1,0,3:0:0:0:
503,214,84661,1,0,3:0:0:0:
503,214,84752,6,0,L|489:160,1,47.5,2|0,1:0|3:0,3:0:0:0:
410,252,84934,2,0,L|421:297,1,47.5,0|0,3:0|3:0,3:0:0:0:
298,192,85115,6,0,P|299:165|305:142,1,47.5,2|0,1:0|3:0,3:0:0:0:
216,243,85297,2,0,P|203:219|197:196,1,47.5,0|0,3:0|3:0,3:0:0:0:
153,336,85479,5,0,1:0:0:0:
121,300,85571,1,0,3:0:0:0:
85,268,85661,1,0,3:0:0:0:
39,254,85752,1,0,3:0:0:0:
48,207,85843,6,0,P|81:207|113:198,3,47.5,2|0|0|0,3:2|3:0|3:0|3:0,3:0:0:0:
147,95,86206,6,0,L|157:154,1,47.5,2|0,1:1|3:0,3:0:0:0:
252,113,86388,2,0,L|262:172,1,47.5,0|0,3:0|3:0,3:0:0:0:
356,203,86570,6,0,L|363:156,1,47.5,2|0,3:1|3:0,3:0:0:0:
460,185,86752,2,0,L|467:138,1,47.5,0|0,3:0|3:0,3:0:0:0:
391,314,86934,6,0,P|395:344|407:379,1,47.5,2|0,1:1|3:0,3:0:0:0:
306,276,87115,2,0,P|294:304|287:340,1,47.5,0|0,3:0|3:0,3:0:0:0:
193,368,87297,6,0,L|186:309,1,47.5,2|0,3:1|3:0,3:0:0:0:
79,229,87479,2,0,L|84:276,1,47.5,2|0,3:1|3:0,3:0:0:0:
175,378,87661,6,0,L|168:319,1,47.5,2|0,1:0|3:0,3:0:0:0:
61,239,87843,2,0,L|66:286,1,47.5,2|0,3:1|3:0,3:0:0:0:
152,166,88025,6,0,L|228:181,1,47.5,2|0,3:1|3:0,3:0:0:0:
282,147,88206,2,0,L|358:162,1,47.5,0|0,3:0|3:0,3:0:0:0:
480,149,88388,5,2,1:0:0:0:
436,129,88480,1,0,3:0:0:0:
397,101,88570,1,0,3:0:0:0:
366,64,88661,1,0,3:0:0:0:
316,75,88752,6,0,P|299:53|292:34,1,47.5,2|0,3:2|3:0,3:0:0:0:
226,127,88934,2,0,P|215:102|213:82,1,47.5,0|0,3:0|3:0,3:0:0:0:
37,143,89115,6,0,P|54:121|61:102,1,47.5,2|0,1:1|3:0,3:0:0:0:
127,195,89297,2,0,P|137:170|139:150,1,47.5,0|0,3:0|3:0,3:0:0:0:
316,211,89479,6,0,P|299:189|292:170,1,47.5,2|0,3:1|3:0,3:0:0:0:
226,263,89661,2,0,P|215:238|213:218,1,47.5,0|0,3:0|3:0,3:0:0:0:
37,279,89843,6,0,P|54:257|61:238,1,47.5,2|0,1:0|3:0,3:0:0:0:
127,331,90025,2,0,P|137:306|139:286,1,47.5,0|0,3:0|3:0,3:0:0:0:
221,384,90206,6,0,L|295:372,1,47.5,2|0,3:1|3:0,3:0:0:0:
384,328,90388,1,0,3:0:0:0:
431,334,90480,1,0,3:0:0:0:
474,366,90570,5,0,1:1:0:0:
474,366,90661,1,0,3:0:0:0:
474,366,90752,1,0,3:0:0:0:
474,366,90843,1,0,3:0:0:0:
474,366,90934,6,0,P|491:341|499:306,1,47.5,2|0,3:1|3:0,3:0:0:0:
417,309,91115,2,0,P|419:278|408:244,1,47.5,0|0,3:0|3:0,3:0:0:0:
322,199,91297,6,0,P|318:222|320:245,1,47.5,2|0,1:0|3:0,3:0:0:0:
241,262,91479,2,0,P|249:284|263:303,1,47.5,0|0,3:0|3:0,3:0:0:0:
198,366,91661,5,2,3:1:0:0:
153,349,91752,1,0,3:0:0:0:
108,333,91843,1,0,3:0:0:0:
60,335,91934,1,0,3:0:0:0:
49,288,92025,6,0,P|79:282|108:263,3,47.5,0|0|0|0,1:0|3:0|3:0|3:0,3:0:0:0:
126,201,92388,1,0,3:0:0:0:
126,201,92480,1,0,3:0:0:0:
126,201,92570,1,0,3:0:0:0:
126,201,92661,1,0,3:0:0:0:
126,201,92752,2,0,P|129:173|123:142,1,47.5,0|0,1:0|3:0,3:0:0:0:
116,122,92934,2,0,P|104:96|83:72,1,47.5,0|0,3:0|3:0,3:0:0:0:
11,28,93115,5,2,0:0:0:0:
57,35,93206,1,2,0:0:0:0:
103,43,93297,1,2,0:0:0:0:
208,0,93479,1,2,3:0:0:0:
282,69,93661,1,0,1:0:0:0:
327,53,93752,1,0,1:0:0:0:
415,87,93934,1,0,1:0:0:0:
460,71,94025,1,4,3:0:0:0:
400,178,94206,1,2,1:2:0:0:
400,178,94388,1,2,1:2:0:0:
447,337,94570,6,0,P|443:313|431:289,1,47.5,4|0,3:0|3:0,3:0:0:0:
350,325,94752,2,0,P|334:306|312:291,1,47.5,4|0,3:0|3:0,3:0:0:0:
232,348,94934,5,2,1:0:0:0:
191,322,95024,1,0,3:0:0:0:
163,283,95115,1,0,3:0:0:0:
127,251,95206,1,0,3:0:0:0:
80,243,95297,6,0,P|77:273|86:309,1,47.5,2|0,3:1|3:0,3:0:0:0:
27,146,95479,2,0,P|9:170|0:206,1,47.5,0|0,3:0|3:0,3:0:0:0:
110,101,95661,6,0,P|118:78|123:55,1,47.5,0|0,1:0|3:0,3:0:0:0:
209,0,95843,1,0,3:0:0:0:
209,0,95934,1,0,3:0:0:0:
209,0,96025,6,0,P|232:25|237:50,1,47.5,2|0,3:1|3:0,3:0:0:0:
329,32,96206,2,0,P|336:65|328:89,1,47.5,0|0,3:0|3:0,3:0:0:0:
486,123,96388,6,0,P|462:148|457:173,1,47.5,2|0,1:0|3:0,3:0:0:0:
366,155,96570,2,0,P|358:188|366:212,1,47.5,0|0,3:0|3:0,3:0:0:0:
209,246,96752,6,0,P|232:271|237:296,1,47.5,2|0,3:1|3:0,3:0:0:0:
329,278,96934,2,0,P|336:311|328:335,1,47.5,0|0,3:0|3:0,3:0:0:0:
476,281,97115,5,2,1:0:0:0:
476,281,97206,1,0,3:0:0:0:
476,281,97297,1,0,3:0:0:0:
476,281,97388,1,0,3:0:0:0:
476,281,97479,6,0,P|472:249|477:223,1,47.5,2|0,3:1|3:0,3:0:0:0:
437,371,97661,2,0,P|417:345|408:320,1,47.5,0|0,3:0|3:0,3:0:0:0:
314,274,97843,6,0,P|310:306|315:332,1,47.5,2|0,1:0|3:0,3:0:0:0:
275,184,98025,2,0,P|255:209|246:234,1,47.5,0|0,3:0|3:0,3:0:0:0:
385,77,98206,6,0,L|382:7,1,47.5,2|0,3:1|3:0,3:0:0:0:
296,124,98388,2,0,L|298:171,1,47.5,0|0,3:0|3:0,3:0:0:0:
232,234,98570,6,0,P|209:212|197:191,1,47.5,2|0,1:0|3:0,3:0:0:0:
201,323,98752,2,0,P|224:345|236:366,1,47.5,0|0,3:0|3:0,3:0:0:0:
43,258,98934,6,0,L|42:201,1,47.5,2|0,3:1|3:0,3:0:0:0:
113,324,99115,2,0,L|114:381,1,47.5,2|0,3:1|3:0,3:0:0:0:
23,266,99297,6,0,L|22:209,1,47.5,2|0,1:0|3:0,3:0:0:0:
93,332,99479,2,0,L|94:389,1,47.5,2|0,3:1|3:0,3:0:0:0:
143,246,99661,5,2,3:1:0:0:
168,205,99752,1,0,3:0:0:0:
171,157,99843,1,0,3:0:0:0:
158,111,99934,1,0,3:0:0:0:
114,130,100025,6,0,P|86:129|54:118,3,47.5,2|0|0|0,1:0|3:0|3:0|3:0,3:0:0:0:
59,114,100388,6,0,P|63:146|58:172,1,47.5,2|0,3:1|3:0,3:0:0:0:
98,24,100570,2,0,P|118:50|127:75,1,47.5,0|0,3:0|3:0,3:0:0:0:
221,121,100752,6,0,P|225:89|220:63,1,47.5,2|0,1:0|3:0,3:0:0:0:
260,211,100934,2,0,P|280:186|289:161,1,47.5,0|0,3:0|3:0,3:0:0:0:
150,318,101115,6,0,L|153:388,1,47.5,2|0,3:1|3:0,3:0:0:0:
239,271,101297,2,0,L|237:224,1,47.5,0|0,3:0|3:0,3:0:0:0:
303,161,101479,6,0,P|326:183|338:204,1,47.5,2|0,1:0|3:0,3:0:0:0:
334,72,101661,2,0,P|311:50|299:29,1,47.5,0|0,3:0|3:0,3:0:0:0:
492,137,101843,6,0,L|493:194,1,47.5,2|0,3:1|3:0,3:0:0:0:
422,71,102025,2,0,L|421:14,1,47.5,2|0,3:1|3:0,3:0:0:0:
512,129,102206,6,0,L|513:186,1,47.5,2|0,1:1|3:0,3:0:0:0:
442,63,102388,2,0,L|441:6,1,47.5,2|0,3:1|3:0,3:0:0:0:
361,133,102570,5,2,3:1:0:0:
388,171,102661,1,0,3:0:0:0:
396,217,102752,1,0,3:0:0:0:
364,252,102843,1,0,3:0:0:0:
320,232,102934,6,0,P|298:228|270:229,1,47.5,2|0,1:0|3:0,3:0:0:0:
185,290,103115,1,0,1:0:0:0:
185,290,103206,1,0,1:0:0:0:
185,290,103297,6,0,L|172:341,1,47.5,2|0,3:1|3:0,3:0:0:0:
103,244,103479,2,0,L|90:295,1,47.5,0|0,3:0|3:0,3:0:0:0:
8,152,103661,6,0,L|21:203,1,47.5,0|0,1:0|3:0,3:0:0:0:
90,106,103843,2,0,L|103:157,1,47.5,0|0,3:0|3:0,3:0:0:0:
128,29,104025,5,0,3:0:0:0:
128,29,104115,1,0,3:0:0:0:
128,29,104206,1,0,3:0:0:0:
128,29,104297,1,0,3:0:0:0:
128,29,104388,6,0,P|164:45|209:49,1,47.5,2|0,1:0|3:0,3:0:0:0:
258,137,104570,2,0,P|222:121|177:117,1,47.5,2|0,3:1|3:0,3:0:0:0:
155,240,104752,5,2,0:0:0:0:
199,257,104843,1,2,0:0:0:0:
245,264,104934,1,2,0:0:0:0:
349,204,105115,1,2,3:0:0:0:
453,315,105297,1,0,1:0:0:0:
411,337,105388,1,0,1:0:0:0:
314,314,105570,1,0,1:0:0:0:
272,336,105661,1,4,3:0:0:0:
163,354,105843,5,4,2:0:0:0:
96,280,106025,1,4,2:0:0:0:
144,191,106206,1,6,1:0:0:0:
256,192,106252,12,0,109115,0:0:0:0:
