osu file format v14

[General]
AudioFilename: audio.mp3
AudioLeadIn: 500
PreviewTime: 2553
Countdown: 1
SampleSet: Soft
StackLeniency: 0.7
Mode: 0
LetterboxInBreaks: 0
WidescreenStoryboard: 0

[Editor]
Bookmarks: 8752,18934,30570,42206,53843,58206,65479,71297,77115,82934,94570,106206
DistanceSpacing: 1
BeatDivisor: 2
GridSize: 8
TimelineZoom: 1

[Metadata]
Title:Arcade Busters
TitleUnicode:Arcade Busters
Artist:cYsmix
ArtistUnicode:cYsmix
Creator:borborygmos
Version:Easy
Source:osu!
Tags:featured artist electronic video game videogame
BeatmapID:1271305
BeatmapSetID:601840

[Difficulty]
HPDrainRate:3
CircleSize:3
OverallDifficulty:3
ApproachRate:3
SliderMultiplier:0.9
SliderTickRate:1

[Events]
//Background and Video events
0,0,"CYsmix_bg.jpg",0,0
//Break Periods
2,54043,56766
2,65679,75675
//Storyboard Layer 0 (Background)
//Storyboard Layer 1 (Fail)
//Storyboard Layer 2 (Pass)
//Storyboard Layer 3 (Foreground)
//Storyboard Sound Samples

[TimingPoints]
25,363.636363636364,4,2,0,100,1,0
2934,-111.111111111111,4,2,0,30,0,0
8025,-111.111111111111,4,2,0,45,0,0
8752,-100,4,2,0,70,0,0
30570,-100,4,2,0,70,0,1
40752,-100,4,2,0,70,0,0
42206,-100,4,2,0,70,0,1
53843,-100,4,2,0,70,0,0
77115,-111.111111111111,4,2,0,30,0,0
81479,-100,4,2,0,70,0,0
82934,-100,4,2,0,70,0,1
93115,-100,4,2,0,70,0,0
94570,-100,4,2,0,70,0,1
106206,-100,4,2,0,70,0,0
109115,-100,4,2,0,5,0,0

[Colours]
Combo1 : 220,217,107
Combo2 : 237,92,198
Combo3 : 45,50,236

[HitObjects]
87,101,2934,6,0,B|130:103|163:79|163:79|198:108|236:113|236:113|271:86|319:82,1,242.999992584229,0|0,3:0|3:0,0:0:0:0:
387,61,4388,2,0,P|423:51|466:48,2,80.9999975280762,0|0|0,3:0|3:0|3:0,0:0:0:0:
310,84,5479,1,0,3:0:0:0:
284,161,5843,6,0,B|298:240|298:240|273:324,2,161.999995056152,2|0|2,0:0|3:0|0:0,0:0:0:0:
204,178,7661,1,2,0:0:0:0:
124,160,8025,1,2,3:2:0:0:
75,95,8388,1,4,3:0:0:0:
126,20,8752,6,0,B|170:47|209:14|209:14|251:20|261:55|261:55|299:59|339:35,1,225,2|4,0:0|3:0,0:0:0:0:
456,36,10206,2,0,B|429:80|462:119|462:119|456:161|421:171|421:171|417:209|441:249,1,225,2|2,0:0|0:1,0:0:0:0:
499,350,11661,6,0,B|414:320|414:320|354:356|354:356|265:318,1,225,2|0,0:0|1:0,0:0:0:0:
182,261,13115,2,0,B|143:287|114:320|114:320|85:316|52:326,1,135,2|0,0:0|0:0,0:0:0:0:
11,255,14025,2,0,L|37:108,1,135,2|2,1:0|0:0,0:0:0:0:
69,38,14934,5,6,0:1:0:0:
152,70,15297,2,0,B|216:82|279:55|327:6,1,180,6|4,0:0|3:0,0:0:0:0:
378,81,16388,2,0,L|374:140,1,45,4|4,3:0|3:0,0:0:0:0:
410,209,16934,2,0,B|428:257|428:257|419:299,1,90,4|4,3:0|0:0,0:0:0:0:
21,220,18934,6,0,B|46:182|57:139|57:139|108:141|172:113,1,180,2|4,0:0|3:0,0:0:0:0:
231,93,20025,1,0,1:0:0:0:
307,45,20388,2,0,B|332:83|343:126|343:126|394:124|458:152,1,180,2|4,0:0|3:0,0:0:0:0:
491,209,21479,1,2,0:0:0:0:
470,297,21843,5,2,0:0:0:0:
385,267,22206,2,0,B|342:252|342:252|259:282|259:282|215:266|215:266|174:283|174:283|124:265,1,270,0|2,1:0|0:0,0:0:0:0:
54,220,23661,1,0,1:0:0:0:
98,141,24025,2,0,P|117:87|116:52,1,90,4|2,3:0|1:0,0:0:0:0:
202,29,24752,6,0,B|241:43|276:80|276:80|314:58|358:49,1,180,2|4,0:0|3:0,0:0:0:0:
439,89,25843,1,0,1:0:0:0:
481,168,26206,2,0,B|441:182|406:219|406:219|368:197|324:188,1,180,2|0,0:0|1:0,0:0:0:0:
248,236,27297,1,2,0:0:0:0:
158,272,27661,5,2,0:0:0:0:
77,232,28025,2,0,B|63:214|43:204|43:204|30:157|38:114|38:114|80:130|80:130|124:115|124:115|173:133,1,270,0|2,1:0|0:0,0:0:0:0:
231,190,29479,1,2,0:0:0:0:
317,162,29843,2,0,L|409:169,1,90,0|2,1:0|1:0,0:0:0:0:
466,236,30570,6,0,B|430:265|406:302|406:302|363:286|309:285,1,180,4|2,3:0|3:1,0:0:0:0:
228,280,31661,1,2,1:2:0:0:
140,303,32025,2,0,B|106:275|61:261|61:261|39:221|85:168|79:120|55:79,1,270,4|0,3:0|1:0,0:0:0:0:
103,7,33479,6,0,B|144:28|172:64|172:64|206:34|257:25,1,180,2|2,3:2|3:1,0:0:0:0:
342,30,34570,1,2,1:0:0:0:
431,35,34934,2,0,B|442:78|442:78|424:120|424:120|447:158|447:158|421:219,1,180,2|2,3:1|3:1,0:0:0:0:
394,283,36025,1,0,1:0:0:0:
305,265,36388,6,0,B|225:306|225:306|159:243,2,180,2|2|2,3:2|3:1|3:1,0:0:0:0:
406,116,38570,1,2,3:1:0:0:
355,41,38934,1,2,1:0:0:0:
265,48,39297,6,0,B|217:52|179:74|179:74|143:47|85:33,1,180,2|4,3:2|3:0,0:0:0:0:
23,86,40388,1,0,1:0:0:0:
3,174,40752,2,0,B|4:264|4:264|62:225|62:225|109:264|109:264|187:246,1,270,2|0,2:0|3:0,0:0:0:0:
200,174,42206,6,0,B|279:131|279:131|354:196,1,180,4|2,3:0|3:1,0:0:0:0:
414,250,43297,1,0,1:0:0:0:
370,330,43661,2,0,B|324:338|291:373|291:373|263:331|231:304|190:279|134:288,1,270,2|0,3:2|1:0,0:0:0:0:
55,297,45115,6,0,L|63:193,1,90,2|2,3:2|1:1,0:0:0:0:
133,152,45843,2,0,L|125:48,1,90,2|2,3:1|1:1,0:0:0:0:
44,23,46570,2,0,B|84:44|84:44|125:28|125:28|166:48|166:48|208:31|208:31|304:74,1,270,2|0,3:1|1:0,0:0:0:0:
375,31,48025,6,0,B|405:75|438:94|438:94|428:139|439:198,1,180,2|2,3:2|3:1,0:0:0:0:
458,270,49115,1,2,1:0:0:0:
403,342,49479,2,0,P|316:332|220:329,1,180,2|2,3:1|3:1,0:0:0:0:
134,342,50570,1,2,1:0:0:0:
71,277,50934,5,2,3:1:0:0:
256,192,51297,12,4,53843,2:0:0:0:
188,39,58206,6,0,B|266:89|266:89|336:38|336:38|412:89,1,270,4|0,3:0|3:0,0:0:0:0:
478,149,59661,6,0,P|475:199|440:245,1,90,2|0,3:2|1:0,0:0:0:0:
372,268,60388,2,0,L|185:278,1,180,2|0,3:1|3:0,0:0:0:0:
110,316,61479,1,2,1:2:0:0:
42,256,61843,2,0,P|32:217|36:152,1,90,2|2,3:2|1:2,0:0:0:0:
97,104,62570,6,0,L|201:116,1,90,2|0,3:1|1:0,0:0:0:0:
257,169,63297,2,0,L|346:158,1,90,2|0,3:1|1:0,0:0:0:0:
420,106,64025,2,0,B|401:46|332:17|279:20|217:42|168:24,1,270,2|0,3:1|1:0,0:0:0:0:
93,8,65479,5,2,3:0:0:0:
23,77,77115,6,0,P|98:111|130:186,1,161.999995056153,4|0,0:0|1:0,0:0:0:0:
126,342,78570,2,0,B|171:345|202:319|202:319|236:349|284:357,1,161.999995056153,4|0,3:0|1:0,0:0:0:0:
437,350,80025,6,0,P|461:298|396:207,1,161.999995056153,4|0,3:0|1:0,0:0:0:0:
330,53,81479,1,2,0:0:0:0:
250,95,81843,1,2,1:2:0:0:
164,68,82206,2,0,P|114:63|61:85,1,90,2|0,0:1|0:0,0:0:0:0:
30,152,82934,6,0,B|71:173|99:209|99:209|140:186|193:186,1,180,4|2,3:0|3:1,0:0:0:0:
273,199,84025,1,2,1:2:0:0:
360,176,84388,2,0,P|405:178|452:192,2,90,4|2|2,3:0|1:0|1:0,0:0:0:0:
293,115,85479,1,0,1:0:0:0:
252,34,85843,6,0,B|212:55|183:91|183:91|159:53|112:37|112:37|94:90|50:110,1,270,2|2,3:2|1:1,0:0:0:0:
15,184,87297,1,2,3:1:0:0:
69,255,87661,1,2,1:0:0:0:
158,248,88025,2,0,L|263:267,1,90,2|2,3:1|1:0,0:0:0:0:
318,317,88752,6,0,B|354:288|403:289|403:289|365:259|337:229|337:229|384:224|434:193,1,270,2|2,3:2|1:0,0:0:0:0:
479,131,90206,2,0,P|470:91|424:49,1,90,2|0,3:1|1:1,0:0:0:0:
356,16,90934,1,2,3:1:0:0:
275,56,91297,1,2,1:0:0:0:
189,28,91661,6,0,P|115:61|97:169,1,180,2|0,3:1|3:0,0:0:0:0:
134,327,93115,2,0,B|221:302|221:302|284:326|284:326|347:303|347:303|418:333,1,270,2|2,0:0|1:2,0:0:0:0:
463,270,94570,6,0,B|426:243|403:204|403:204|359:217|306:209,1,180,4|2,3:0|3:1,0:0:0:0:
223,201,95661,1,0,1:0:0:0:
138,231,96025,2,0,L|36:216,1,90,2|2,3:1|1:0,0:0:0:0:
19,132,96752,2,0,L|121:117,1,90,2|2,3:1|1:0,0:0:0:0:
172,56,97479,6,0,B|231:125|231:125|299:69|299:69|363:138,1,270,2|2,3:1|1:0,0:0:0:0:
388,221,98934,1,2,3:1:0:0:
342,298,99297,1,2,1:0:0:0:
252,289,99661,2,0,P|208:294|142:304,1,90,2|2,3:1|1:0,0:0:0:0:
110,227,100388,6,0,B|164:154|164:154|235:205|235:205|294:131,1,270,2|2,3:1|1:0,0:0:0:0:
350,64,101843,1,2,3:1:0:0:
281,6,102206,1,2,1:1:0:0:
194,30,102570,2,0,P|150:25|84:15,1,90,2|2,3:1|1:0,0:0:0:0:
24,59,103297,6,0,P|80:135|131:330,1,270,2|2,3:1|1:0,0:0:0:0:
214,339,104752,2,0,B|245:317|297:351|297:351|332:347|342:304|342:304|374:316|394:343|394:343|444:326,1,270,2|4,0:0|2:0,0:0:0:0:
256,192,106206,12,0,109115,0:0:0:0:
