osu file format v14

[General]
AudioFilename: audio.mp3
AudioLeadIn: 0
PreviewTime: -1
Countdown: 1
SampleSet: None
StackLeniency: 0.7
Mode: 3
LetterboxInBreaks: 0
SpecialStyle: 0
WidescreenStoryboard: 0

[Editor]
DistanceSpacing: 0.5
BeatDivisor: 8
GridSize: 4
TimelineZoom: 1.7

[Metadata]
Title:Abandoned Shrine Party
TitleUnicode:Abandoned Shrine Party
Artist:cYsmix
ArtistUnicode:cYsmix
Creator:juankristal
Version:Stage 3: Outliers
Source:osu!
Tags:LN SOFT
BeatmapID:1981397
BeatmapSetID:948789

[Difficulty]
HPDrainRate:8
CircleSize:4
OverallDifficulty:7
ApproachRate:5
SliderMultiplier:1.4
SliderTickRate:1

[Events]
//Background and Video events
0,0,"halloween-holiday-castle-gates-wallpaper.png",0,0
//Break Periods
//Storyboard Layer 0 (Background)
//Storyboard Layer 1 (Fail)
//Storyboard Layer 2 (Pass)
//Storyboard Layer 3 (Foreground)
//Storyboard Sound Samples

[TimingPoints]
-20,468.75,4,2,0,100,1,0

[HitObjects]
320,192,14980,128,0,15155:0:0:0:0:
192,192,14980,128,0,15214:0:0:0:0:
64,192,14980,128,0,15331:0:0:0:0:
64,192,15448,128,0,15741:0:0:0:0:
192,192,15448,128,0,15624:0:0:0:0:
320,192,15448,128,0,15565:0:0:0:0:
448,192,15800,128,0,15917:0:0:0:0:
320,192,15800,128,0,15917:0:0:0:0:
64,192,15917,128,0,16269:0:0:0:0:
192,192,15917,128,0,16093:0:0:0:0:
448,192,16093,128,0,16269:0:0:0:0:
192,192,16269,128,0,16386:0:0:0:0:
320,192,16269,128,0,16327:0:0:0:0:
448,192,16386,128,0,16503:0:0:0:0:
64,192,16386,128,0,16620:0:0:0:0:
320,192,16620,128,0,16737:0:0:0:0:
192,192,16620,128,0,16855:0:0:0:0:
64,192,16855,128,0,17089:0:0:0:0:
448,192,16855,128,0,17030:0:0:0:0:
320,192,16855,128,0,17206:0:0:0:0:
64,192,17323,128,0,17480:0:0:0:0:
320,192,17323,128,0,17558:0:0:0:0:
448,192,17323,128,0,17636:0:0:0:0:
64,192,17675,128,0,17792:0:0:0:0:
192,192,17675,128,0,17968:0:0:0:0:
320,192,17792,128,0,17968:0:0:0:0:
448,192,17792,128,0,18144:0:0:0:0:
64,192,17968,128,0,18144:0:0:0:0:
192,192,18144,128,0,18202:0:0:0:0:
320,192,18144,128,0,18261:0:0:0:0:
64,192,18261,128,0,18437:0:0:0:0:
448,192,18261,128,0,18495:0:0:0:0:
448,192,18730,128,0,18964:0:0:0:0:
64,192,18730,128,0,18905:0:0:0:0:
192,192,18730,128,0,19081:0:0:0:0:
192,192,19198,128,0,19374:0:0:0:0:
64,192,19198,128,0,19491:0:0:0:0:
448,192,19198,128,0,19315:0:0:0:0:
448,192,19550,128,0,19784:0:0:0:0:
320,192,19550,128,0,19667:0:0:0:0:
64,192,19667,128,0,19784:0:0:0:0:
192,192,19784,128,0,19901:0:0:0:0:
448,192,19901,128,0,20019:0:0:0:0:
64,192,19960,128,0,20077:0:0:0:0:
448,192,20136,128,0,20312:0:0:0:0:
320,192,20194,128,0,20370:0:0:0:0:
64,192,20370,128,0,20605:0:0:0:0:
192,192,20429,128,0,20546:0:0:0:0:
448,192,20605,128,0,20956:0:0:0:0:
320,192,20605,128,0,20839:0:0:0:0:
192,192,20605,128,0,20780:0:0:0:0:
192,192,21073,128,0,21190:0:0:0:0:
320,192,21073,128,0,21249:0:0:0:0:
448,192,21073,128,0,21366:0:0:0:0:
64,192,21425,128,0,21542:0:0:0:0:
192,192,21425,128,0,21542:0:0:0:0:
448,192,21542,128,0,21659:0:0:0:0:
320,192,21542,128,0,21698:0:0:0:0:
320,192,21776,128,0,21933:0:0:0:0:
448,192,21776,128,0,22011:0:0:0:0:
64,192,22011,128,0,22245:0:0:0:0:
192,192,22011,128,0,22128:0:0:0:0:
448,192,22245,128,0,22362:0:0:0:0:
192,192,22245,128,0,22362:0:0:0:0:
448,192,22480,128,0,22714:0:0:0:0:
320,192,22480,128,0,22655:0:0:0:0:
192,192,22480,128,0,22831:0:0:0:0:
448,192,22948,128,0,23241:0:0:0:0:
320,192,22948,128,0,23183:0:0:0:0:
192,192,22948,128,0,23124:0:0:0:0:
192,192,23300,128,0,23417:0:0:0:0:
64,192,23300,128,0,23593:0:0:0:0:
448,192,23417,128,0,23769:0:0:0:0:
320,192,23417,128,0,23593:0:0:0:0:
192,192,23593,128,0,23769:0:0:0:0:
64,192,23769,128,0,23827:0:0:0:0:
320,192,23769,128,0,23886:0:0:0:0:
192,192,23886,128,0,24003:0:0:0:0:
448,192,23886,128,0,24120:0:0:0:0:
64,192,24120,128,0,24237:0:0:0:0:
320,192,24120,128,0,24355:0:0:0:0:
448,192,24355,128,0,24589:0:0:0:0:
64,192,24355,128,0,24511:0:0:0:0:
192,192,24355,128,0,24706:0:0:0:0:
448,192,24823,128,0,24980:0:0:0:0:
192,192,24823,128,0,25058:0:0:0:0:
64,192,24823,128,0,25136:0:0:0:0:
448,192,25175,128,0,25292:0:0:0:0:
320,192,25175,128,0,25468:0:0:0:0:
192,192,25292,128,0,25468:0:0:0:0:
64,192,25292,128,0,25644:0:0:0:0:
448,192,25468,128,0,25644:0:0:0:0:
192,192,25644,128,0,25702:0:0:0:0:
320,192,25644,128,0,25761:0:0:0:0:
448,192,25761,128,0,25937:0:0:0:0:
64,192,25761,128,0,25995:0:0:0:0:
64,192,26230,128,0,26464:0:0:0:0:
192,192,26230,128,0,26405:0:0:0:0:
448,192,26230,128,0,26581:0:0:0:0:
192,192,26698,128,0,26933:0:0:0:0:
448,192,26698,128,0,26991:0:0:0:0:
64,192,26698,128,0,26874:0:0:0:0:
64,192,27050,128,0,27284:0:0:0:0:
192,192,27050,128,0,27167:0:0:0:0:
448,192,27167,128,0,27284:0:0:0:0:
320,192,27284,128,0,27401:0:0:0:0:
64,192,27401,128,0,27519:0:0:0:0:
448,192,27460,128,0,27577:0:0:0:0:
64,192,27636,128,0,27812:0:0:0:0:
192,192,27694,128,0,27870:0:0:0:0:
448,192,27870,128,0,28105:0:0:0:0:
320,192,27929,128,0,28046:0:0:0:0:
64,192,28105,128,0,28456:0:0:0:0:
192,192,28105,128,0,28339:0:0:0:0:
320,192,28105,128,0,28280:0:0:0:0:
320,192,28573,128,0,28690:0:0:0:0:
192,192,28573,128,0,28749:0:0:0:0:
64,192,28573,128,0,28866:0:0:0:0:
448,192,28925,128,0,29042:0:0:0:0:
320,192,28925,128,0,29042:0:0:0:0:
64,192,29042,128,0,29159:0:0:0:0:
192,192,29042,128,0,29198:0:0:0:0:
192,192,29276,128,0,29433:0:0:0:0:
64,192,29276,128,0,29511:0:0:0:0:
448,192,29511,128,0,29745:0:0:0:0:
320,192,29511,128,0,29628:0:0:0:0:
64,192,29745,128,0,29862:0:0:0:0:
320,192,29745,128,0,29862:0:0:0:0:
448,192,29980,5,0,0:0:0:0:
64,192,29980,128,0,30331:0:0:0:0:
192,192,29980,128,0,30214:0:0:0:0:
320,192,30214,128,0,30331:0:0:0:0:
192,192,30448,1,0,0:0:0:0:
64,192,30448,128,0,30683:0:0:0:0:
448,192,30448,128,0,30565:0:0:0:0:
448,192,30683,1,0,0:0:0:0:
192,192,30800,128,0,30917:0:0:0:0:
320,192,30917,1,0,0:0:0:0:
448,192,30917,128,0,31151:0:0:0:0:
64,192,31093,128,0,31269:0:0:0:0:
192,192,31093,1,0,0:0:0:0:
448,192,31269,128,0,31386:0:0:0:0:
320,192,31386,1,0,0:0:0:0:
64,192,31386,128,0,31620:0:0:0:0:
448,192,31620,128,0,31737:0:0:0:0:
192,192,31679,128,0,31855:0:0:0:0:
320,192,31855,128,0,32030:0:0:0:0:
64,192,31855,128,0,32206:0:0:0:0:
448,192,31855,128,0,31972:0:0:0:0:
448,192,32089,1,0,0:0:0:0:
64,192,32323,128,0,32558:0:0:0:0:
192,192,32323,128,0,32440:0:0:0:0:
320,192,32323,128,0,32440:0:0:0:0:
448,192,32558,1,0,0:0:0:0:
192,192,32675,128,0,32792:0:0:0:0:
320,192,32792,1,0,0:0:0:0:
448,192,32792,128,0,33026:0:0:0:0:
64,192,32968,128,0,33144:0:0:0:0:
192,192,32968,1,0,0:0:0:0:
320,192,33144,128,0,33261:0:0:0:0:
64,192,33261,128,0,33495:0:0:0:0:
448,192,33261,128,0,33378:0:0:0:0:
192,192,33261,1,0,0:0:0:0:
448,192,33495,128,0,33612:0:0:0:0:
320,192,33495,128,0,33730:0:0:0:0:
64,192,33730,128,0,33905:0:0:0:0:
192,192,33730,128,0,34081:0:0:0:0:
448,192,33730,1,0,0:0:0:0:
448,192,33964,1,0,0:0:0:0:
320,192,34198,1,0,0:0:0:0:
448,192,34198,128,0,34433:0:0:0:0:
64,192,34198,128,0,34315:0:0:0:0:
320,192,34433,1,0,0:0:0:0:
192,192,34433,128,0,34667:0:0:0:0:
64,192,34550,128,0,34667:0:0:0:0:
448,192,34667,128,0,34901:0:0:0:0:
320,192,34667,1,0,0:0:0:0:
192,192,34784,128,0,34901:0:0:0:0:
64,192,34901,128,0,35077:0:0:0:0:
448,192,34960,128,0,35077:0:0:0:0:
64,192,35136,128,0,35312:0:0:0:0:
448,192,35194,128,0,35312:0:0:0:0:
64,192,35370,128,0,35605:0:0:0:0:
320,192,35429,128,0,35605:0:0:0:0:
448,192,35605,128,0,35956:0:0:0:0:
192,192,35605,128,0,35839:0:0:0:0:
64,192,35839,1,0,0:0:0:0:
320,192,36073,128,0,36249:0:0:0:0:
64,192,36073,128,0,36308:0:0:0:0:
192,192,36073,128,0,36190:0:0:0:0:
448,192,36308,1,0,0:0:0:0:
64,192,36425,128,0,36542:0:0:0:0:
320,192,36542,128,0,36718:0:0:0:0:
192,192,36542,128,0,36659:0:0:0:0:
64,192,36776,128,0,37011:0:0:0:0:
320,192,36776,128,0,36894:0:0:0:0:
320,192,37011,128,0,37245:0:0:0:0:
448,192,37011,128,0,37187:0:0:0:0:
64,192,37245,128,0,37480:0:0:0:0:
192,192,37245,128,0,37362:0:0:0:0:
320,192,37480,128,0,37714:0:0:0:0:
448,192,37480,128,0,37831:0:0:0:0:
192,192,37480,1,0,0:0:0:0:
320,192,37948,1,0,0:0:0:0:
448,192,37948,128,0,38183:0:0:0:0:
192,192,37948,128,0,38065:0:0:0:0:
64,192,38183,1,0,0:0:0:0:
192,192,38300,128,0,38417:0:0:0:0:
448,192,38417,1,0,0:0:0:0:
320,192,38417,128,0,38593:0:0:0:0:
64,192,38593,128,0,38827:0:0:0:0:
192,192,38593,1,0,0:0:0:0:
448,192,38769,128,0,38886:0:0:0:0:
320,192,38886,1,0,0:0:0:0:
192,192,38886,128,0,39062:0:0:0:0:
320,192,39120,128,0,39237:0:0:0:0:
192,192,39179,128,0,39355:0:0:0:0:
448,192,39355,128,0,39706:0:0:0:0:
320,192,39355,1,0,0:0:0:0:
64,192,39355,128,0,39589:0:0:0:0:
64,192,39823,128,0,40058:0:0:0:0:
192,192,39823,128,0,39940:0:0:0:0:
448,192,39823,128,0,39940:0:0:0:0:
320,192,40058,1,0,0:0:0:0:
448,192,40175,128,0,40292:0:0:0:0:
192,192,40292,1,0,0:0:0:0:
64,192,40292,128,0,40468:0:0:0:0:
320,192,40468,128,0,40644:0:0:0:0:
448,192,40468,1,0,0:0:0:0:
192,192,40644,128,0,40761:0:0:0:0:
64,192,40761,1,0,0:0:0:0:
320,192,40761,128,0,40995:0:0:0:0:
64,192,40995,128,0,41171:0:0:0:0:
448,192,40995,128,0,41112:0:0:0:0:
192,192,41230,1,0,0:0:0:0:
320,192,41230,128,0,41464:0:0:0:0:
448,192,41230,128,0,41581:0:0:0:0:
192,192,41698,1,0,0:0:0:0:
64,192,41698,128,0,41933:0:0:0:0:
448,192,41698,128,0,41815:0:0:0:0:
320,192,41933,128,0,42050:0:0:0:0:
192,192,42050,128,0,42167:0:0:0:0:
448,192,42167,1,0,0:0:0:0:
64,192,42167,128,0,42284:0:0:0:0:
320,192,42284,128,0,42401:0:0:0:0:
448,192,42401,128,0,42577:0:0:0:0:
192,192,42460,128,0,42577:0:0:0:0:
448,192,42636,128,0,42812:0:0:0:0:
192,192,42694,128,0,42812:0:0:0:0:
448,192,42870,128,0,43105:0:0:0:0:
64,192,42929,128,0,43105:0:0:0:0:
192,192,43105,128,0,43456:0:0:0:0:
320,192,43105,128,0,43456:0:0:0:0:
64,192,43573,128,0,44042:0:0:0:0:
448,192,43573,128,0,44042:0:0:0:0:
192,192,43808,5,0,0:0:0:0:
320,192,43925,128,0,44042:0:0:0:0:
192,192,44042,128,0,44218:0:0:0:0:
192,192,44276,128,0,44511:0:0:0:0:
448,192,44276,128,0,44452:0:0:0:0:
320,192,44511,128,0,44745:0:0:0:0:
64,192,44511,128,0,44687:0:0:0:0:
448,192,44745,128,0,44980:0:0:0:0:
192,192,44745,128,0,44921:0:0:0:0:
320,192,44980,128,0,45448:0:0:0:0:
64,192,44980,1,0,0:0:0:0:
64,192,45214,1,0,0:0:0:0:
192,192,45448,128,0,45917:0:0:0:0:
320,192,45683,1,0,0:0:0:0:
448,192,45917,128,0,46386:0:0:0:0:
320,192,45917,1,0,0:0:0:0:
320,192,46386,128,0,46855:0:0:0:0:
64,192,46386,1,0,0:0:0:0:
64,192,46620,1,0,0:0:0:0:
192,192,46855,128,0,47323:0:0:0:0:
448,192,47089,1,0,0:0:0:0:
64,192,47323,128,0,47792:0:0:0:0:
320,192,47323,1,0,0:0:0:0:
448,192,47792,128,0,48261:0:0:0:0:
320,192,47792,1,0,0:0:0:0:
320,192,48026,1,0,0:0:0:0:
192,192,48261,128,0,48730:0:0:0:0:
64,192,48261,1,0,0:0:0:0:
64,192,48495,1,0,0:0:0:0:
320,192,48730,128,0,49667:0:0:0:0:
448,192,48730,1,0,0:0:0:0:
448,192,48964,1,0,0:0:0:0:
192,192,49433,1,0,0:0:0:0:
448,192,49667,128,0,50605:0:0:0:0:
192,192,49667,1,0,0:0:0:0:
64,192,50136,1,0,0:0:0:0:
64,192,50370,1,0,0:0:0:0:
64,192,50605,128,0,51542:0:0:0:0:
320,192,50839,1,0,0:0:0:0:
448,192,51073,1,0,0:0:0:0:
192,192,51308,1,0,0:0:0:0:
448,192,51542,128,0,52480:0:0:0:0:
320,192,51542,1,0,0:0:0:0:
64,192,51776,1,0,0:0:0:0:
192,192,52011,128,0,52480:0:0:0:0:
320,192,52011,1,0,0:0:0:0:
320,192,52245,1,0,0:0:0:0:
320,192,52480,128,0,54355:0:0:0:0:
64,192,52480,1,0,0:0:0:0:
64,192,52714,1,0,0:0:0:0:
192,192,53183,1,0,0:0:0:0:
192,192,53417,1,0,0:0:0:0:
64,192,53886,1,0,0:0:0:0:
64,192,54120,1,0,0:0:0:0:
448,192,54355,128,0,56230:0:0:0:0:
320,192,54589,1,0,0:0:0:0:
320,192,55292,1,0,0:0:0:0:
192,192,55526,1,0,0:0:0:0:
64,192,55761,1,0,0:0:0:0:
320,192,55995,1,0,0:0:0:0:
192,192,56230,128,0,58105:0:0:0:0:
64,192,56230,1,0,0:0:0:0:
64,192,56464,1,0,0:0:0:0:
448,192,56933,1,0,0:0:0:0:
448,192,57167,1,0,0:0:0:0:
320,192,57636,1,0,0:0:0:0:
320,192,57870,1,0,0:0:0:0:
448,192,58339,1,0,0:0:0:0:
320,192,58573,1,0,0:0:0:0:
192,192,58808,1,0,0:0:0:0:
64,192,59042,1,0,0:0:0:0:
320,192,59276,1,0,0:0:0:0:
448,192,59276,128,0,59433:0:0:0:0:
64,192,59511,1,0,0:0:0:0:
448,192,59511,128,0,59745:0:0:0:0:
192,192,59745,128,0,59901:0:0:0:0:
320,192,59823,128,0,59980:0:0:0:0:
64,192,59980,128,0,60214:0:0:0:0:
192,192,59980,128,0,60292:0:0:0:0:
448,192,59980,128,0,60370:0:0:0:0:
448,192,60448,128,0,60683:0:0:0:0:
192,192,60448,128,0,60565:0:0:0:0:
320,192,60448,128,0,60624:0:0:0:0:
64,192,60683,128,0,60800:0:0:0:0:
320,192,60761,128,0,60917:0:0:0:0:
192,192,60917,128,0,61093:0:0:0:0:
64,192,60917,128,0,61151:0:0:0:0:
448,192,60917,128,0,60976:0:0:0:0:
320,192,61151,128,0,61386:0:0:0:0:
192,192,61269,128,0,61386:0:0:0:0:
64,192,61386,128,0,61542:0:0:0:0:
448,192,61386,128,0,61620:0:0:0:0:
192,192,61503,128,0,61620:0:0:0:0:
320,192,61620,128,0,61796:0:0:0:0:
64,192,61620,128,0,61855:0:0:0:0:
448,192,61855,128,0,62206:0:0:0:0:
192,192,61855,128,0,62206:0:0:0:0:
320,192,61855,128,0,62089:0:0:0:0:
64,192,62206,128,0,62440:0:0:0:0:
320,192,62206,128,0,62265:0:0:0:0:
192,192,62323,128,0,62440:0:0:0:0:
448,192,62323,128,0,62558:0:0:0:0:
320,192,62323,128,0,62440:0:0:0:0:
64,192,62558,128,0,62675:0:0:0:0:
192,192,62558,128,0,62792:0:0:0:0:
320,192,62558,128,0,62675:0:0:0:0:
64,192,62792,128,0,63026:0:0:0:0:
448,192,62792,128,0,63026:0:0:0:0:
320,192,62792,128,0,62909:0:0:0:0:
320,192,63026,128,0,63144:0:0:0:0:
192,192,63085,128,0,63202:0:0:0:0:
64,192,63261,128,0,63495:0:0:0:0:
448,192,63261,1,0,0:0:0:0:
320,192,63319,128,0,63495:0:0:0:0:
192,192,63378,128,0,63495:0:0:0:0:
448,192,63495,128,0,63671:0:0:0:0:
192,192,63612,128,0,63730:0:0:0:0:
320,192,63730,128,0,63847:0:0:0:0:
64,192,63730,128,0,63788:0:0:0:0:
192,192,63886,128,0,63964:0:0:0:0:
448,192,63886,128,0,64042:0:0:0:0:
320,192,64042,128,0,64198:0:0:0:0:
64,192,64042,128,0,64120:0:0:0:0:
448,192,64198,128,0,64257:0:0:0:0:
192,192,64198,128,0,64315:0:0:0:0:
320,192,64355,128,0,64433:0:0:0:0:
64,192,64355,128,0,64433:0:0:0:0:
192,192,64511,128,0,64589:0:0:0:0:
320,192,64511,128,0,64589:0:0:0:0:
64,192,64667,128,0,64784:0:0:0:0:
448,192,64667,128,0,64784:0:0:0:0:
448,192,64823,128,0,64940:0:0:0:0:
64,192,64823,128,0,64940:0:0:0:0:
64,192,64980,128,0,65097:0:0:0:0:
448,192,64980,128,0,65097:0:0:0:0:
320,192,65136,128,0,65605:0:0:0:0:
192,192,65136,128,0,65526:0:0:0:0:
448,192,65605,128,0,65839:0:0:0:0:
64,192,65605,128,0,65780:0:0:0:0:
192,192,65605,1,0,0:0:0:0:
192,192,65839,128,0,66073:0:0:0:0:
320,192,65839,128,0,65956:0:0:0:0:
64,192,65839,1,0,0:0:0:0:
448,192,66073,128,0,66230:0:0:0:0:
320,192,66073,128,0,66230:0:0:0:0:
64,192,66073,1,0,0:0:0:0:
320,192,66308,128,0,66483:0:0:0:0:
448,192,66308,128,0,66483:0:0:0:0:
192,192,66308,1,0,0:0:0:0:
64,192,66542,128,0,66776:0:0:0:0:
320,192,66542,128,0,66718:0:0:0:0:
192,192,66542,1,0,0:0:0:0:
192,192,66776,128,0,66933:0:0:0:0:
448,192,66776,128,0,66933:0:0:0:0:
320,192,66776,1,0,0:0:0:0:
192,192,67011,1,0,0:0:0:0:
64,192,67011,1,0,0:0:0:0:
320,192,67128,128,0,67187:0:0:0:0:
448,192,67128,128,0,67187:0:0:0:0:
64,192,67362,128,0,67421:0:0:0:0:
192,192,67362,128,0,67421:0:0:0:0:
192,192,67480,128,0,67714:0:0:0:0:
320,192,67480,128,0,67831:0:0:0:0:
448,192,67480,128,0,67948:0:0:0:0:
320,192,67948,128,0,68183:0:0:0:0:
192,192,67948,128,0,68065:0:0:0:0:
64,192,67948,128,0,68124:0:0:0:0:
192,192,68183,128,0,68300:0:0:0:0:
320,192,68261,128,0,68417:0:0:0:0:
192,192,68417,128,0,68593:0:0:0:0:
448,192,68417,128,0,68651:0:0:0:0:
64,192,68417,128,0,68476:0:0:0:0:
320,192,68651,128,0,68886:0:0:0:0:
64,192,68769,128,0,68886:0:0:0:0:
192,192,68886,128,0,69042:0:0:0:0:
448,192,68886,128,0,69120:0:0:0:0:
64,192,69003,128,0,69120:0:0:0:0:
320,192,69120,128,0,69296:0:0:0:0:
192,192,69120,128,0,69355:0:0:0:0:
448,192,69355,128,0,69706:0:0:0:0:
64,192,69355,128,0,69706:0:0:0:0:
320,192,69355,128,0,69589:0:0:0:0:
192,192,69706,128,0,69940:0:0:0:0:
320,192,69706,128,0,69765:0:0:0:0:
64,192,69823,128,0,69940:0:0:0:0:
448,192,69823,128,0,70058:0:0:0:0:
320,192,69823,128,0,69940:0:0:0:0:
64,192,70058,128,0,70175:0:0:0:0:
320,192,70058,128,0,70292:0:0:0:0:
192,192,70058,128,0,70175:0:0:0:0:
64,192,70292,128,0,70526:0:0:0:0:
448,192,70292,128,0,70526:0:0:0:0:
192,192,70292,128,0,70409:0:0:0:0:
320,192,70526,128,0,70644:0:0:0:0:
192,192,70585,128,0,70702:0:0:0:0:
448,192,70761,128,0,70995:0:0:0:0:
64,192,70761,1,0,0:0:0:0:
320,192,70819,128,0,70995:0:0:0:0:
192,192,70878,128,0,70995:0:0:0:0:
64,192,70995,128,0,71171:0:0:0:0:
448,192,71112,128,0,71230:0:0:0:0:
320,192,71230,128,0,71347:0:0:0:0:
192,192,71230,128,0,71308:0:0:0:0:
448,192,71386,128,0,71542:0:0:0:0:
64,192,71386,128,0,71464:0:0:0:0:
192,192,71542,128,0,71620:0:0:0:0:
320,192,71542,128,0,71698:0:0:0:0:
448,192,71698,128,0,71757:0:0:0:0:
64,192,71698,128,0,71855:0:0:0:0:
448,192,71855,128,0,71933:0:0:0:0:
192,192,71855,128,0,71933:0:0:0:0:
192,192,72011,128,0,72089:0:0:0:0:
320,192,72011,128,0,72089:0:0:0:0:
64,192,72167,128,0,72284:0:0:0:0:
448,192,72167,128,0,72284:0:0:0:0:
448,192,72323,128,0,72440:0:0:0:0:
64,192,72323,128,0,72440:0:0:0:0:
64,192,72480,128,0,72597:0:0:0:0:
448,192,72480,128,0,72597:0:0:0:0:
320,192,72636,128,0,73105:0:0:0:0:
192,192,72636,128,0,73105:0:0:0:0:
64,192,73105,128,0,73339:0:0:0:0:
448,192,73105,128,0,73280:0:0:0:0:
448,192,73339,128,0,73573:0:0:0:0:
192,192,73339,128,0,73573:0:0:0:0:
64,192,73573,128,0,73749:0:0:0:0:
320,192,73573,128,0,73690:0:0:0:0:
448,192,73690,128,0,73866:0:0:0:0:
192,192,73690,128,0,73808:0:0:0:0:
64,192,73808,128,0,73983:0:0:0:0:
320,192,73808,128,0,73925:0:0:0:0:
448,192,73925,128,0,74042:0:0:0:0:
192,192,73925,128,0,74042:0:0:0:0:
64,192,74042,128,0,74276:0:0:0:0:
320,192,74042,128,0,74218:0:0:0:0:
192,192,74276,128,0,74511:0:0:0:0:
320,192,74276,128,0,74452:0:0:0:0:
448,192,74511,128,0,74921:0:0:0:0:
64,192,74511,128,0,74980:0:0:0:0:
192,192,74980,128,0,75331:0:0:0:0:
320,192,74980,128,0,75214:0:0:0:0:
448,192,74980,128,0,75448:0:0:0:0:
64,192,75214,128,0,75331:0:0:0:0:
64,192,75448,128,0,75624:0:0:0:0:
192,192,75448,128,0,75624:0:0:0:0:
320,192,75448,128,0,75683:0:0:0:0:
448,192,75683,128,0,75800:0:0:0:0:
64,192,75800,128,0,75917:0:0:0:0:
448,192,75917,128,0,76093:0:0:0:0:
320,192,75917,128,0,76151:0:0:0:0:
192,192,75917,128,0,76034:0:0:0:0:
64,192,76151,128,0,76269:0:0:0:0:
448,192,76151,128,0,76269:0:0:0:0:
320,192,76269,128,0,76386:0:0:0:0:
192,192,76386,128,0,76503:0:0:0:0:
64,192,76386,128,0,76562:0:0:0:0:
320,192,76503,128,0,76620:0:0:0:0:
448,192,76503,128,0,76620:0:0:0:0:
64,192,76620,128,0,76855:0:0:0:0:
192,192,76679,128,0,76737:0:0:0:0:
448,192,76855,128,0,77265:0:0:0:0:
320,192,76855,128,0,77265:0:0:0:0:
192,192,76855,128,0,77147:0:0:0:0:
64,192,77206,128,0,77499:0:0:0:0:
192,192,77206,128,0,77499:0:0:0:0:
320,192,77323,128,0,77733:0:0:0:0:
448,192,77323,128,0,77733:0:0:0:0:
64,192,77558,128,0,77968:0:0:0:0:
192,192,77558,128,0,77733:0:0:0:0:
192,192,77792,128,0,77968:0:0:0:0:
448,192,77792,128,0,78026:0:0:0:0:
320,192,77792,128,0,78026:0:0:0:0:
64,192,78026,128,0,78261:0:0:0:0:
192,192,78026,128,0,78261:0:0:0:0:
320,192,78261,128,0,78378:0:0:0:0:
448,192,78378,128,0,78495:0:0:0:0:
320,192,78495,128,0,78612:0:0:0:0:
64,192,78495,1,0,0:0:0:0:
448,192,78612,128,0,78730:0:0:0:0:
64,192,78730,128,0,78808:0:0:0:0:
192,192,78730,128,0,78808:0:0:0:0:
64,192,78886,128,0,78964:0:0:0:0:
320,192,78886,128,0,78964:0:0:0:0:
448,192,79042,128,0,79120:0:0:0:0:
192,192,79042,128,0,79120:0:0:0:0:
64,192,79198,128,0,79276:0:0:0:0:
320,192,79198,128,0,79276:0:0:0:0:
192,192,79355,128,0,79433:0:0:0:0:
320,192,79355,128,0,79433:0:0:0:0:
448,192,79511,128,0,79589:0:0:0:0:
64,192,79511,128,0,79589:0:0:0:0:
192,192,79667,128,0,79823:0:0:0:0:
320,192,79667,128,0,79745:0:0:0:0:
320,192,79823,128,0,79901:0:0:0:0:
448,192,79823,128,0,79901:0:0:0:0:
320,192,79980,128,0,80136:0:0:0:0:
448,192,79980,128,0,80136:0:0:0:0:
64,192,80136,128,0,80214:0:0:0:0:
192,192,80136,128,0,80292:0:0:0:0:
320,192,80292,128,0,80448:0:0:0:0:
448,192,80292,128,0,80370:0:0:0:0:
448,192,80448,128,0,80605:0:0:0:0:
64,192,80448,128,0,80526:0:0:0:0:
64,192,80605,128,0,81073:0:0:0:0:
192,192,80605,128,0,80956:0:0:0:0:
320,192,80605,128,0,80839:0:0:0:0:
448,192,81073,128,0,81542:0:0:0:0:
320,192,81073,128,0,81425:0:0:0:0:
192,192,81073,128,0,81308:0:0:0:0:
64,192,81542,128,0,81776:0:0:0:0:
192,192,81542,128,0,81776:0:0:0:0:
320,192,81659,128,0,81894:0:0:0:0:
448,192,81776,128,0,81894:0:0:0:0:
192,192,81894,128,0,82011:0:0:0:0:
64,192,82011,128,0,82362:0:0:0:0:
320,192,82011,128,0,82245:0:0:0:0:
448,192,82011,128,0,82480:0:0:0:0:
64,192,82480,128,0,82948:0:0:0:0:
320,192,82480,128,0,82714:0:0:0:0:
192,192,82480,128,0,82831:0:0:0:0:
448,192,82714,128,0,82831:0:0:0:0:
448,192,82948,128,0,83183:0:0:0:0:
320,192,82948,128,0,83124:0:0:0:0:
192,192,82948,128,0,83124:0:0:0:0:
64,192,83183,128,0,83300:0:0:0:0:
192,192,83300,128,0,83417:0:0:0:0:
64,192,83417,128,0,83534:0:0:0:0:
320,192,83417,128,0,83651:0:0:0:0:
448,192,83417,128,0,83593:0:0:0:0:
448,192,83651,128,0,83769:0:0:0:0:
64,192,83651,128,0,83769:0:0:0:0:
320,192,83769,128,0,83886:0:0:0:0:
448,192,83886,128,0,84062:0:0:0:0:
64,192,83886,128,0,84003:0:0:0:0:
320,192,84003,128,0,84120:0:0:0:0:
192,192,84003,128,0,84120:0:0:0:0:
448,192,84120,128,0,84355:0:0:0:0:
64,192,84179,128,0,84237:0:0:0:0:
64,192,84355,128,0,84765:0:0:0:0:
192,192,84355,128,0,84765:0:0:0:0:
320,192,84355,128,0,84647:0:0:0:0:
448,192,84706,128,0,84999:0:0:0:0:
320,192,84706,128,0,84999:0:0:0:0:
192,192,84823,128,0,85233:0:0:0:0:
64,192,84823,128,0,85233:0:0:0:0:
448,192,85058,128,0,85468:0:0:0:0:
320,192,85058,128,0,85233:0:0:0:0:
320,192,85292,128,0,85468:0:0:0:0:
64,192,85292,128,0,85526:0:0:0:0:
192,192,85292,128,0,85526:0:0:0:0:
448,192,85526,128,0,85761:0:0:0:0:
320,192,85526,128,0,85761:0:0:0:0:
64,192,85761,128,0,85878:0:0:0:0:
192,192,85878,128,0,85995:0:0:0:0:
64,192,85995,128,0,86112:0:0:0:0:
192,192,86112,128,0,86230:0:0:0:0:
448,192,86230,128,0,86347:0:0:0:0:
320,192,86230,128,0,86288:0:0:0:0:
64,192,86386,128,0,86464:0:0:0:0:
192,192,86386,128,0,86464:0:0:0:0:
320,192,86542,128,0,86620:0:0:0:0:
64,192,86542,128,0,86620:0:0:0:0:
192,192,86698,128,0,86776:0:0:0:0:
320,192,86698,128,0,86776:0:0:0:0:
64,192,86855,128,0,86933:0:0:0:0:
448,192,86855,128,0,86933:0:0:0:0:
64,192,87011,128,0,87089:0:0:0:0:
448,192,87011,128,0,87089:0:0:0:0:
448,192,87167,128,0,87245:0:0:0:0:
320,192,87167,128,0,87245:0:0:0:0:
192,192,87323,128,0,87401:0:0:0:0:
64,192,87323,128,0,87401:0:0:0:0:
64,192,87480,128,0,87558:0:0:0:0:
192,192,87480,128,0,87558:0:0:0:0:
320,192,87636,128,0,87714:0:0:0:0:
448,192,87636,128,0,87792:0:0:0:0:
192,192,87792,128,0,87870:0:0:0:0:
320,192,87792,128,0,87948:0:0:0:0:
64,192,87948,128,0,88026:0:0:0:0:
448,192,87948,128,0,88105:0:0:0:0:
192,192,88105,128,0,88183:0:0:0:0:
64,192,88105,128,0,88261:0:0:0:0:
64,192,88339,128,0,88573:0:0:0:0:
448,192,88339,128,0,88573:0:0:0:0:
320,192,88573,128,0,88749:0:0:0:0:
192,192,88573,128,0,88690:0:0:0:0:
64,192,88690,128,0,88808:0:0:0:0:
448,192,88690,128,0,88808:0:0:0:0:
192,192,88808,128,0,88925:0:0:0:0:
320,192,88808,128,0,88983:0:0:0:0:
448,192,88925,128,0,89042:0:0:0:0:
64,192,88925,128,0,89042:0:0:0:0:
320,192,89042,128,0,89218:0:0:0:0:
192,192,89042,128,0,89159:0:0:0:0:
64,192,89276,128,0,89452:0:0:0:0:
192,192,89276,128,0,89452:0:0:0:0:
64,192,89511,128,0,89687:0:0:0:0:
320,192,89511,128,0,89687:0:0:0:0:
64,192,89745,128,0,89980:0:0:0:0:
448,192,89745,128,0,89980:0:0:0:0:
320,192,89980,128,0,90448:0:0:0:0:
192,192,90448,128,0,90917:0:0:0:0:
320,192,90683,128,0,90917:0:0:0:0:
448,192,90800,128,0,90917:0:0:0:0:
64,192,90917,128,0,91386:0:0:0:0:
448,192,91151,128,0,91269:0:0:0:0:
320,192,91269,128,0,91386:0:0:0:0:
448,192,91386,128,0,91503:0:0:0:0:
320,192,91503,128,0,91620:0:0:0:0:
192,192,91620,128,0,91855:0:0:0:0:
64,192,91855,128,0,92206:0:0:0:0:
448,192,91855,128,0,92206:0:0:0:0:
192,192,92206,128,0,92323:0:0:0:0:
64,192,92323,128,0,92558:0:0:0:0:
448,192,92323,128,0,92558:0:0:0:0:
320,192,92558,128,0,92792:0:0:0:0:
192,192,92558,128,0,92792:0:0:0:0:
64,192,92792,128,0,93261:0:0:0:0:
448,192,92792,128,0,93495:0:0:0:0:
320,192,93026,1,0,0:0:0:0:
192,192,93261,128,0,93495:0:0:0:0:
320,192,93495,1,0,0:0:0:0:
64,192,93730,128,0,94198:0:0:0:0:
448,192,93730,1,0,0:0:0:0:
192,192,93886,128,0,94198:0:0:0:0:
448,192,94042,128,0,94198:0:0:0:0:
320,192,94198,128,0,94276:0:0:0:0:
320,192,94355,128,0,94433:0:0:0:0:
320,192,94511,128,0,94589:0:0:0:0:
64,192,94667,128,0,94745:0:0:0:0:
64,192,94823,128,0,94901:0:0:0:0:
64,192,94980,128,0,95058:0:0:0:0:
448,192,95136,128,0,95253:0:0:0:0:
448,192,95448,128,0,95526:0:0:0:0:
192,192,95605,128,0,96073:0:0:0:0:
320,192,95839,128,0,96073:0:0:0:0:
448,192,96073,128,0,96190:0:0:0:0:
64,192,96190,128,0,96308:0:0:0:0:
448,192,96308,128,0,96425:0:0:0:0:
192,192,96425,128,0,96542:0:0:0:0:
320,192,96542,128,0,96776:0:0:0:0:
192,192,96776,128,0,97011:0:0:0:0:
448,192,97011,128,0,97245:0:0:0:0:
320,192,97245,128,0,97480:0:0:0:0:
64,192,97480,128,0,97948:0:0:0:0:
448,192,97480,1,0,0:0:0:0:
192,192,97714,128,0,97948:0:0:0:0:
448,192,97948,128,0,98183:0:0:0:0:
320,192,97948,128,0,98065:0:0:0:0:
192,192,98183,128,0,98417:0:0:0:0:
448,192,98300,128,0,98417:0:0:0:0:
64,192,98417,128,0,98886:0:0:0:0:
320,192,98417,128,0,98651:0:0:0:0:
192,192,98651,128,0,98886:0:0:0:0:
448,192,98886,128,0,99120:0:0:0:0:
320,192,98886,128,0,99003:0:0:0:0:
64,192,99355,128,0,99823:0:0:0:0:
448,192,99355,1,0,0:0:0:0:
192,192,99589,128,0,99823:0:0:0:0:
448,192,99823,128,0,100058:0:0:0:0:
320,192,99823,128,0,99940:0:0:0:0:
192,192,100058,128,0,100292:0:0:0:0:
448,192,100175,128,0,100292:0:0:0:0:
320,192,100292,128,0,100526:0:0:0:0:
64,192,100292,128,0,100761:0:0:0:0:
192,192,100526,128,0,100761:0:0:0:0:
448,192,100761,128,0,100995:0:0:0:0:
320,192,100761,128,0,100878:0:0:0:0:
64,192,101230,128,0,101698:0:0:0:0:
448,192,101230,1,0,0:0:0:0:
192,192,101464,128,0,101698:0:0:0:0:
448,192,101698,128,0,101933:0:0:0:0:
320,192,101698,128,0,101815:0:0:0:0:
192,192,101933,128,0,102167:0:0:0:0:
448,192,102050,128,0,102167:0:0:0:0:
64,192,102167,128,0,102636:0:0:0:0:
320,192,102167,128,0,102401:0:0:0:0:
192,192,102401,128,0,102636:0:0:0:0:
448,192,102636,128,0,102870:0:0:0:0:
320,192,102636,128,0,102753:0:0:0:0:
64,192,103105,128,0,103573:0:0:0:0:
448,192,103105,1,0,0:0:0:0:
192,192,103339,128,0,103573:0:0:0:0:
448,192,103573,128,0,103808:0:0:0:0:
320,192,103573,128,0,103690:0:0:0:0:
192,192,103808,128,0,104042:0:0:0:0:
448,192,103925,128,0,104042:0:0:0:0:
320,192,104042,128,0,104276:0:0:0:0:
64,192,104042,128,0,104511:0:0:0:0:
192,192,104276,128,0,104511:0:0:0:0:
448,192,104511,128,0,104745:0:0:0:0:
320,192,104511,128,0,104628:0:0:0:0:
64,192,104980,128,0,105214:0:0:0:0:
448,192,104980,128,0,105214:0:0:0:0:
320,192,105214,128,0,105331:0:0:0:0:
192,192,105214,1,0,0:0:0:0:
64,192,105448,128,0,105683:0:0:0:0:
448,192,105448,128,0,105683:0:0:0:0:
320,192,105683,128,0,105800:0:0:0:0:
192,192,105683,1,0,0:0:0:0:
64,192,105917,128,0,106151:0:0:0:0:
448,192,105917,128,0,106151:0:0:0:0:
320,192,106151,128,0,106386:0:0:0:0:
192,192,106151,1,0,0:0:0:0:
448,192,106386,1,0,0:0:0:0:
64,192,106620,128,0,106737:0:0:0:0:
448,192,106620,1,0,0:0:0:0:
64,192,106855,128,0,107089:0:0:0:0:
448,192,106855,128,0,107089:0:0:0:0:
320,192,107089,128,0,107206:0:0:0:0:
192,192,107089,1,0,0:0:0:0:
64,192,107323,128,0,107558:0:0:0:0:
448,192,107323,128,0,107558:0:0:0:0:
320,192,107558,128,0,107675:0:0:0:0:
192,192,107558,1,0,0:0:0:0:
64,192,107792,128,0,108026:0:0:0:0:
448,192,107792,128,0,108026:0:0:0:0:
320,192,108026,128,0,108261:0:0:0:0:
192,192,108026,1,0,0:0:0:0:
448,192,108261,128,0,108495:0:0:0:0:
64,192,108261,1,0,0:0:0:0:
64,192,108495,128,0,108612:0:0:0:0:
320,192,108495,1,0,0:0:0:0:
64,192,108730,128,0,108964:0:0:0:0:
192,192,108730,128,0,108964:0:0:0:0:
320,192,108964,128,0,109081:0:0:0:0:
448,192,108964,1,0,0:0:0:0:
64,192,109198,128,0,109433:0:0:0:0:
192,192,109198,128,0,109433:0:0:0:0:
448,192,109433,128,0,109608:0:0:0:0:
320,192,109433,1,0,0:0:0:0:
320,192,109667,128,0,109901:0:0:0:0:
192,192,109667,128,0,109901:0:0:0:0:
64,192,109901,128,0,110136:0:0:0:0:
448,192,109901,1,0,0:0:0:0:
448,192,110136,128,0,110370:0:0:0:0:
192,192,110136,128,0,110370:0:0:0:0:
320,192,110370,128,0,110546:0:0:0:0:
64,192,110370,1,0,0:0:0:0:
192,192,110605,128,0,110761:0:0:0:0:
320,192,110605,128,0,110761:0:0:0:0:
64,192,110761,128,0,110917:0:0:0:0:
448,192,110761,128,0,110917:0:0:0:0:
192,192,110917,128,0,110995:0:0:0:0:
320,192,110917,128,0,110995:0:0:0:0:
448,192,111073,128,0,111151:0:0:0:0:
64,192,111073,128,0,111151:0:0:0:0:
448,192,111230,128,0,111308:0:0:0:0:
64,192,111230,128,0,111308:0:0:0:0:
320,192,111386,128,0,111464:0:0:0:0:
448,192,111386,128,0,111464:0:0:0:0:
64,192,111542,128,0,111620:0:0:0:0:
192,192,111542,128,0,111620:0:0:0:0:
64,192,111698,128,0,111776:0:0:0:0:
192,192,111698,128,0,111776:0:0:0:0:
64,192,111855,128,0,111933:0:0:0:0:
192,192,111855,128,0,111933:0:0:0:0:
320,192,112011,128,0,112480:0:0:0:0:
448,192,112011,128,0,112480:0:0:0:0:
64,192,112480,128,0,112655:0:0:0:0:
192,192,112480,1,0,0:0:0:0:
320,192,112831,1,0,0:0:0:0:
64,192,112948,128,0,113124:0:0:0:0:
448,192,112948,1,0,0:0:0:0:
192,192,113065,1,0,0:0:0:0:
320,192,113183,1,0,0:0:0:0:
192,192,113300,128,0,113417:0:0:0:0:
64,192,113417,128,0,113476:0:0:0:0:
448,192,113417,1,0,0:0:0:0:
192,192,113593,128,0,113651:0:0:0:0:
448,192,113769,128,0,113827:0:0:0:0:
320,192,113886,128,0,114120:0:0:0:0:
192,192,113886,1,0,0:0:0:0:
64,192,114120,128,0,114355:0:0:0:0:
448,192,114120,128,0,114355:0:0:0:0:
192,192,114355,128,0,114530:0:0:0:0:
320,192,114706,1,0,0:0:0:0:
192,192,114823,128,0,114999:0:0:0:0:
448,192,114823,1,0,0:0:0:0:
64,192,114940,1,0,0:0:0:0:
320,192,115058,1,0,0:0:0:0:
448,192,115175,128,0,115292:0:0:0:0:
64,192,115292,128,0,115351:0:0:0:0:
320,192,115292,1,0,0:0:0:0:
192,192,115468,128,0,115526:0:0:0:0:
448,192,115644,128,0,115702:0:0:0:0:
320,192,115761,128,0,115937:0:0:0:0:
192,192,115761,1,0,0:0:0:0:
64,192,116230,128,0,116405:0:0:0:0:
448,192,116230,1,0,0:0:0:0:
320,192,116347,1,0,0:0:0:0:
192,192,116464,1,0,0:0:0:0:
64,192,116698,128,0,116874:0:0:0:0:
320,192,116698,1,0,0:0:0:0:
448,192,116815,1,0,0:0:0:0:
320,192,116933,1,0,0:0:0:0:
192,192,117050,128,0,117167:0:0:0:0:
64,192,117167,128,0,117284:0:0:0:0:
448,192,117167,1,0,0:0:0:0:
320,192,117284,128,0,117401:0:0:0:0:
64,192,117401,128,0,117519:0:0:0:0:
192,192,117401,128,0,117519:0:0:0:0:
320,192,117519,128,0,117636:0:0:0:0:
448,192,117519,128,0,117636:0:0:0:0:
64,192,117636,128,0,117714:0:0:0:0:
192,192,117636,128,0,117714:0:0:0:0:
320,192,117792,128,0,117870:0:0:0:0:
448,192,117792,128,0,117870:0:0:0:0:
320,192,117948,128,0,118026:0:0:0:0:
448,192,117948,128,0,118026:0:0:0:0:
192,192,118105,128,0,118280:0:0:0:0:
64,192,118105,1,0,0:0:0:0:
320,192,118222,128,0,118339:0:0:0:0:
448,192,118339,1,0,0:0:0:0:
64,192,118573,128,0,118749:0:0:0:0:
448,192,118573,1,0,0:0:0:0:
320,192,118690,128,0,118808:0:0:0:0:
192,192,118808,128,0,118866:0:0:0:0:
64,192,118925,128,0,118983:0:0:0:0:
448,192,119042,128,0,119218:0:0:0:0:
320,192,119042,1,0,0:0:0:0:
192,192,119159,128,0,119218:0:0:0:0:
320,192,119276,128,0,119394:0:0:0:0:
64,192,119511,128,0,119687:0:0:0:0:
192,192,119511,1,0,0:0:0:0:
448,192,119745,128,0,119921:0:0:0:0:
320,192,119745,1,0,0:0:0:0:
64,192,119980,128,0,120214:0:0:0:0:
192,192,119980,1,0,0:0:0:0:
448,192,120097,1,0,0:0:0:0:
320,192,120214,1,0,0:0:0:0:
64,192,120448,128,0,120683:0:0:0:0:
192,192,120448,1,0,0:0:0:0:
448,192,120565,1,0,0:0:0:0:
320,192,120683,1,0,0:0:0:0:
192,192,120800,128,0,120917:0:0:0:0:
64,192,120917,128,0,120976:0:0:0:0:
448,192,120917,1,0,0:0:0:0:
192,192,121093,128,0,121151:0:0:0:0:
448,192,121269,128,0,121327:0:0:0:0:
320,192,121386,128,0,121620:0:0:0:0:
64,192,121386,1,0,0:0:0:0:
64,192,121620,128,0,121855:0:0:0:0:
448,192,121620,128,0,121855:0:0:0:0:
192,192,121855,128,0,122089:0:0:0:0:
320,192,121972,1,0,0:0:0:0:
448,192,122089,1,0,0:0:0:0:
192,192,122323,128,0,122558:0:0:0:0:
64,192,122323,1,0,0:0:0:0:
320,192,122440,1,0,0:0:0:0:
448,192,122558,1,0,0:0:0:0:
320,192,122675,128,0,122792:0:0:0:0:
448,192,122792,128,0,122851:0:0:0:0:
64,192,122792,1,0,0:0:0:0:
192,192,122968,128,0,123026:0:0:0:0:
448,192,123144,128,0,123202:0:0:0:0:
320,192,123261,128,0,123495:0:0:0:0:
64,192,123261,1,0,0:0:0:0:
192,192,123730,128,0,123964:0:0:0:0:
64,192,123730,1,0,0:0:0:0:
320,192,123847,128,0,123964:0:0:0:0:
448,192,123964,1,0,0:0:0:0:
64,192,124198,128,0,124433:0:0:0:0:
192,192,124198,1,0,0:0:0:0:
448,192,124315,128,0,124433:0:0:0:0:
320,192,124433,128,0,124667:0:0:0:0:
192,192,124550,128,0,124667:0:0:0:0:
64,192,124667,128,0,124901:0:0:0:0:
448,192,124784,128,0,124901:0:0:0:0:
192,192,124901,128,0,125019:0:0:0:0:
320,192,124901,128,0,124960:0:0:0:0:
64,192,125019,128,0,125136:0:0:0:0:
448,192,125019,128,0,125136:0:0:0:0:
192,192,125136,128,0,125214:0:0:0:0:
320,192,125136,128,0,125214:0:0:0:0:
64,192,125292,128,0,125370:0:0:0:0:
448,192,125292,128,0,125370:0:0:0:0:
64,192,125448,128,0,125526:0:0:0:0:
448,192,125448,128,0,125526:0:0:0:0:
320,192,125605,128,0,125780:0:0:0:0:
192,192,125605,1,0,0:0:0:0:
448,192,125722,1,0,0:0:0:0:
192,192,125839,1,0,0:0:0:0:
320,192,126073,128,0,126249:0:0:0:0:
448,192,126073,1,0,0:0:0:0:
64,192,126190,128,0,126308:0:0:0:0:
192,192,126308,128,0,126366:0:0:0:0:
448,192,126425,128,0,126483:0:0:0:0:
320,192,126542,128,0,126718:0:0:0:0:
64,192,126542,1,0,0:0:0:0:
192,192,126659,128,0,126718:0:0:0:0:
64,192,126776,128,0,126952:0:0:0:0:
320,192,127011,128,0,127245:0:0:0:0:
448,192,127011,1,0,0:0:0:0:
64,192,127245,128,0,127480:0:0:0:0:
192,192,127245,1,0,0:0:0:0:
448,192,127480,128,0,127714:0:0:0:0:
320,192,127480,1,0,0:0:0:0:
192,192,127597,1,0,0:0:0:0:
64,192,127714,1,0,0:0:0:0:
448,192,127948,128,0,128183:0:0:0:0:
192,192,127948,1,0,0:0:0:0:
64,192,128065,1,0,0:0:0:0:
320,192,128183,1,0,0:0:0:0:
64,192,128300,128,0,128417:0:0:0:0:
192,192,128300,1,0,0:0:0:0:
320,192,128417,128,0,128534:0:0:0:0:
448,192,128417,1,0,0:0:0:0:
64,192,128593,128,0,128710:0:0:0:0:
192,192,128593,1,0,0:0:0:0:
448,192,128769,128,0,128886:0:0:0:0:
320,192,128769,1,0,0:0:0:0:
64,192,128886,128,0,129120:0:0:0:0:
192,192,128886,1,0,0:0:0:0:
192,192,129120,128,0,129355:0:0:0:0:
320,192,129120,128,0,129296:0:0:0:0:
64,192,129355,128,0,129589:0:0:0:0:
320,192,129355,128,0,129589:0:0:0:0:
448,192,129472,1,0,0:0:0:0:
192,192,129589,1,0,0:0:0:0:
64,192,129823,128,0,130058:0:0:0:0:
320,192,129823,128,0,130058:0:0:0:0:
192,192,129940,1,0,0:0:0:0:
448,192,130058,1,0,0:0:0:0:
192,192,130175,128,0,130292:0:0:0:0:
64,192,130175,1,0,0:0:0:0:
320,192,130292,128,0,130409:0:0:0:0:
448,192,130292,1,0,0:0:0:0:
192,192,130468,128,0,130585:0:0:0:0:
64,192,130468,1,0,0:0:0:0:
448,192,130644,128,0,130761:0:0:0:0:
320,192,130644,1,0,0:0:0:0:
192,192,130761,128,0,130878:0:0:0:0:
64,192,130761,1,0,0:0:0:0:
448,192,131230,128,0,131464:0:0:0:0:
320,192,131230,128,0,131464:0:0:0:0:
64,192,131347,1,0,0:0:0:0:
192,192,131464,1,0,0:0:0:0:
448,192,131698,128,0,131933:0:0:0:0:
320,192,131698,128,0,131933:0:0:0:0:
64,192,131815,1,0,0:0:0:0:
192,192,131933,1,0,0:0:0:0:
64,192,132050,128,0,132167:0:0:0:0:
320,192,132167,128,0,132284:0:0:0:0:
448,192,132167,1,0,0:0:0:0:
64,192,132284,128,0,132401:0:0:0:0:
192,192,132401,128,0,132519:0:0:0:0:
320,192,132401,128,0,132519:0:0:0:0:
448,192,132519,128,0,132636:0:0:0:0:
64,192,132519,128,0,132577:0:0:0:0:
320,192,132636,128,0,132714:0:0:0:0:
192,192,132636,128,0,132714:0:0:0:0:
64,192,132792,128,0,132870:0:0:0:0:
448,192,132792,128,0,132870:0:0:0:0:
192,192,132948,128,0,133026:0:0:0:0:
320,192,132948,128,0,133026:0:0:0:0:
64,192,133105,128,0,133339:0:0:0:0:
448,192,133105,128,0,133456:0:0:0:0:
320,192,133222,1,0,0:0:0:0:
192,192,133339,1,0,0:0:0:0:
64,192,133573,128,0,133808:0:0:0:0:
448,192,133573,128,0,133925:0:0:0:0:
192,192,133690,1,0,0:0:0:0:
320,192,133808,1,0,0:0:0:0:
192,192,133925,128,0,134042:0:0:0:0:
320,192,134042,128,0,134159:0:0:0:0:
448,192,134042,1,0,0:0:0:0:
192,192,134276,128,0,134511:0:0:0:0:
448,192,134276,1,0,0:0:0:0:
320,192,134511,128,0,134745:0:0:0:0:
64,192,134511,1,0,0:0:0:0:
448,192,134745,128,0,134980:0:0:0:0:
192,192,134745,1,0,0:0:0:0:
64,192,134980,128,0,135331:0:0:0:0:
192,192,134980,128,0,135214:0:0:0:0:
448,192,135097,1,0,0:0:0:0:
320,192,135214,1,0,0:0:0:0:
448,192,135331,1,0,0:0:0:0:
64,192,135448,128,0,135800:0:0:0:0:
192,192,135448,128,0,135683:0:0:0:0:
448,192,135565,1,0,0:0:0:0:
320,192,135683,1,0,0:0:0:0:
448,192,135800,128,0,135917:0:0:0:0:
192,192,135800,1,0,0:0:0:0:
320,192,135917,128,0,136093:0:0:0:0:
64,192,135917,1,0,0:0:0:0:
64,192,136093,128,0,136269:0:0:0:0:
448,192,136093,1,0,0:0:0:0:
192,192,136269,128,0,136386:0:0:0:0:
320,192,136269,1,0,0:0:0:0:
448,192,136386,128,0,136620:0:0:0:0:
64,192,136386,1,0,0:0:0:0:
192,192,136620,128,0,136796:0:0:0:0:
320,192,136679,128,0,136855:0:0:0:0:
64,192,136855,128,0,137206:0:0:0:0:
192,192,136855,128,0,137089:0:0:0:0:
448,192,136855,1,0,0:0:0:0:
64,192,137323,128,0,137558:0:0:0:0:
192,192,137323,128,0,137499:0:0:0:0:
448,192,137323,1,0,0:0:0:0:
320,192,137675,128,0,137792:0:0:0:0:
192,192,137675,1,0,0:0:0:0:
64,192,137792,128,0,137968:0:0:0:0:
448,192,137792,1,0,0:0:0:0:
448,192,137968,128,0,138144:0:0:0:0:
192,192,137968,1,0,0:0:0:0:
64,192,138144,128,0,138261:0:0:0:0:
192,192,138144,1,0,0:0:0:0:
320,192,138261,128,0,138437:0:0:0:0:
448,192,138261,1,0,0:0:0:0:
192,192,138730,128,0,138905:0:0:0:0:
320,192,138730,128,0,139081:0:0:0:0:
64,192,138730,1,0,0:0:0:0:
448,192,138964,1,0,0:0:0:0:
64,192,139081,1,0,0:0:0:0:
192,192,139198,128,0,139433:0:0:0:0:
320,192,139198,128,0,139374:0:0:0:0:
448,192,139198,1,0,0:0:0:0:
64,192,139315,1,0,0:0:0:0:
448,192,139433,1,0,0:0:0:0:
192,192,139550,128,0,139667:0:0:0:0:
320,192,139667,128,0,139784:0:0:0:0:
448,192,139784,128,0,139901:0:0:0:0:
64,192,139901,128,0,140077:0:0:0:0:
192,192,139901,128,0,140019:0:0:0:0:
448,192,140019,128,0,140136:0:0:0:0:
320,192,140019,128,0,140077:0:0:0:0:
64,192,140136,128,0,140214:0:0:0:0:
192,192,140136,128,0,140214:0:0:0:0:
192,192,140292,128,0,140370:0:0:0:0:
320,192,140292,128,0,140370:0:0:0:0:
64,192,140448,128,0,140526:0:0:0:0:
448,192,140448,128,0,140526:0:0:0:0:
448,192,140605,128,0,141073:0:0:0:0:
320,192,140605,128,0,140839:0:0:0:0:
64,192,140839,128,0,141073:0:0:0:0:
192,192,140839,128,0,140956:0:0:0:0:
192,192,141073,128,0,141190:0:0:0:0:
320,192,141073,128,0,141249:0:0:0:0:
448,192,141190,128,0,141308:0:0:0:0:
64,192,141190,128,0,141366:0:0:0:0:
192,192,141308,128,0,141425:0:0:0:0:
320,192,141308,128,0,141483:0:0:0:0:
64,192,141425,128,0,141601:0:0:0:0:
448,192,141425,128,0,141601:0:0:0:0:
192,192,141542,128,0,141718:0:0:0:0:
320,192,141542,128,0,141718:0:0:0:0:
448,192,141776,128,0,141952:0:0:0:0:
192,192,141776,128,0,141952:0:0:0:0:
448,192,142011,128,0,142187:0:0:0:0:
64,192,142011,128,0,142187:0:0:0:0:
320,192,142245,128,0,142480:0:0:0:0:
192,192,142245,128,0,142480:0:0:0:0:
64,192,142480,128,0,142948:0:0:0:0:
448,192,142480,1,0,0:0:0:0:
320,192,142831,1,0,0:0:0:0:
192,192,142948,128,0,143417:0:0:0:0:
448,192,142948,1,0,0:0:0:0:
64,192,143183,1,0,0:0:0:0:
320,192,143417,128,0,143886:0:0:0:0:
448,192,143417,1,0,0:0:0:0:
64,192,143534,1,0,0:0:0:0:
448,192,143886,1,0,0:0:0:0:
192,192,143886,128,0,144355:0:0:0:0:
320,192,144120,1,0,0:0:0:0:
64,192,144237,1,0,0:0:0:0:
448,192,144355,128,0,144823:0:0:0:0:
320,192,144355,1,0,0:0:0:0:
64,192,144472,1,0,0:0:0:0:
320,192,144823,128,0,145292:0:0:0:0:
192,192,144823,1,0,0:0:0:0:
64,192,145175,1,0,0:0:0:0:
192,192,145292,128,0,145761:0:0:0:0:
448,192,145292,1,0,0:0:0:0:
320,192,145526,1,0,0:0:0:0:
64,192,145761,128,0,146230:0:0:0:0:
448,192,145761,1,0,0:0:0:0:
320,192,145878,1,0,0:0:0:0:
320,192,146112,1,0,0:0:0:0:
192,192,146230,128,0,147987:0:0:0:0:
448,192,146230,1,0,0:0:0:0:
448,192,146581,1,0,0:0:0:0:
64,192,146698,1,0,0:0:0:0:
448,192,146933,1,0,0:0:0:0:
448,192,147167,128,0,148105:0:0:0:0:
64,192,147167,1,0,0:0:0:0:
320,192,147284,1,0,0:0:0:0:
64,192,147636,1,0,0:0:0:0:
320,192,147870,1,0,0:0:0:0:
64,192,147987,1,0,0:0:0:0:
320,192,148105,128,0,149980:0:0:0:0:
192,192,148105,1,0,0:0:0:0:
448,192,148222,1,0,0:0:0:0:
192,192,148573,1,0,0:0:0:0:
192,192,148925,1,0,0:0:0:0:
448,192,149042,128,0,149511:0:0:0:0:
64,192,149042,1,0,0:0:0:0:
192,192,149276,1,0,0:0:0:0:
192,192,149511,128,0,149862:0:0:0:0:
64,192,149511,1,0,0:0:0:0:
448,192,149628,1,0,0:0:0:0:
448,192,149862,1,0,0:0:0:0:
64,192,149980,128,0,153730:0:0:0:0:
192,192,149980,1,0,0:0:0:0:
448,192,150214,1,0,0:0:0:0:
320,192,150331,1,0,0:0:0:0:
192,192,150448,1,0,0:0:0:0:
320,192,150683,1,0,0:0:0:0:
448,192,150683,1,0,0:0:0:0:
320,192,150917,1,0,0:0:0:0:
448,192,151034,1,0,0:0:0:0:
192,192,151151,1,0,0:0:0:0:
192,192,151386,1,0,0:0:0:0:
320,192,151386,1,0,0:0:0:0:
192,192,151620,1,0,0:0:0:0:
320,192,151620,1,0,0:0:0:0:
448,192,151737,1,0,0:0:0:0:
192,192,151855,1,0,0:0:0:0:
448,192,151972,1,0,0:0:0:0:
320,192,152089,1,0,0:0:0:0:
448,192,152323,1,0,0:0:0:0:
192,192,152558,1,0,0:0:0:0:
320,192,152675,1,0,0:0:0:0:
448,192,152792,1,0,0:0:0:0:
320,192,153026,1,0,0:0:0:0:
192,192,153261,1,0,0:0:0:0:
448,192,153378,1,0,0:0:0:0:
320,192,153495,1,0,0:0:0:0:
448,192,153612,1,0,0:0:0:0:
192,192,153730,1,0,0:0:0:0:
320,192,153730,1,0,0:0:0:0:
64,192,153847,1,0,0:0:0:0:
192,192,153964,1,0,0:0:0:0:
448,192,154081,1,0,0:0:0:0:
64,192,154198,1,0,0:0:0:0:
320,192,154198,1,0,0:0:0:0:
192,192,154315,1,0,0:0:0:0:
320,192,154433,1,0,0:0:0:0:
64,192,154550,1,0,0:0:0:0:
320,192,154667,1,0,0:0:0:0:
192,192,154667,1,0,0:0:0:0:
448,192,154784,1,0,0:0:0:0:
192,192,154901,1,0,0:0:0:0:
320,192,155019,1,0,0:0:0:0:
64,192,155136,1,0,0:0:0:0:
192,192,155136,1,0,0:0:0:0:
448,192,155253,1,0,0:0:0:0:
64,192,155370,1,0,0:0:0:0:
192,192,155487,1,0,0:0:0:0:
320,192,155605,1,0,0:0:0:0:
448,192,155605,1,0,0:0:0:0:
64,192,155722,1,0,0:0:0:0:
448,192,155839,1,0,0:0:0:0:
320,192,155956,1,0,0:0:0:0:
64,192,156073,1,0,0:0:0:0:
448,192,156073,1,0,0:0:0:0:
192,192,156190,1,0,0:0:0:0:
448,192,156308,1,0,0:0:0:0:
192,192,156542,1,0,0:0:0:0:
64,192,157011,128,0,157480:0:0:0:0:
448,192,157011,128,0,157480:0:0:0:0:
192,192,157480,1,0,0:0:0:0:
320,192,157480,1,0,0:0:0:0:
