osu file format v14

[General]
AudioFilename: audio.mp3
AudioLeadIn: 0
PreviewTime: -1
Countdown: 0
SampleSet: Soft
StackLeniency: 0.7
Mode: 3
LetterboxInBreaks: 0
SpecialStyle: 0
WidescreenStoryboard: 1

[Editor]
DistanceSpacing: 0.6
BeatDivisor: 4
GridSize: 16
TimelineZoom: 2.899999

[Metadata]
Title:mqlo
TitleUnicode:mqlo
Artist:c show
ArtistUnicode:c show
Creator:Onta_Sama
Version:maq lo
Source:
Tags:
BeatmapID:2099703
BeatmapSetID:1003072

[Difficulty]
HPDrainRate:9
CircleSize:4
OverallDifficulty:9
ApproachRate:5
SliderMultiplier:1.4
SliderTickRate:1

[Events]
//Background and Video events
0,0,"1920x1080-4512755-red-eyes-long-hair-anime-anime-girls-black-hair.jpg",0,0
//Break Periods
//Storyboard Layer 0 (Background)
//Storyboard Layer 1 (Fail)
//Storyboard Layer 2 (Pass)
//Storyboard Layer 3 (Foreground)
//Storyboard Sound Samples

[TimingPoints]
1925,272.727272727273,4,2,1,21,1,0

[HitObjects]
64,192,1925,5,0,0:0:0:0:
320,192,1925,1,0,0:0:0:0:
448,192,1925,1,0,0:0:0:0:
64,192,2334,1,0,0:0:0:0:
320,192,2334,1,0,0:0:0:0:
448,192,2334,1,0,0:0:0:0:
64,192,2743,1,0,0:0:0:0:
192,192,2743,1,0,0:0:0:0:
448,192,2743,1,0,0:0:0:0:
192,192,3152,1,0,0:0:0:0:
64,192,3152,1,0,0:0:0:0:
448,192,3152,1,0,0:0:0:0:
192,192,3288,1,0,0:0:0:0:
320,192,3288,1,0,0:0:0:0:
448,192,3356,1,0,0:0:0:0:
192,192,3425,1,0,0:0:0:0:
64,192,3425,1,0,0:0:0:0:
64,192,3561,1,0,0:0:0:0:
320,192,3561,1,0,0:0:0:0:
448,192,3561,1,0,0:0:0:0:
192,192,3697,1,0,0:0:0:0:
320,192,3765,1,0,0:0:0:0:
448,192,3765,1,0,0:0:0:0:
64,192,3834,1,0,0:0:0:0:
192,192,3834,1,0,0:0:0:0:
448,192,3902,1,0,0:0:0:0:
320,192,3902,1,0,0:0:0:0:
64,192,3970,1,0,0:0:0:0:
192,192,3970,1,0,0:0:0:0:
64,192,4106,1,0,0:0:0:0:
320,192,4106,1,0,0:0:0:0:
448,192,4106,1,0,0:0:0:0:
64,192,4515,1,0,0:0:0:0:
320,192,4515,1,0,0:0:0:0:
448,192,4515,1,0,0:0:0:0:
192,192,4925,1,0,0:0:0:0:
320,192,4925,1,0,0:0:0:0:
448,192,4925,1,0,0:0:0:0:
192,192,5334,1,0,0:0:0:0:
320,192,5334,1,0,0:0:0:0:
448,192,5334,1,0,0:0:0:0:
64,192,5743,1,0,0:0:0:0:
192,192,5811,1,0,0:0:0:0:
64,192,5879,1,0,0:0:0:0:
192,192,5947,1,0,0:0:0:0:
320,192,6015,128,0,6288:0:0:0:0:
192,192,6288,1,0,0:0:0:0:
448,192,6288,1,0,0:0:0:0:
64,192,6288,1,0,0:0:0:0:
192,192,6697,1,0,0:0:0:0:
448,192,6697,1,0,0:0:0:0:
64,192,6697,1,0,0:0:0:0:
192,192,7106,1,0,0:0:0:0:
320,192,7106,1,0,0:0:0:0:
448,192,7106,1,0,0:0:0:0:
192,192,7515,1,0,0:0:0:0:
320,192,7515,1,0,0:0:0:0:
448,192,7515,1,0,0:0:0:0:
320,192,7652,128,0,7720:0:0:0:0:
448,192,7652,128,0,7720:0:0:0:0:
192,192,7788,128,0,7856:0:0:0:0:
64,192,7788,128,0,7856:0:0:0:0:
64,192,7925,128,0,7993:0:0:0:0:
448,192,7925,128,0,7993:0:0:0:0:
64,192,8061,128,0,8129:0:0:0:0:
320,192,8061,128,0,8129:0:0:0:0:
64,192,8197,128,0,8265:0:0:0:0:
192,192,8197,128,0,8265:0:0:0:0:
64,192,8334,128,0,8402:0:0:0:0:
192,192,8334,128,0,8402:0:0:0:0:
192,192,8470,1,0,0:0:0:0:
64,192,8470,1,0,0:0:0:0:
448,192,8470,1,0,0:0:0:0:
192,192,8879,1,0,0:0:0:0:
64,192,8879,1,0,0:0:0:0:
448,192,8879,1,0,0:0:0:0:
320,192,9288,1,0,0:0:0:0:
64,192,9288,1,0,0:0:0:0:
448,192,9288,1,0,0:0:0:0:
320,192,9697,1,0,0:0:0:0:
448,192,9697,1,0,0:0:0:0:
64,192,9697,1,0,0:0:0:0:
192,192,10106,1,0,0:0:0:0:
448,192,10175,1,0,0:0:0:0:
192,192,10243,1,0,0:0:0:0:
448,192,10311,1,0,0:0:0:0:
192,192,10379,128,0,10652:0:0:0:0:
448,192,10652,1,0,0:0:0:0:
320,192,10652,1,0,0:0:0:0:
64,192,10652,1,0,0:0:0:0:
192,192,11061,1,0,0:0:0:0:
448,192,11197,1,0,0:0:0:0:
64,192,11197,1,0,0:0:0:0:
192,192,11470,1,0,0:0:0:0:
448,192,11606,1,0,0:0:0:0:
64,192,11606,1,0,0:0:0:0:
192,192,11879,1,0,0:0:0:0:
448,192,12015,1,0,0:0:0:0:
64,192,12015,1,0,0:0:0:0:
320,192,12288,128,0,12834:0:0:0:0:
192,192,12834,1,0,0:0:0:0:
64,192,12834,1,0,0:0:0:0:
448,192,12834,1,0,0:0:0:0:
320,192,13243,1,0,0:0:0:0:
64,192,13379,1,0,0:0:0:0:
448,192,13379,1,0,0:0:0:0:
320,192,13652,1,0,0:0:0:0:
64,192,13788,1,0,0:0:0:0:
448,192,13788,1,0,0:0:0:0:
320,192,14061,1,0,0:0:0:0:
64,192,14197,1,0,0:0:0:0:
448,192,14197,1,0,0:0:0:0:
320,192,14743,128,0,14811:0:0:0:0:
192,192,14743,128,0,14795:0:0:0:0:
192,192,14811,1,0,0:0:0:0:
320,192,15015,1,0,0:0:0:0:
448,192,15015,1,0,0:0:0:0:
64,192,15015,1,0,0:0:0:0:
320,192,15152,1,0,0:0:0:0:
448,192,15152,1,0,0:0:0:0:
64,192,15152,1,0,0:0:0:0:
320,192,15288,1,0,0:0:0:0:
192,192,15425,1,0,0:0:0:0:
64,192,15425,1,0,0:0:0:0:
448,192,15425,1,0,0:0:0:0:
64,192,15561,1,0,0:0:0:0:
192,192,15561,1,0,0:0:0:0:
448,192,15561,1,0,0:0:0:0:
64,192,15697,1,0,0:0:0:0:
192,192,15834,1,0,0:0:0:0:
320,192,15834,1,0,0:0:0:0:
448,192,15834,1,0,0:0:0:0:
192,192,15970,1,0,0:0:0:0:
320,192,15970,1,0,0:0:0:0:
448,192,15970,1,0,0:0:0:0:
448,192,16106,1,0,0:0:0:0:
320,192,16243,1,0,0:0:0:0:
192,192,16243,1,0,0:0:0:0:
64,192,16243,1,0,0:0:0:0:
64,192,16379,1,0,0:0:0:0:
192,192,16379,1,0,0:0:0:0:
320,192,16379,1,0,0:0:0:0:
320,192,16515,1,0,0:0:0:0:
448,192,16515,1,0,0:0:0:0:
64,192,16652,1,0,0:0:0:0:
192,192,16720,1,0,0:0:0:0:
320,192,16788,1,0,0:0:0:0:
448,192,16788,1,0,0:0:0:0:
64,192,16856,1,0,0:0:0:0:
192,192,16925,1,0,0:0:0:0:
320,192,16993,1,0,0:0:0:0:
448,192,17061,1,0,0:0:0:0:
320,192,17129,1,0,0:0:0:0:
192,192,17197,1,0,0:0:0:0:
64,192,17197,1,0,0:0:0:0:
448,192,17197,1,0,0:0:0:0:
192,192,17470,1,0,0:0:0:0:
64,192,17470,1,0,0:0:0:0:
320,192,17606,1,0,0:0:0:0:
448,192,17606,1,0,0:0:0:0:
64,192,17606,1,0,0:0:0:0:
320,192,17743,1,0,0:0:0:0:
448,192,17743,1,0,0:0:0:0:
64,192,17743,1,0,0:0:0:0:
192,192,17879,1,0,0:0:0:0:
448,192,17879,1,0,0:0:0:0:
320,192,18015,1,0,0:0:0:0:
192,192,18015,1,0,0:0:0:0:
64,192,18015,1,0,0:0:0:0:
64,192,18152,1,0,0:0:0:0:
192,192,18152,1,0,0:0:0:0:
320,192,18152,1,0,0:0:0:0:
64,192,18288,1,0,0:0:0:0:
448,192,18288,1,0,0:0:0:0:
192,192,18425,1,0,0:0:0:0:
320,192,18425,1,0,0:0:0:0:
448,192,18425,1,0,0:0:0:0:
192,192,18561,1,0,0:0:0:0:
320,192,18561,1,0,0:0:0:0:
448,192,18561,1,0,0:0:0:0:
64,192,18629,1,0,0:0:0:0:
320,192,18697,1,0,0:0:0:0:
448,192,18697,1,0,0:0:0:0:
64,192,18834,1,0,0:0:0:0:
192,192,18834,1,0,0:0:0:0:
320,192,18902,1,0,0:0:0:0:
192,192,18970,1,0,0:0:0:0:
64,192,18970,1,0,0:0:0:0:
320,192,19038,1,0,0:0:0:0:
64,192,19106,1,0,0:0:0:0:
448,192,19106,1,0,0:0:0:0:
320,192,19175,1,0,0:0:0:0:
192,192,19243,1,0,0:0:0:0:
448,192,19311,1,0,0:0:0:0:
320,192,19379,1,0,0:0:0:0:
64,192,19379,1,0,0:0:0:0:
64,192,21561,1,0,0:0:0:0:
192,192,21561,1,0,0:0:0:0:
320,192,21697,1,0,0:0:0:0:
448,192,21697,1,0,0:0:0:0:
64,192,21834,128,0,22243:0:0:0:0:
192,192,21834,1,0,0:0:0:0:
448,192,21970,1,0,0:0:0:0:
192,192,22106,128,0,22243:0:0:0:0:
320,192,22106,1,0,0:0:0:0:
448,192,22243,1,0,0:0:0:0:
192,192,22379,1,0,0:0:0:0:
64,192,22379,1,0,0:0:0:0:
320,192,22515,1,0,0:0:0:0:
448,192,22652,1,0,0:0:0:0:
64,192,22652,1,0,0:0:0:0:
192,192,22788,1,0,0:0:0:0:
320,192,22925,1,0,0:0:0:0:
448,192,22925,128,0,23334:0:0:0:0:
64,192,23061,1,0,0:0:0:0:
192,192,23197,1,0,0:0:0:0:
320,192,23197,128,0,23334:0:0:0:0:
64,192,23334,1,0,0:0:0:0:
320,192,23470,1,0,0:0:0:0:
448,192,23470,1,0,0:0:0:0:
192,192,23606,1,0,0:0:0:0:
64,192,23743,1,0,0:0:0:0:
320,192,23743,1,0,0:0:0:0:
192,192,23879,1,0,0:0:0:0:
64,192,24015,1,0,0:0:0:0:
448,192,24015,128,0,24425:0:0:0:0:
320,192,24152,1,0,0:0:0:0:
64,192,24288,128,0,24425:0:0:0:0:
192,192,24288,1,0,0:0:0:0:
320,192,24425,1,0,0:0:0:0:
64,192,24561,1,0,0:0:0:0:
448,192,24561,1,0,0:0:0:0:
192,192,24697,1,0,0:0:0:0:
320,192,24834,1,0,0:0:0:0:
448,192,24834,1,0,0:0:0:0:
448,192,24970,1,0,0:0:0:0:
64,192,25106,128,0,25515:0:0:0:0:
192,192,25106,1,0,0:0:0:0:
320,192,25106,1,0,0:0:0:0:
192,192,25243,128,0,25515:0:0:0:0:
320,192,25379,1,0,0:0:0:0:
448,192,25379,1,0,0:0:0:0:
448,192,25515,128,0,25652:0:0:0:0:
64,192,25652,1,0,0:0:0:0:
192,192,25652,128,0,25788:0:0:0:0:
320,192,25788,128,0,25925:0:0:0:0:
448,192,25788,1,0,0:0:0:0:
448,192,25925,1,0,0:0:0:0:
192,192,25925,1,0,0:0:0:0:
64,192,25925,1,0,0:0:0:0:
192,192,26061,1,0,0:0:0:0:
64,192,26197,128,0,26606:0:0:0:0:
320,192,26197,1,0,0:0:0:0:
448,192,26197,1,0,0:0:0:0:
448,192,26334,1,0,0:0:0:0:
192,192,26470,128,0,26606:0:0:0:0:
320,192,26470,1,0,0:0:0:0:
448,192,26606,1,0,0:0:0:0:
320,192,26743,1,0,0:0:0:0:
192,192,26743,1,0,0:0:0:0:
64,192,26743,1,0,0:0:0:0:
64,192,26879,1,0,0:0:0:0:
192,192,27015,1,0,0:0:0:0:
448,192,27015,1,0,0:0:0:0:
320,192,27152,1,0,0:0:0:0:
192,192,27288,128,0,27697:0:0:0:0:
64,192,27288,1,0,0:0:0:0:
448,192,27288,1,0,0:0:0:0:
64,192,27425,1,0,0:0:0:0:
320,192,27561,128,0,27697:0:0:0:0:
448,192,27561,1,0,0:0:0:0:
64,192,27697,1,0,0:0:0:0:
192,192,27834,1,0,0:0:0:0:
320,192,27834,1,0,0:0:0:0:
448,192,27834,1,0,0:0:0:0:
448,192,27970,1,0,0:0:0:0:
320,192,28106,1,0,0:0:0:0:
64,192,28106,1,0,0:0:0:0:
64,192,28243,1,0,0:0:0:0:
320,192,28379,128,0,28788:0:0:0:0:
192,192,28379,1,0,0:0:0:0:
448,192,28379,1,0,0:0:0:0:
64,192,28515,1,0,0:0:0:0:
448,192,28652,128,0,28788:0:0:0:0:
192,192,28652,1,0,0:0:0:0:
64,192,28788,1,0,0:0:0:0:
320,192,28925,1,0,0:0:0:0:
448,192,28925,1,0,0:0:0:0:
64,192,28925,1,0,0:0:0:0:
448,192,29061,1,0,0:0:0:0:
320,192,29197,1,0,0:0:0:0:
64,192,29197,1,0,0:0:0:0:
192,192,29265,1,0,0:0:0:0:
320,192,29334,1,0,0:0:0:0:
448,192,29334,1,0,0:0:0:0:
64,192,29470,128,0,30152:0:0:0:0:
192,192,29606,128,0,29879:0:0:0:0:
448,192,29606,1,0,0:0:0:0:
320,192,29743,1,0,0:0:0:0:
448,192,29743,1,0,0:0:0:0:
320,192,29879,128,0,30015:0:0:0:0:
192,192,30015,128,0,30152:0:0:0:0:
448,192,30152,128,0,30288:0:0:0:0:
320,192,30288,1,0,0:0:0:0:
192,192,30288,1,0,0:0:0:0:
64,192,30288,1,0,0:0:0:0:
448,192,30561,128,0,30970:0:0:0:0:
320,192,30834,128,0,30970:0:0:0:0:
192,192,31379,1,0,0:0:0:0:
64,192,31379,1,0,0:0:0:0:
448,192,31652,128,0,32061:0:0:0:0:
320,192,31925,128,0,32061:0:0:0:0:
192,192,32470,1,0,0:0:0:0:
64,192,32470,1,0,0:0:0:0:
320,192,32606,1,0,0:0:0:0:
448,192,32606,1,0,0:0:0:0:
448,192,32743,128,0,33152:0:0:0:0:
192,192,32743,1,0,0:0:0:0:
64,192,32743,1,0,0:0:0:0:
64,192,32879,1,0,0:0:0:0:
320,192,33015,128,0,33152:0:0:0:0:
192,192,33015,1,0,0:0:0:0:
64,192,33152,1,0,0:0:0:0:
64,192,33288,1,0,0:0:0:0:
192,192,33288,1,0,0:0:0:0:
448,192,33288,1,0,0:0:0:0:
448,192,33425,1,0,0:0:0:0:
320,192,33561,1,0,0:0:0:0:
64,192,33561,1,0,0:0:0:0:
320,192,33697,1,0,0:0:0:0:
192,192,33834,1,0,0:0:0:0:
448,192,33834,1,0,0:0:0:0:
64,192,33834,128,0,34243:0:0:0:0:
192,192,33970,128,0,34243:0:0:0:0:
320,192,34106,1,0,0:0:0:0:
448,192,34106,1,0,0:0:0:0:
448,192,34243,128,0,34515:0:0:0:0:
320,192,34379,128,0,34515:0:0:0:0:
64,192,34379,1,0,0:0:0:0:
192,192,34379,1,0,0:0:0:0:
64,192,34515,128,0,34652:0:0:0:0:
192,192,34515,1,0,0:0:0:0:
320,192,34652,1,0,0:0:0:0:
448,192,34652,1,0,0:0:0:0:
192,192,34652,1,0,0:0:0:0:
320,192,34788,1,0,0:0:0:0:
192,192,34925,1,0,0:0:0:0:
64,192,34925,128,0,35334:0:0:0:0:
448,192,34925,1,0,0:0:0:0:
448,192,35061,1,0,0:0:0:0:
192,192,35197,128,0,35334:0:0:0:0:
320,192,35197,1,0,0:0:0:0:
448,192,35334,1,0,0:0:0:0:
192,192,35470,1,0,0:0:0:0:
64,192,35470,1,0,0:0:0:0:
448,192,35470,1,0,0:0:0:0:
64,192,35606,1,0,0:0:0:0:
192,192,35743,1,0,0:0:0:0:
448,192,35743,1,0,0:0:0:0:
320,192,35879,1,0,0:0:0:0:
64,192,36015,128,0,36425:0:0:0:0:
192,192,36015,1,0,0:0:0:0:
448,192,36015,1,0,0:0:0:0:
320,192,36152,1,0,0:0:0:0:
192,192,36288,128,0,36425:0:0:0:0:
320,192,36288,1,0,0:0:0:0:
448,192,36425,1,0,0:0:0:0:
192,192,36561,1,0,0:0:0:0:
64,192,36561,1,0,0:0:0:0:
448,192,36561,1,0,0:0:0:0:
320,192,36697,1,0,0:0:0:0:
64,192,36834,1,0,0:0:0:0:
448,192,36834,1,0,0:0:0:0:
320,192,36834,1,0,0:0:0:0:
192,192,36970,1,0,0:0:0:0:
64,192,37106,128,0,37515:0:0:0:0:
192,192,37106,1,0,0:0:0:0:
448,192,37106,1,0,0:0:0:0:
320,192,37243,1,0,0:0:0:0:
192,192,37379,128,0,37515:0:0:0:0:
320,192,37379,1,0,0:0:0:0:
448,192,37379,1,0,0:0:0:0:
448,192,37515,1,0,0:0:0:0:
320,192,37652,1,0,0:0:0:0:
192,192,37652,1,0,0:0:0:0:
64,192,37652,1,0,0:0:0:0:
64,192,37788,1,0,0:0:0:0:
448,192,37788,1,0,0:0:0:0:
192,192,37925,1,0,0:0:0:0:
320,192,37925,1,0,0:0:0:0:
448,192,37925,1,0,0:0:0:0:
64,192,38061,1,0,0:0:0:0:
64,192,38197,128,0,38606:0:0:0:0:
320,192,38197,1,0,0:0:0:0:
448,192,38197,1,0,0:0:0:0:
192,192,38334,128,0,38606:0:0:0:0:
320,192,38470,1,0,0:0:0:0:
448,192,38470,1,0,0:0:0:0:
320,192,38606,1,0,0:0:0:0:
448,192,38606,1,0,0:0:0:0:
192,192,38743,1,0,0:0:0:0:
64,192,38743,1,0,0:0:0:0:
448,192,38811,1,0,0:0:0:0:
64,192,38879,1,0,0:0:0:0:
320,192,38879,1,0,0:0:0:0:
192,192,38947,1,0,0:0:0:0:
64,192,39015,1,0,0:0:0:0:
320,192,39015,1,0,0:0:0:0:
448,192,39015,128,0,39288:0:0:0:0:
192,192,39152,128,0,39288:0:0:0:0:
64,192,39152,128,0,39288:0:0:0:0:
320,192,39288,128,0,39425:0:0:0:0:
448,192,39425,1,0,0:0:0:0:
192,192,39425,1,0,0:0:0:0:
64,192,39425,128,0,39834:0:0:0:0:
320,192,39697,128,0,39834:0:0:0:0:
448,192,39697,128,0,39834:0:0:0:0:
192,192,39834,128,0,39970:0:0:0:0:
320,192,39970,1,0,0:0:0:0:
64,192,39970,1,0,0:0:0:0:
448,192,39970,128,0,40379:0:0:0:0:
64,192,40243,128,0,40379:0:0:0:0:
320,192,40243,128,0,40379:0:0:0:0:
192,192,40379,128,0,40515:0:0:0:0:
448,192,40515,1,0,0:0:0:0:
320,192,40515,1,0,0:0:0:0:
64,192,40515,128,0,40925:0:0:0:0:
448,192,40788,128,0,40925:0:0:0:0:
192,192,40788,128,0,40925:0:0:0:0:
320,192,40925,128,0,41061:0:0:0:0:
448,192,41061,128,0,43379:0:0:0:0:
192,192,41061,1,0,0:0:0:0:
64,192,41061,1,0,0:0:0:0:
64,192,41879,128,0,43379:0:0:0:0:
192,192,43379,1,0,0:0:0:0:
320,192,43379,1,0,0:0:0:0:
192,192,43515,1,0,0:0:0:0:
320,192,43515,1,0,0:0:0:0:
320,192,43652,1,0,0:0:0:0:
448,192,43652,1,0,0:0:0:0:
64,192,43652,1,0,0:0:0:0:
192,192,43788,1,0,0:0:0:0:
320,192,43788,1,0,0:0:0:0:
192,192,43925,1,0,0:0:0:0:
64,192,43925,1,0,0:0:0:0:
448,192,43925,1,0,0:0:0:0:
320,192,44061,1,0,0:0:0:0:
64,192,44061,1,0,0:0:0:0:
192,192,44197,1,0,0:0:0:0:
320,192,44197,1,0,0:0:0:0:
448,192,44197,1,0,0:0:0:0:
192,192,44334,1,0,0:0:0:0:
64,192,44334,1,0,0:0:0:0:
320,192,44402,1,0,0:0:0:0:
448,192,44470,1,0,0:0:0:0:
192,192,44470,1,0,0:0:0:0:
64,192,44470,1,0,0:0:0:0:
320,192,44606,1,0,0:0:0:0:
448,192,44606,1,0,0:0:0:0:
320,192,44743,1,0,0:0:0:0:
192,192,44743,1,0,0:0:0:0:
64,192,44743,1,0,0:0:0:0:
64,192,44879,1,0,0:0:0:0:
448,192,44879,1,0,0:0:0:0:
192,192,45015,1,0,0:0:0:0:
320,192,45015,1,0,0:0:0:0:
448,192,45015,1,0,0:0:0:0:
320,192,45152,1,0,0:0:0:0:
64,192,45152,1,0,0:0:0:0:
192,192,45288,1,0,0:0:0:0:
64,192,45288,1,0,0:0:0:0:
448,192,45288,1,0,0:0:0:0:
192,192,45425,1,0,0:0:0:0:
320,192,45425,1,0,0:0:0:0:
320,192,45561,1,0,0:0:0:0:
448,192,45561,1,0,0:0:0:0:
64,192,45561,1,0,0:0:0:0:
192,192,45697,1,0,0:0:0:0:
448,192,45697,1,0,0:0:0:0:
192,192,45834,1,0,0:0:0:0:
64,192,45834,1,0,0:0:0:0:
320,192,45834,1,0,0:0:0:0:
320,192,45970,1,0,0:0:0:0:
448,192,45970,1,0,0:0:0:0:
64,192,46106,1,0,0:0:0:0:
448,192,46106,1,0,0:0:0:0:
192,192,46106,1,0,0:0:0:0:
64,192,46243,1,0,0:0:0:0:
320,192,46243,1,0,0:0:0:0:
192,192,46379,1,0,0:0:0:0:
448,192,46379,1,0,0:0:0:0:
320,192,46379,1,0,0:0:0:0:
64,192,46515,1,0,0:0:0:0:
448,192,46515,1,0,0:0:0:0:
192,192,46652,1,0,0:0:0:0:
64,192,46652,1,0,0:0:0:0:
320,192,46720,1,0,0:0:0:0:
448,192,46720,1,0,0:0:0:0:
64,192,46788,1,0,0:0:0:0:
192,192,46856,1,0,0:0:0:0:
320,192,46925,1,0,0:0:0:0:
448,192,46925,1,0,0:0:0:0:
192,192,46993,1,0,0:0:0:0:
64,192,46993,1,0,0:0:0:0:
448,192,47061,1,0,0:0:0:0:
320,192,47129,1,0,0:0:0:0:
192,192,47129,1,0,0:0:0:0:
448,192,47334,1,0,0:0:0:0:
64,192,47334,1,0,0:0:0:0:
448,192,47470,1,0,0:0:0:0:
192,192,47606,1,0,0:0:0:0:
192,192,47743,1,0,0:0:0:0:
320,192,47743,1,0,0:0:0:0:
448,192,47743,128,0,48015:0:0:0:0:
320,192,47879,128,0,48015:0:0:0:0:
64,192,48015,128,0,48220:0:0:0:0:
192,192,48084,128,0,48220:0:0:0:0:
320,192,48152,128,0,48220:0:0:0:0:
320,192,48288,1,0,0:0:0:0:
192,192,48288,1,0,0:0:0:0:
64,192,48288,1,0,0:0:0:0:
448,192,48425,128,0,48697:0:0:0:0:
192,192,48493,128,0,48561:0:0:0:0:
320,192,48561,128,0,48697:0:0:0:0:
64,192,48629,128,0,48697:0:0:0:0:
192,192,48697,128,0,48765:0:0:0:0:
320,192,48765,128,0,48834:0:0:0:0:
64,192,48834,1,0,0:0:0:0:
192,192,48834,1,0,0:0:0:0:
448,192,48834,1,0,0:0:0:0:
64,192,48970,128,0,49243:0:0:0:0:
320,192,49106,128,0,49243:0:0:0:0:
448,192,49175,128,0,49243:0:0:0:0:
192,192,49243,128,0,49311:0:0:0:0:
320,192,49311,128,0,49379:0:0:0:0:
448,192,49379,1,0,0:0:0:0:
192,192,49379,1,0,0:0:0:0:
64,192,49379,1,0,0:0:0:0:
320,192,49515,128,0,49652:0:0:0:0:
448,192,49652,128,0,49788:0:0:0:0:
64,192,49652,128,0,49788:0:0:0:0:
192,192,49788,128,0,49925:0:0:0:0:
320,192,49925,1,0,0:0:0:0:
448,192,49925,1,0,0:0:0:0:
64,192,50061,128,0,50334:0:0:0:0:
448,192,50197,128,0,50334:0:0:0:0:
192,192,50265,128,0,50334:0:0:0:0:
320,192,50334,128,0,50402:0:0:0:0:
192,192,50402,128,0,50470:0:0:0:0:
64,192,50470,1,0,0:0:0:0:
320,192,50470,1,0,0:0:0:0:
448,192,50470,128,0,50675:0:0:0:0:
64,192,50675,128,0,50743:0:0:0:0:
192,192,50675,128,0,50743:0:0:0:0:
448,192,50743,1,0,0:0:0:0:
320,192,50743,1,0,0:0:0:0:
64,192,50879,1,0,0:0:0:0:
320,192,50879,1,0,0:0:0:0:
320,192,51015,1,0,0:0:0:0:
448,192,51015,1,0,0:0:0:0:
64,192,51084,128,0,51152:0:0:0:0:
192,192,51084,128,0,51152:0:0:0:0:
448,192,51152,1,0,0:0:0:0:
320,192,51288,128,0,51356:0:0:0:0:
64,192,51288,128,0,51493:0:0:0:0:
320,192,51425,128,0,51493:0:0:0:0:
448,192,51561,128,0,51697:0:0:0:0:
192,192,51561,1,0,0:0:0:0:
64,192,51561,1,0,0:0:0:0:
320,192,51629,128,0,51765:0:0:0:0:
192,192,51697,128,0,51834:0:0:0:0:
64,192,51765,128,0,51902:0:0:0:0:
320,192,51834,1,0,0:0:0:0:
448,192,51834,128,0,51970:0:0:0:0:
192,192,51902,128,0,51970:0:0:0:0:
320,192,51970,128,0,52038:0:0:0:0:
448,192,52038,128,0,52106:0:0:0:0:
192,192,52106,1,0,0:0:0:0:
64,192,52106,1,0,0:0:0:0:
448,192,52243,1,0,0:0:0:0:
320,192,52311,1,0,0:0:0:0:
64,192,52379,1,0,0:0:0:0:
192,192,52379,1,0,0:0:0:0:
320,192,52447,1,0,0:0:0:0:
192,192,52515,1,0,0:0:0:0:
448,192,52584,1,0,0:0:0:0:
64,192,52652,1,0,0:0:0:0:
320,192,52652,1,0,0:0:0:0:
192,192,52652,1,0,0:0:0:0:
448,192,52788,128,0,53061:0:0:0:0:
320,192,52925,128,0,53061:0:0:0:0:
64,192,52993,128,0,53061:0:0:0:0:
192,192,53061,128,0,53129:0:0:0:0:
320,192,53129,128,0,53197:0:0:0:0:
64,192,53197,1,0,0:0:0:0:
448,192,53197,1,0,0:0:0:0:
192,192,53334,128,0,53606:0:0:0:0:
448,192,53470,128,0,53606:0:0:0:0:
64,192,53538,128,0,53606:0:0:0:0:
320,192,53606,128,0,53675:0:0:0:0:
192,192,53675,128,0,53743:0:0:0:0:
320,192,53743,1,0,0:0:0:0:
64,192,53743,128,0,53811:0:0:0:0:
448,192,53743,128,0,53879:0:0:0:0:
192,192,53811,128,0,53879:0:0:0:0:
320,192,53879,128,0,53947:0:0:0:0:
448,192,53947,128,0,54015:0:0:0:0:
64,192,54015,128,0,54084:0:0:0:0:
192,192,54015,128,0,54084:0:0:0:0:
320,192,54084,128,0,54152:0:0:0:0:
448,192,54152,128,0,54220:0:0:0:0:
64,192,54220,128,0,54288:0:0:0:0:
192,192,54288,1,0,0:0:0:0:
448,192,54288,1,0,0:0:0:0:
320,192,54425,128,0,54697:0:0:0:0:
448,192,54561,128,0,54697:0:0:0:0:
192,192,54629,128,0,54697:0:0:0:0:
64,192,54697,128,0,54765:0:0:0:0:
320,192,54765,128,0,54834:0:0:0:0:
448,192,54834,1,0,0:0:0:0:
192,192,54834,128,0,54902:0:0:0:0:
64,192,54834,1,0,0:0:0:0:
320,192,54902,128,0,54970:0:0:0:0:
64,192,54970,128,0,55038:0:0:0:0:
192,192,55038,128,0,55106:0:0:0:0:
320,192,55106,128,0,55175:0:0:0:0:
448,192,55106,1,0,0:0:0:0:
64,192,55175,128,0,55243:0:0:0:0:
192,192,55243,1,0,0:0:0:0:
320,192,55243,1,0,0:0:0:0:
448,192,55243,1,0,0:0:0:0:
192,192,55515,1,0,0:0:0:0:
320,192,55515,1,0,0:0:0:0:
448,192,55515,1,0,0:0:0:0:
64,192,55652,1,0,0:0:0:0:
448,192,55652,1,0,0:0:0:0:
320,192,55788,1,0,0:0:0:0:
192,192,55788,1,0,0:0:0:0:
64,192,55788,1,0,0:0:0:0:
320,192,55925,1,0,0:0:0:0:
448,192,55925,1,0,0:0:0:0:
448,192,56061,1,0,0:0:0:0:
64,192,56061,1,0,0:0:0:0:
192,192,56129,1,0,0:0:0:0:
320,192,56197,1,0,0:0:0:0:
448,192,56197,1,0,0:0:0:0:
64,192,56334,1,0,0:0:0:0:
192,192,56334,1,0,0:0:0:0:
64,192,56470,1,0,0:0:0:0:
320,192,56470,1,0,0:0:0:0:
448,192,56470,1,0,0:0:0:0:
320,192,56743,1,0,0:0:0:0:
192,192,56743,1,0,0:0:0:0:
192,192,57015,1,0,0:0:0:0:
64,192,57015,1,0,0:0:0:0:
320,192,57015,1,0,0:0:0:0:
448,192,57015,1,0,0:0:0:0:
64,192,57152,128,0,57425:0:0:0:0:
192,192,57288,128,0,57425:0:0:0:0:
448,192,57356,128,0,57425:0:0:0:0:
320,192,57425,128,0,57493:0:0:0:0:
192,192,57493,128,0,57561:0:0:0:0:
448,192,57561,1,0,0:0:0:0:
64,192,57561,128,0,57970:0:0:0:0:
192,192,57697,128,0,57970:0:0:0:0:
320,192,57834,128,0,57970:0:0:0:0:
448,192,57834,1,0,0:0:0:0:
448,192,57970,128,0,58106:0:0:0:0:
192,192,58106,1,0,0:0:0:0:
64,192,58106,1,0,0:0:0:0:
320,192,58106,128,0,58515:0:0:0:0:
192,192,58243,128,0,58515:0:0:0:0:
64,192,58379,128,0,58515:0:0:0:0:
448,192,58379,1,0,0:0:0:0:
448,192,58515,128,0,58652:0:0:0:0:
192,192,58652,1,0,0:0:0:0:
64,192,58652,128,0,59197:0:0:0:0:
320,192,58788,1,0,0:0:0:0:
448,192,58925,128,0,59061:0:0:0:0:
320,192,58925,1,0,0:0:0:0:
192,192,59061,1,0,0:0:0:0:
448,192,59197,128,0,59743:0:0:0:0:
320,192,59197,1,0,0:0:0:0:
192,192,59197,1,0,0:0:0:0:
64,192,59334,1,0,0:0:0:0:
320,192,59470,1,0,0:0:0:0:
192,192,59470,1,0,0:0:0:0:
64,192,59606,1,0,0:0:0:0:
320,192,59606,1,0,0:0:0:0:
192,192,59743,1,0,0:0:0:0:
64,192,59743,1,0,0:0:0:0:
320,192,59879,1,0,0:0:0:0:
448,192,60015,128,0,60220:0:0:0:0:
64,192,60015,128,0,60084:0:0:0:0:
64,192,60152,128,0,60220:0:0:0:0:
64,192,60288,128,0,60425:0:0:0:0:
320,192,60288,1,0,0:0:0:0:
448,192,60288,128,0,60425:0:0:0:0:
192,192,60356,128,0,60493:0:0:0:0:
320,192,60425,128,0,60561:0:0:0:0:
448,192,60493,128,0,60629:0:0:0:0:
192,192,60561,1,0,0:0:0:0:
64,192,60561,128,0,60697:0:0:0:0:
320,192,60629,128,0,60697:0:0:0:0:
192,192,60697,128,0,60765:0:0:0:0:
64,192,60765,128,0,60834:0:0:0:0:
320,192,60834,1,0,0:0:0:0:
448,192,60834,128,0,61379:0:0:0:0:
192,192,60970,1,0,0:0:0:0:
64,192,61106,128,0,61243:0:0:0:0:
320,192,61106,1,0,0:0:0:0:
192,192,61243,1,0,0:0:0:0:
64,192,61379,128,0,61515:0:0:0:0:
192,192,61379,1,0,0:0:0:0:
320,192,61379,1,0,0:0:0:0:
320,192,61515,128,0,61788:0:0:0:0:
448,192,61652,128,0,61788:0:0:0:0:
64,192,61720,128,0,61788:0:0:0:0:
192,192,61788,128,0,61856:0:0:0:0:
320,192,61856,128,0,61925:0:0:0:0:
448,192,61925,1,0,0:0:0:0:
64,192,61925,1,0,0:0:0:0:
192,192,62061,128,0,62334:0:0:0:0:
448,192,62197,128,0,62265:0:0:0:0:
320,192,62265,128,0,62334:0:0:0:0:
64,192,62334,1,0,0:0:0:0:
448,192,62334,1,0,0:0:0:0:
320,192,62402,1,0,0:0:0:0:
192,192,62470,1,0,0:0:0:0:
64,192,62470,1,0,0:0:0:0:
192,192,62606,1,0,0:0:0:0:
64,192,62606,1,0,0:0:0:0:
64,192,62743,1,0,0:0:0:0:
192,192,62743,1,0,0:0:0:0:
192,192,62879,1,0,0:0:0:0:
64,192,62879,1,0,0:0:0:0:
320,192,63015,1,0,0:0:0:0:
64,192,63152,1,0,0:0:0:0:
448,192,63288,128,0,63697:0:0:0:0:
192,192,63288,1,0,0:0:0:0:
320,192,63561,128,0,63697:0:0:0:0:
192,192,63561,1,0,0:0:0:0:
64,192,63970,1,0,0:0:0:0:
320,192,64106,1,0,0:0:0:0:
192,192,64243,1,0,0:0:0:0:
448,192,64379,128,0,64652:0:0:0:0:
64,192,64379,1,0,0:0:0:0:
320,192,64515,128,0,64652:0:0:0:0:
64,192,64652,1,0,0:0:0:0:
448,192,64788,128,0,64925:0:0:0:0:
64,192,64925,1,0,0:0:0:0:
192,192,64925,1,0,0:0:0:0:
320,192,64925,128,0,65061:0:0:0:0:
192,192,65061,128,0,65197:0:0:0:0:
64,192,65197,128,0,67379:0:0:0:0:
320,192,65197,1,0,0:0:0:0:
448,192,65197,1,0,0:0:0:0:
320,192,66834,128,0,67379:0:0:0:0:
192,192,66970,1,0,0:0:0:0:
448,192,66970,1,0,0:0:0:0:
192,192,67379,1,0,0:0:0:0:
448,192,67379,128,0,68879:0:0:0:0:
64,192,68470,128,0,69288:0:0:0:0:
320,192,68743,128,0,68879:0:0:0:0:
192,192,68879,128,0,69561:0:0:0:0:
320,192,69288,128,0,69561:0:0:0:0:
64,192,69561,128,0,71197:0:0:0:0:
448,192,69561,1,0,0:0:0:0:
448,192,69697,1,0,0:0:0:0:
320,192,69834,1,0,0:0:0:0:
192,192,69834,1,0,0:0:0:0:
320,192,69970,1,0,0:0:0:0:
448,192,69970,1,0,0:0:0:0:
448,192,70106,1,0,0:0:0:0:
192,192,70243,1,0,0:0:0:0:
320,192,70243,1,0,0:0:0:0:
448,192,70379,1,0,0:0:0:0:
192,192,70515,1,0,0:0:0:0:
320,192,70515,1,0,0:0:0:0:
448,192,70584,1,0,0:0:0:0:
320,192,70652,1,0,0:0:0:0:
192,192,70720,1,0,0:0:0:0:
448,192,70788,1,0,0:0:0:0:
192,192,70925,1,0,0:0:0:0:
320,192,71061,1,0,0:0:0:0:
448,192,71061,1,0,0:0:0:0:
448,192,71197,128,0,71743:0:0:0:0:
320,192,71265,1,0,0:0:0:0:
64,192,71334,1,0,0:0:0:0:
192,192,71334,1,0,0:0:0:0:
320,192,71402,1,0,0:0:0:0:
64,192,71470,1,0,0:0:0:0:
320,192,71538,1,0,0:0:0:0:
64,192,71606,1,0,0:0:0:0:
192,192,71675,1,0,0:0:0:0:
64,192,71743,128,0,72834:0:0:0:0:
320,192,71743,1,0,0:0:0:0:
192,192,71811,1,0,0:0:0:0:
448,192,71879,1,0,0:0:0:0:
320,192,71947,1,0,0:0:0:0:
192,192,72015,1,0,0:0:0:0:
448,192,72015,1,0,0:0:0:0:
320,192,72084,1,0,0:0:0:0:
192,192,72152,1,0,0:0:0:0:
448,192,72220,1,0,0:0:0:0:
192,192,72288,1,0,0:0:0:0:
320,192,72288,1,0,0:0:0:0:
448,192,72356,1,0,0:0:0:0:
192,192,72425,1,0,0:0:0:0:
320,192,72493,1,0,0:0:0:0:
448,192,72561,1,0,0:0:0:0:
192,192,72629,1,0,0:0:0:0:
448,192,72697,1,0,0:0:0:0:
320,192,72697,1,0,0:0:0:0:
192,192,72834,1,0,0:0:0:0:
448,192,72834,1,0,0:0:0:0:
320,192,72834,1,0,0:0:0:0:
192,192,72970,1,0,0:0:0:0:
192,192,73106,1,0,0:0:0:0:
448,192,73243,1,0,0:0:0:0:
320,192,73243,1,0,0:0:0:0:
64,192,73243,1,0,0:0:0:0:
64,192,73379,1,0,0:0:0:0:
320,192,73515,1,0,0:0:0:0:
448,192,73515,1,0,0:0:0:0:
192,192,73515,1,0,0:0:0:0:
448,192,73652,1,0,0:0:0:0:
448,192,73788,1,0,0:0:0:0:
320,192,73925,1,0,0:0:0:0:
192,192,73925,1,0,0:0:0:0:
64,192,73925,1,0,0:0:0:0:
448,192,73925,1,0,0:0:0:0:
64,192,74061,1,0,0:0:0:0:
192,192,74197,1,0,0:0:0:0:
320,192,74197,1,0,0:0:0:0:
448,192,74197,1,0,0:0:0:0:
192,192,74334,1,0,0:0:0:0:
64,192,74470,1,0,0:0:0:0:
448,192,74470,1,0,0:0:0:0:
320,192,74470,1,0,0:0:0:0:
448,192,74606,1,0,0:0:0:0:
320,192,74743,1,0,0:0:0:0:
192,192,74743,1,0,0:0:0:0:
64,192,74743,1,0,0:0:0:0:
320,192,74879,1,0,0:0:0:0:
64,192,75015,1,0,0:0:0:0:
448,192,75015,1,0,0:0:0:0:
192,192,75015,1,0,0:0:0:0:
320,192,75152,1,0,0:0:0:0:
64,192,75288,1,0,0:0:0:0:
320,192,75288,1,0,0:0:0:0:
448,192,75288,1,0,0:0:0:0:
192,192,75425,1,0,0:0:0:0:
64,192,75561,1,0,0:0:0:0:
192,192,75561,1,0,0:0:0:0:
320,192,75561,1,0,0:0:0:0:
448,192,75697,1,0,0:0:0:0:
448,192,75834,1,0,0:0:0:0:
192,192,75834,1,0,0:0:0:0:
64,192,75834,1,0,0:0:0:0:
192,192,75970,1,0,0:0:0:0:
320,192,75970,1,0,0:0:0:0:
320,192,76106,1,0,0:0:0:0:
448,192,76106,1,0,0:0:0:0:
64,192,76106,1,0,0:0:0:0:
448,192,76243,1,0,0:0:0:0:
320,192,76379,1,0,0:0:0:0:
192,192,76379,1,0,0:0:0:0:
64,192,76379,1,0,0:0:0:0:
192,192,76515,1,0,0:0:0:0:
64,192,76652,1,0,0:0:0:0:
320,192,76652,1,0,0:0:0:0:
448,192,76652,1,0,0:0:0:0:
320,192,76788,1,0,0:0:0:0:
64,192,76925,1,0,0:0:0:0:
192,192,76925,1,0,0:0:0:0:
448,192,76925,1,0,0:0:0:0:
64,192,77061,1,0,0:0:0:0:
192,192,77197,1,0,0:0:0:0:
320,192,77197,1,0,0:0:0:0:
448,192,77197,1,0,0:0:0:0:
64,192,77334,1,0,0:0:0:0:
64,192,77470,1,0,0:0:0:0:
448,192,77470,1,0,0:0:0:0:
320,192,77470,1,0,0:0:0:0:
192,192,77606,1,0,0:0:0:0:
64,192,77743,1,0,0:0:0:0:
192,192,77743,1,0,0:0:0:0:
448,192,77743,1,0,0:0:0:0:
320,192,77879,1,0,0:0:0:0:
320,192,78015,1,0,0:0:0:0:
448,192,78015,1,0,0:0:0:0:
64,192,78015,1,0,0:0:0:0:
192,192,78152,1,0,0:0:0:0:
448,192,78152,1,0,0:0:0:0:
64,192,78288,1,0,0:0:0:0:
192,192,78288,1,0,0:0:0:0:
320,192,78288,1,0,0:0:0:0:
320,192,78425,1,0,0:0:0:0:
448,192,78425,1,0,0:0:0:0:
64,192,78561,1,0,0:0:0:0:
448,192,78561,1,0,0:0:0:0:
192,192,78561,1,0,0:0:0:0:
64,192,78697,1,0,0:0:0:0:
320,192,78697,1,0,0:0:0:0:
192,192,78834,1,0,0:0:0:0:
320,192,78834,1,0,0:0:0:0:
448,192,78834,1,0,0:0:0:0:
192,192,78970,1,0,0:0:0:0:
64,192,78970,1,0,0:0:0:0:
320,192,79106,1,0,0:0:0:0:
64,192,79106,1,0,0:0:0:0:
448,192,79106,1,0,0:0:0:0:
192,192,79243,1,0,0:0:0:0:
448,192,79243,1,0,0:0:0:0:
320,192,79379,1,0,0:0:0:0:
192,192,79379,1,0,0:0:0:0:
64,192,79379,1,0,0:0:0:0:
320,192,79515,1,0,0:0:0:0:
448,192,79515,1,0,0:0:0:0:
64,192,79652,1,0,0:0:0:0:
448,192,79652,1,0,0:0:0:0:
192,192,79652,1,0,0:0:0:0:
320,192,79788,1,0,0:0:0:0:
64,192,79788,1,0,0:0:0:0:
192,192,79925,1,0,0:0:0:0:
320,192,79925,1,0,0:0:0:0:
448,192,79925,1,0,0:0:0:0:
64,192,80061,1,0,0:0:0:0:
192,192,80061,1,0,0:0:0:0:
64,192,80197,1,0,0:0:0:0:
320,192,80197,1,0,0:0:0:0:
448,192,80197,1,0,0:0:0:0:
192,192,80334,1,0,0:0:0:0:
320,192,80334,1,0,0:0:0:0:
64,192,80470,1,0,0:0:0:0:
192,192,80470,1,0,0:0:0:0:
448,192,80538,1,0,0:0:0:0:
320,192,80538,1,0,0:0:0:0:
192,192,80606,1,0,0:0:0:0:
64,192,80606,1,0,0:0:0:0:
320,192,80675,1,0,0:0:0:0:
448,192,80675,1,0,0:0:0:0:
192,192,80743,1,0,0:0:0:0:
64,192,80743,1,0,0:0:0:0:
320,192,80811,1,0,0:0:0:0:
448,192,80811,1,0,0:0:0:0:
192,192,80879,1,0,0:0:0:0:
64,192,80879,1,0,0:0:0:0:
448,192,80947,1,0,0:0:0:0:
320,192,80947,1,0,0:0:0:0:
192,192,81015,1,0,0:0:0:0:
64,192,81015,1,0,0:0:0:0:
320,192,81084,1,0,0:0:0:0:
448,192,81084,1,0,0:0:0:0:
192,192,81152,1,0,0:0:0:0:
64,192,81152,1,0,0:0:0:0:
320,192,81220,1,0,0:0:0:0:
448,192,81220,1,0,0:0:0:0:
192,192,81288,1,0,0:0:0:0:
64,192,81288,1,0,0:0:0:0:
320,192,81356,1,0,0:0:0:0:
448,192,81356,1,0,0:0:0:0:
192,192,81425,1,0,0:0:0:0:
64,192,81425,1,0,0:0:0:0:
320,192,81493,1,0,0:0:0:0:
448,192,81493,1,0,0:0:0:0:
64,192,81561,128,0,81629:0:0:0:0:
192,192,81561,128,0,81629:0:0:0:0:
192,192,81834,128,0,81902:0:0:0:0:
320,192,81834,128,0,81902:0:0:0:0:
448,192,82106,128,0,82175:0:0:0:0:
320,192,82106,128,0,82175:0:0:0:0:
448,192,82379,1,0,0:0:0:0:
320,192,82379,1,0,0:0:0:0:
64,192,82379,128,0,82652:0:0:0:0:
192,192,82652,1,0,0:0:0:0:
320,192,82652,1,0,0:0:0:0:
448,192,82652,1,0,0:0:0:0:
192,192,82788,128,0,82925:0:0:0:0:
320,192,82788,128,0,82925:0:0:0:0:
64,192,82925,1,0,0:0:0:0:
448,192,82925,128,0,83197:0:0:0:0:
320,192,83061,128,0,83197:0:0:0:0:
64,192,83197,128,0,83334:0:0:0:0:
192,192,83197,1,0,0:0:0:0:
320,192,83334,128,0,83470:0:0:0:0:
448,192,83470,1,0,0:0:0:0:
64,192,83470,1,0,0:0:0:0:
192,192,83470,1,0,0:0:0:0:
320,192,83606,128,0,83879:0:0:0:0:
192,192,83606,128,0,83743:0:0:0:0:
448,192,83743,1,0,0:0:0:0:
64,192,83743,128,0,83879:0:0:0:0:
448,192,83879,128,0,84015:0:0:0:0:
192,192,83879,128,0,84152:0:0:0:0:
320,192,84015,1,0,0:0:0:0:
64,192,84015,1,0,0:0:0:0:
64,192,84152,128,0,84425:0:0:0:0:
320,192,84152,128,0,84288:0:0:0:0:
192,192,84288,1,0,0:0:0:0:
448,192,84288,1,0,0:0:0:0:
448,192,84425,128,0,84697:0:0:0:0:
192,192,84425,128,0,84561:0:0:0:0:
64,192,84561,1,0,0:0:0:0:
320,192,84561,1,0,0:0:0:0:
320,192,84697,128,0,84970:0:0:0:0:
64,192,84697,128,0,84834:0:0:0:0:
192,192,84834,1,0,0:0:0:0:
448,192,84834,1,0,0:0:0:0:
64,192,84970,128,0,85106:0:0:0:0:
192,192,84970,128,0,85106:0:0:0:0:
448,192,85106,128,0,85379:0:0:0:0:
320,192,85106,1,0,0:0:0:0:
320,192,85243,128,0,85379:0:0:0:0:
64,192,85379,128,0,85515:0:0:0:0:
192,192,85379,1,0,0:0:0:0:
320,192,85515,1,0,0:0:0:0:
192,192,85584,1,0,0:0:0:0:
64,192,85652,1,0,0:0:0:0:
320,192,85652,1,0,0:0:0:0:
448,192,85652,128,0,85925:0:0:0:0:
192,192,85788,128,0,85925:0:0:0:0:
320,192,85925,1,0,0:0:0:0:
64,192,85925,128,0,86334:0:0:0:0:
320,192,86061,128,0,86197:0:0:0:0:
192,192,86197,1,0,0:0:0:0:
448,192,86197,1,0,0:0:0:0:
192,192,86334,128,0,86606:0:0:0:0:
448,192,86334,128,0,86470:0:0:0:0:
320,192,86470,1,0,0:0:0:0:
64,192,86470,1,0,0:0:0:0:
448,192,86606,128,0,86743:0:0:0:0:
320,192,86606,128,0,86743:0:0:0:0:
64,192,86743,1,0,0:0:0:0:
192,192,86743,128,0,86879:0:0:0:0:
448,192,86879,128,0,87015:0:0:0:0:
64,192,87015,1,0,0:0:0:0:
320,192,87015,1,0,0:0:0:0:
192,192,87015,1,0,0:0:0:0:
192,192,87152,1,0,0:0:0:0:
64,192,87152,1,0,0:0:0:0:
64,192,87288,1,0,0:0:0:0:
320,192,87288,1,0,0:0:0:0:
448,192,87288,1,0,0:0:0:0:
320,192,87425,1,0,0:0:0:0:
192,192,87425,1,0,0:0:0:0:
64,192,87561,1,0,0:0:0:0:
448,192,87561,1,0,0:0:0:0:
192,192,87561,1,0,0:0:0:0:
64,192,87834,1,0,0:0:0:0:
192,192,87834,1,0,0:0:0:0:
448,192,87834,1,0,0:0:0:0:
320,192,87970,1,0,0:0:0:0:
64,192,87970,1,0,0:0:0:0:
192,192,88106,1,0,0:0:0:0:
320,192,88106,1,0,0:0:0:0:
448,192,88106,1,0,0:0:0:0:
64,192,88243,1,0,0:0:0:0:
448,192,88243,1,0,0:0:0:0:
64,192,88379,1,0,0:0:0:0:
320,192,88379,1,0,0:0:0:0:
192,192,88379,1,0,0:0:0:0:
192,192,88515,1,0,0:0:0:0:
448,192,88515,1,0,0:0:0:0:
64,192,88652,1,0,0:0:0:0:
320,192,88652,1,0,0:0:0:0:
448,192,88652,1,0,0:0:0:0:
64,192,88925,1,0,0:0:0:0:
448,192,88925,1,0,0:0:0:0:
192,192,88925,1,0,0:0:0:0:
448,192,89061,1,0,0:0:0:0:
320,192,89061,1,0,0:0:0:0:
64,192,89197,1,0,0:0:0:0:
320,192,89197,1,0,0:0:0:0:
192,192,89197,1,0,0:0:0:0:
320,192,89470,1,0,0:0:0:0:
64,192,89470,1,0,0:0:0:0:
448,192,89470,1,0,0:0:0:0:
192,192,89606,1,0,0:0:0:0:
320,192,89675,1,0,0:0:0:0:
448,192,89743,1,0,0:0:0:0:
192,192,89743,1,0,0:0:0:0:
64,192,89743,1,0,0:0:0:0:
320,192,89811,1,0,0:0:0:0:
64,192,89879,1,0,0:0:0:0:
192,192,89947,1,0,0:0:0:0:
320,192,90015,1,0,0:0:0:0:
448,192,90015,1,0,0:0:0:0:
64,192,90015,1,0,0:0:0:0:
192,192,90152,1,0,0:0:0:0:
448,192,90152,1,0,0:0:0:0:
192,192,90288,1,0,0:0:0:0:
64,192,90288,1,0,0:0:0:0:
320,192,90288,1,0,0:0:0:0:
64,192,90425,1,0,0:0:0:0:
448,192,90425,1,0,0:0:0:0:
192,192,90561,1,0,0:0:0:0:
320,192,90561,1,0,0:0:0:0:
448,192,90561,1,0,0:0:0:0:
192,192,90697,1,0,0:0:0:0:
64,192,90697,1,0,0:0:0:0:
64,192,90834,1,0,0:0:0:0:
320,192,90834,1,0,0:0:0:0:
448,192,90834,1,0,0:0:0:0:
192,192,90970,1,0,0:0:0:0:
320,192,90970,1,0,0:0:0:0:
192,192,91106,1,0,0:0:0:0:
448,192,91106,1,0,0:0:0:0:
64,192,91106,1,0,0:0:0:0:
320,192,91106,1,0,0:0:0:0:
64,192,91379,1,0,0:0:0:0:
320,192,91379,1,0,0:0:0:0:
448,192,91379,1,0,0:0:0:0:
192,192,91515,1,0,0:0:0:0:
448,192,91515,1,0,0:0:0:0:
192,192,91652,128,0,91788:0:0:0:0:
448,192,91652,128,0,91925:0:0:0:0:
320,192,91788,1,0,0:0:0:0:
64,192,91788,1,0,0:0:0:0:
320,192,91925,128,0,92197:0:0:0:0:
64,192,91925,128,0,92061:0:0:0:0:
192,192,92061,1,0,0:0:0:0:
448,192,92061,1,0,0:0:0:0:
192,192,92197,128,0,92470:0:0:0:0:
448,192,92197,128,0,92470:0:0:0:0:
320,192,92334,1,0,0:0:0:0:
64,192,92334,1,0,0:0:0:0:
320,192,92470,128,0,92606:0:0:0:0:
64,192,92470,128,0,92606:0:0:0:0:
448,192,92606,128,0,92743:0:0:0:0:
192,192,92606,128,0,92879:0:0:0:0:
64,192,92743,1,0,0:0:0:0:
320,192,92743,128,0,93152:0:0:0:0:
448,192,92879,128,0,93152:0:0:0:0:
64,192,93015,1,0,0:0:0:0:
192,192,93015,1,0,0:0:0:0:
64,192,93152,128,0,93561:0:0:0:0:
192,192,93152,128,0,93288:0:0:0:0:
320,192,93288,128,0,93425:0:0:0:0:
448,192,93288,1,0,0:0:0:0:
192,192,93425,128,0,93561:0:0:0:0:
320,192,93561,1,0,0:0:0:0:
448,192,93561,1,0,0:0:0:0:
64,192,93697,1,0,0:0:0:0:
192,192,93697,1,0,0:0:0:0:
64,192,93834,128,0,93970:0:0:0:0:
448,192,93834,128,0,94106:0:0:0:0:
192,192,93970,1,0,0:0:0:0:
320,192,93970,1,0,0:0:0:0:
192,192,94106,128,0,94243:0:0:0:0:
64,192,94106,128,0,94379:0:0:0:0:
320,192,94243,1,0,0:0:0:0:
448,192,94243,1,0,0:0:0:0:
192,192,94311,1,0,0:0:0:0:
448,192,94379,128,0,94652:0:0:0:0:
320,192,94379,128,0,94515:0:0:0:0:
64,192,94515,1,0,0:0:0:0:
192,192,94515,1,0,0:0:0:0:
192,192,94652,128,0,94788:0:0:0:0:
64,192,94652,128,0,94788:0:0:0:0:
448,192,94788,128,0,94925:0:0:0:0:
320,192,94788,128,0,94925:0:0:0:0:
192,192,94925,1,0,0:0:0:0:
64,192,94925,1,0,0:0:0:0:
320,192,95061,128,0,95197:0:0:0:0:
448,192,95061,128,0,95197:0:0:0:0:
192,192,95197,1,0,0:0:0:0:
64,192,95197,1,0,0:0:0:0:
448,192,95334,128,0,95470:0:0:0:0:
320,192,95334,128,0,95538:0:0:0:0:
192,192,95470,128,0,95606:0:0:0:0:
64,192,95470,128,0,95675:0:0:0:0:
320,192,95606,1,0,0:0:0:0:
192,192,95675,1,0,0:0:0:0:
64,192,95743,1,0,0:0:0:0:
448,192,95743,128,0,97856:0:0:0:0:
320,192,96288,128,0,97856:0:0:0:0:
192,192,96834,128,0,97856:0:0:0:0:
64,192,97379,128,0,97856:0:0:0:0:
64,192,97925,1,0,0:0:0:0:
320,192,97925,1,0,0:0:0:0:
448,192,97925,1,0,0:0:0:0:
64,192,98106,1,0,0:0:0:0:
320,192,98106,1,0,0:0:0:0:
448,192,98106,1,0,0:0:0:0:
192,192,98288,1,0,0:0:0:0:
320,192,98288,1,0,0:0:0:0:
448,192,98288,1,0,0:0:0:0:
192,192,98470,1,0,0:0:0:0:
320,192,98470,1,0,0:0:0:0:
448,192,98470,1,0,0:0:0:0:
64,192,98652,1,0,0:0:0:0:
320,192,98652,1,0,0:0:0:0:
448,192,98652,1,0,0:0:0:0:
64,192,98834,1,0,0:0:0:0:
320,192,98834,1,0,0:0:0:0:
448,192,98834,1,0,0:0:0:0:
192,192,99015,1,0,0:0:0:0:
320,192,99015,1,0,0:0:0:0:
448,192,99015,1,0,0:0:0:0:
192,192,99197,1,0,0:0:0:0:
320,192,99197,1,0,0:0:0:0:
448,192,99197,1,0,0:0:0:0:
64,192,99379,1,0,0:0:0:0:
192,192,99379,1,0,0:0:0:0:
320,192,99379,1,0,0:0:0:0:
320,192,99561,1,0,0:0:0:0:
192,192,99561,1,0,0:0:0:0:
64,192,99561,1,0,0:0:0:0:
64,192,99743,1,0,0:0:0:0:
192,192,99743,1,0,0:0:0:0:
448,192,99743,1,0,0:0:0:0:
64,192,99925,1,0,0:0:0:0:
448,192,99925,1,0,0:0:0:0:
192,192,99925,1,0,0:0:0:0:
320,192,100106,128,0,100175:0:0:0:0:
64,192,100106,128,0,100175:0:0:0:0:
448,192,100106,128,0,100447:0:0:0:0:
192,192,100243,1,0,0:0:0:0:
320,192,100243,1,0,0:0:0:0:
320,192,100379,128,0,100447:0:0:0:0:
192,192,100379,128,0,100447:0:0:0:0:
64,192,100379,128,0,100720:0:0:0:0:
320,192,100515,1,0,0:0:0:0:
448,192,100515,1,0,0:0:0:0:
320,192,100652,128,0,100720:0:0:0:0:
448,192,100652,128,0,100993:0:0:0:0:
192,192,100788,1,0,0:0:0:0:
64,192,100788,1,0,0:0:0:0:
320,192,100925,128,0,100993:0:0:0:0:
64,192,100925,128,0,100993:0:0:0:0:
192,192,100925,128,0,101265:0:0:0:0:
64,192,101061,1,0,0:0:0:0:
320,192,101061,1,0,0:0:0:0:
64,192,101197,128,0,101265:0:0:0:0:
320,192,101197,128,0,101538:0:0:0:0:
192,192,101334,1,0,0:0:0:0:
64,192,101334,1,0,0:0:0:0:
64,192,101470,128,0,101538:0:0:0:0:
192,192,101470,128,0,101538:0:0:0:0:
448,192,101470,128,0,101811:0:0:0:0:
192,192,101606,1,0,0:0:0:0:
320,192,101606,1,0,0:0:0:0:
320,192,101743,128,0,101811:0:0:0:0:
64,192,101743,128,0,102084:0:0:0:0:
192,192,101879,1,0,0:0:0:0:
448,192,101879,1,0,0:0:0:0:
320,192,102015,128,0,102356:0:0:0:0:
192,192,102015,128,0,102084:0:0:0:0:
448,192,102015,128,0,102084:0:0:0:0:
192,192,102152,1,0,0:0:0:0:
64,192,102152,1,0,0:0:0:0:
192,192,102288,128,0,102629:0:0:0:0:
64,192,102288,128,0,102356:0:0:0:0:
448,192,102425,1,0,0:0:0:0:
320,192,102425,1,0,0:0:0:0:
448,192,102561,128,0,102902:0:0:0:0:
320,192,102561,128,0,102629:0:0:0:0:
64,192,102561,128,0,102629:0:0:0:0:
64,192,102697,1,0,0:0:0:0:
192,192,102697,1,0,0:0:0:0:
64,192,102834,128,0,103175:0:0:0:0:
192,192,102834,128,0,102902:0:0:0:0:
320,192,102970,1,0,0:0:0:0:
448,192,102970,1,0,0:0:0:0:
192,192,103106,128,0,103447:0:0:0:0:
320,192,103106,128,0,103175:0:0:0:0:
448,192,103106,128,0,103175:0:0:0:0:
320,192,103243,1,0,0:0:0:0:
448,192,103243,1,0,0:0:0:0:
320,192,103379,128,0,103720:0:0:0:0:
448,192,103379,128,0,103447:0:0:0:0:
192,192,103515,1,0,0:0:0:0:
64,192,103515,1,0,0:0:0:0:
448,192,103652,128,0,103993:0:0:0:0:
64,192,103652,128,0,103720:0:0:0:0:
192,192,103652,128,0,103720:0:0:0:0:
64,192,103788,1,0,0:0:0:0:
320,192,103788,1,0,0:0:0:0:
192,192,103925,128,0,104265:0:0:0:0:
320,192,103925,128,0,103993:0:0:0:0:
64,192,104061,1,0,0:0:0:0:
448,192,104061,1,0,0:0:0:0:
320,192,104197,128,0,104265:0:0:0:0:
448,192,104197,128,0,104265:0:0:0:0:
64,192,104197,128,0,104538:0:0:0:0:
320,192,104334,1,0,0:0:0:0:
448,192,104334,1,0,0:0:0:0:
320,192,104470,128,0,104811:0:0:0:0:
192,192,104470,128,0,104538:0:0:0:0:
64,192,104606,1,0,0:0:0:0:
192,192,104606,1,0,0:0:0:0:
192,192,104743,128,0,105084:0:0:0:0:
64,192,104743,128,0,104811:0:0:0:0:
448,192,104743,128,0,104811:0:0:0:0:
320,192,104879,1,0,0:0:0:0:
448,192,104879,1,0,0:0:0:0:
448,192,105015,128,0,105356:0:0:0:0:
320,192,105015,128,0,105084:0:0:0:0:
64,192,105152,1,0,0:0:0:0:
192,192,105152,1,0,0:0:0:0:
320,192,105288,128,0,105629:0:0:0:0:
64,192,105288,128,0,105356:0:0:0:0:
192,192,105288,128,0,105356:0:0:0:0:
64,192,105425,1,0,0:0:0:0:
448,192,105425,1,0,0:0:0:0:
64,192,105561,128,0,105902:0:0:0:0:
448,192,105561,128,0,105629:0:0:0:0:
320,192,105697,1,0,0:0:0:0:
448,192,105697,1,0,0:0:0:0:
192,192,105834,128,0,106175:0:0:0:0:
320,192,105834,128,0,105902:0:0:0:0:
448,192,105834,128,0,105902:0:0:0:0:
64,192,105970,1,0,0:0:0:0:
448,192,105970,1,0,0:0:0:0:
448,192,106106,128,0,106447:0:0:0:0:
64,192,106106,128,0,106175:0:0:0:0:
192,192,106243,1,0,0:0:0:0:
64,192,106243,1,0,0:0:0:0:
320,192,106379,128,0,106720:0:0:0:0:
64,192,106379,128,0,106447:0:0:0:0:
192,192,106379,128,0,106447:0:0:0:0:
64,192,106515,1,0,0:0:0:0:
448,192,106515,1,0,0:0:0:0:
192,192,106652,128,0,106993:0:0:0:0:
448,192,106652,128,0,106925:0:0:0:0:
64,192,106652,128,0,106720:0:0:0:0:
320,192,106788,1,0,0:0:0:0:
64,192,106788,1,0,0:0:0:0:
64,192,106925,128,0,107265:0:0:0:0:
320,192,106925,1,0,0:0:0:0:
448,192,106993,1,0,0:0:0:0:
192,192,107061,1,0,0:0:0:0:
320,192,107129,1,0,0:0:0:0:
448,192,107197,128,0,107538:0:0:0:0:
192,192,107197,128,0,107470:0:0:0:0:
320,192,107334,1,0,0:0:0:0:
64,192,107334,1,0,0:0:0:0:
320,192,107470,1,0,0:0:0:0:
64,192,107470,128,0,107811:0:0:0:0:
192,192,107538,1,0,0:0:0:0:
448,192,107606,1,0,0:0:0:0:
320,192,107675,1,0,0:0:0:0:
192,192,107743,128,0,107811:0:0:0:0:
448,192,107743,128,0,108084:0:0:0:0:
64,192,107879,1,0,0:0:0:0:
192,192,107879,1,0,0:0:0:0:
64,192,108015,128,0,108084:0:0:0:0:
192,192,108015,128,0,108084:0:0:0:0:
320,192,108015,128,0,108084:0:0:0:0:
192,192,108152,128,0,108220:0:0:0:0:
320,192,108152,128,0,108220:0:0:0:0:
448,192,108152,128,0,108561:0:0:0:0:
64,192,108425,1,0,0:0:0:0:
192,192,108425,1,0,0:0:0:0:
192,192,108561,1,0,0:0:0:0:
64,192,108561,1,0,0:0:0:0:
320,192,108561,128,0,108902:0:0:0:0:
192,192,108834,128,0,108902:0:0:0:0:
64,192,108834,128,0,109175:0:0:0:0:
448,192,108834,128,0,108902:0:0:0:0:
320,192,108970,1,0,0:0:0:0:
192,192,108970,1,0,0:0:0:0:
192,192,109106,128,0,109175:0:0:0:0:
320,192,109106,128,0,109175:0:0:0:0:
448,192,109106,128,0,109447:0:0:0:0:
192,192,109243,1,0,0:0:0:0:
64,192,109243,1,0,0:0:0:0:
192,192,109379,128,0,109447:0:0:0:0:
64,192,109379,128,0,109720:0:0:0:0:
320,192,109515,1,0,0:0:0:0:
448,192,109515,1,0,0:0:0:0:
192,192,109652,128,0,109720:0:0:0:0:
448,192,109652,128,0,109720:0:0:0:0:
320,192,109652,128,0,109993:0:0:0:0:
448,192,109788,1,0,0:0:0:0:
192,192,109788,1,0,0:0:0:0:
448,192,109925,128,0,109993:0:0:0:0:
192,192,109925,128,0,110265:0:0:0:0:
320,192,110061,1,0,0:0:0:0:
448,192,110061,1,0,0:0:0:0:
448,192,110197,128,0,110265:0:0:0:0:
320,192,110197,128,0,110265:0:0:0:0:
64,192,110197,128,0,110538:0:0:0:0:
320,192,110334,1,0,0:0:0:0:
192,192,110334,1,0,0:0:0:0:
192,192,110470,128,0,110538:0:0:0:0:
448,192,110470,128,0,110811:0:0:0:0:
320,192,110606,1,0,0:0:0:0:
64,192,110606,1,0,0:0:0:0:
192,192,110743,128,0,111084:0:0:0:0:
320,192,110743,128,0,110811:0:0:0:0:
64,192,110743,128,0,110811:0:0:0:0:
320,192,110879,1,0,0:0:0:0:
448,192,110879,1,0,0:0:0:0:
320,192,111015,128,0,111356:0:0:0:0:
448,192,111015,128,0,111084:0:0:0:0:
64,192,111152,1,0,0:0:0:0:
192,192,111152,1,0,0:0:0:0:
64,192,111288,128,0,111629:0:0:0:0:
192,192,111288,128,0,111356:0:0:0:0:
448,192,111288,128,0,111356:0:0:0:0:
448,192,111425,1,0,0:0:0:0:
320,192,111425,1,0,0:0:0:0:
448,192,111561,128,0,111902:0:0:0:0:
320,192,111561,128,0,111629:0:0:0:0:
192,192,111697,1,0,0:0:0:0:
64,192,111697,1,0,0:0:0:0:
320,192,111834,128,0,112175:0:0:0:0:
192,192,111834,128,0,111902:0:0:0:0:
64,192,111834,128,0,111902:0:0:0:0:
192,192,111970,1,0,0:0:0:0:
64,192,111970,1,0,0:0:0:0:
192,192,112106,128,0,112447:0:0:0:0:
64,192,112106,128,0,112175:0:0:0:0:
320,192,112243,1,0,0:0:0:0:
448,192,112243,1,0,0:0:0:0:
64,192,112379,128,0,112720:0:0:0:0:
448,192,112379,128,0,112447:0:0:0:0:
320,192,112379,128,0,112447:0:0:0:0:
448,192,112515,1,0,0:0:0:0:
192,192,112515,1,0,0:0:0:0:
320,192,112652,128,0,112993:0:0:0:0:
192,192,112652,128,0,112720:0:0:0:0:
448,192,112788,1,0,0:0:0:0:
64,192,112788,1,0,0:0:0:0:
192,192,112925,128,0,112993:0:0:0:0:
64,192,112925,128,0,112993:0:0:0:0:
448,192,112925,128,0,113265:0:0:0:0:
192,192,113061,1,0,0:0:0:0:
64,192,113061,1,0,0:0:0:0:
192,192,113197,128,0,113538:0:0:0:0:
320,192,113197,128,0,113265:0:0:0:0:
448,192,113334,1,0,0:0:0:0:
320,192,113334,1,0,0:0:0:0:
320,192,113470,128,0,113811:0:0:0:0:
448,192,113470,128,0,113538:0:0:0:0:
64,192,113470,128,0,113538:0:0:0:0:
192,192,113606,1,0,0:0:0:0:
64,192,113606,1,0,0:0:0:0:
64,192,113743,128,0,114084:0:0:0:0:
192,192,113743,128,0,113811:0:0:0:0:
448,192,113879,1,0,0:0:0:0:
320,192,113879,1,0,0:0:0:0:
192,192,114015,128,0,114356:0:0:0:0:
448,192,114015,128,0,114084:0:0:0:0:
320,192,114015,128,0,114084:0:0:0:0:
448,192,114152,1,0,0:0:0:0:
64,192,114152,1,0,0:0:0:0:
448,192,114288,128,0,114629:0:0:0:0:
64,192,114288,128,0,114356:0:0:0:0:
192,192,114425,1,0,0:0:0:0:
64,192,114425,1,0,0:0:0:0:
320,192,114561,128,0,114902:0:0:0:0:
192,192,114561,128,0,114629:0:0:0:0:
64,192,114561,128,0,114629:0:0:0:0:
448,192,114697,1,0,0:0:0:0:
64,192,114697,1,0,0:0:0:0:
64,192,114834,128,0,115175:0:0:0:0:
448,192,114834,128,0,114902:0:0:0:0:
320,192,114970,1,0,0:0:0:0:
448,192,114970,1,0,0:0:0:0:
192,192,115106,128,0,115447:0:0:0:0:
448,192,115106,128,0,115175:0:0:0:0:
320,192,115106,128,0,115175:0:0:0:0:
448,192,115243,1,0,0:0:0:0:
64,192,115243,1,0,0:0:0:0:
320,192,115379,128,0,115720:0:0:0:0:
64,192,115379,128,0,115652:0:0:0:0:
448,192,115379,128,0,115447:0:0:0:0:
192,192,115515,1,0,0:0:0:0:
448,192,115515,1,0,0:0:0:0:
448,192,115652,128,0,115993:0:0:0:0:
192,192,115652,1,0,0:0:0:0:
64,192,115720,1,0,0:0:0:0:
320,192,115788,1,0,0:0:0:0:
192,192,115856,1,0,0:0:0:0:
64,192,115925,128,0,116265:0:0:0:0:
320,192,115925,128,0,116197:0:0:0:0:
192,192,116061,1,0,0:0:0:0:
448,192,116061,1,0,0:0:0:0:
192,192,116197,1,0,0:0:0:0:
448,192,116197,128,0,116538:0:0:0:0:
320,192,116265,1,0,0:0:0:0:
64,192,116334,1,0,0:0:0:0:
192,192,116402,1,0,0:0:0:0:
320,192,116470,128,0,116538:0:0:0:0:
64,192,116470,128,0,116811:0:0:0:0:
448,192,116606,1,0,0:0:0:0:
320,192,116606,1,0,0:0:0:0:
448,192,116743,128,0,116811:0:0:0:0:
320,192,116743,128,0,116811:0:0:0:0:
192,192,116743,128,0,116811:0:0:0:0:
320,192,116879,128,0,116947:0:0:0:0:
192,192,116879,128,0,116947:0:0:0:0:
64,192,116879,128,0,117288:0:0:0:0:
448,192,116879,128,0,116947:0:0:0:0:
192,192,117288,1,0,0:0:0:0:
320,192,117288,1,0,0:0:0:0:
448,192,117288,128,0,117561:0:0:0:0:
320,192,117561,1,0,0:0:0:0:
192,192,117561,1,0,0:0:0:0:
64,192,117561,1,0,0:0:0:0:
64,192,117697,1,0,0:0:0:0:
192,192,117697,1,0,0:0:0:0:
320,192,117697,1,0,0:0:0:0:
192,192,117970,1,0,0:0:0:0:
448,192,117970,1,0,0:0:0:0:
320,192,117970,1,0,0:0:0:0:
192,192,118106,1,0,0:0:0:0:
320,192,118106,1,0,0:0:0:0:
448,192,118106,1,0,0:0:0:0:
320,192,118379,1,0,0:0:0:0:
192,192,118379,1,0,0:0:0:0:
64,192,118379,1,0,0:0:0:0:
64,192,118515,1,0,0:0:0:0:
192,192,118515,1,0,0:0:0:0:
320,192,118515,1,0,0:0:0:0:
192,192,118788,1,0,0:0:0:0:
320,192,118788,1,0,0:0:0:0:
448,192,118788,1,0,0:0:0:0:
192,192,118925,1,0,0:0:0:0:
320,192,118925,1,0,0:0:0:0:
448,192,118925,1,0,0:0:0:0:
64,192,119197,128,0,119265:0:0:0:0:
192,192,119197,128,0,119265:0:0:0:0:
320,192,119334,1,0,0:0:0:0:
192,192,119402,1,0,0:0:0:0:
448,192,119402,1,0,0:0:0:0:
64,192,119470,1,0,0:0:0:0:
320,192,119538,1,0,0:0:0:0:
448,192,119538,1,0,0:0:0:0:
192,192,119606,1,0,0:0:0:0:
64,192,119606,1,0,0:0:0:0:
64,192,119743,1,0,0:0:0:0:
320,192,119743,1,0,0:0:0:0:
448,192,119743,1,0,0:0:0:0:
64,192,119879,1,0,0:0:0:0:
320,192,119879,1,0,0:0:0:0:
448,192,119879,1,0,0:0:0:0:
192,192,120152,1,0,0:0:0:0:
448,192,120152,1,0,0:0:0:0:
64,192,120152,1,0,0:0:0:0:
192,192,120288,1,0,0:0:0:0:
64,192,120288,1,0,0:0:0:0:
448,192,120288,1,0,0:0:0:0:
320,192,120561,1,0,0:0:0:0:
448,192,120561,1,0,0:0:0:0:
64,192,120561,1,0,0:0:0:0:
64,192,120697,1,0,0:0:0:0:
320,192,120697,1,0,0:0:0:0:
448,192,120697,1,0,0:0:0:0:
192,192,120970,1,0,0:0:0:0:
64,192,120970,1,0,0:0:0:0:
448,192,120970,1,0,0:0:0:0:
448,192,121106,1,0,0:0:0:0:
64,192,121106,1,0,0:0:0:0:
192,192,121106,1,0,0:0:0:0:
320,192,121652,128,0,121720:0:0:0:0:
448,192,121652,128,0,121720:0:0:0:0:
192,192,121925,1,0,0:0:0:0:
64,192,121925,1,0,0:0:0:0:
320,192,121925,1,0,0:0:0:0:
64,192,122061,1,0,0:0:0:0:
192,192,122061,1,0,0:0:0:0:
320,192,122061,1,0,0:0:0:0:
192,192,122334,1,0,0:0:0:0:
320,192,122334,1,0,0:0:0:0:
448,192,122334,1,0,0:0:0:0:
192,192,122470,1,0,0:0:0:0:
320,192,122470,1,0,0:0:0:0:
448,192,122470,1,0,0:0:0:0:
64,192,122743,1,0,0:0:0:0:
320,192,122743,1,0,0:0:0:0:
192,192,122743,1,0,0:0:0:0:
64,192,122879,1,0,0:0:0:0:
320,192,122879,1,0,0:0:0:0:
192,192,122879,1,0,0:0:0:0:
192,192,123152,1,0,0:0:0:0:
320,192,123152,1,0,0:0:0:0:
448,192,123152,1,0,0:0:0:0:
320,192,123288,1,0,0:0:0:0:
448,192,123288,128,0,123765:0:0:0:0:
64,192,123288,128,0,123697:0:0:0:0:
192,192,123425,128,0,123561:0:0:0:0:
320,192,123561,128,0,123834:0:0:0:0:
192,192,123697,128,0,123834:0:0:0:0:
448,192,123834,128,0,124038:0:0:0:0:
64,192,123834,128,0,124038:0:0:0:0:
320,192,123902,128,0,124038:0:0:0:0:
192,192,123970,128,0,124106:0:0:0:0:
64,192,124106,1,0,0:0:0:0:
448,192,124106,1,0,0:0:0:0:
320,192,124106,1,0,0:0:0:0:
64,192,124243,1,0,0:0:0:0:
320,192,124243,1,0,0:0:0:0:
448,192,124243,1,0,0:0:0:0:
192,192,124515,1,0,0:0:0:0:
64,192,124515,1,0,0:0:0:0:
448,192,124515,1,0,0:0:0:0:
64,192,124652,1,0,0:0:0:0:
192,192,124652,1,0,0:0:0:0:
448,192,124652,1,0,0:0:0:0:
192,192,124925,1,0,0:0:0:0:
320,192,124925,1,0,0:0:0:0:
448,192,124925,128,0,129561:0:0:0:0:
64,192,125197,1,0,0:0:0:0:
192,192,125197,1,0,0:0:0:0:
320,192,125334,1,0,0:0:0:0:
192,192,125470,1,0,0:0:0:0:
64,192,125470,1,0,0:0:0:0:
64,192,125606,1,0,0:0:0:0:
64,192,125743,1,0,0:0:0:0:
192,192,125879,1,0,0:0:0:0:
320,192,125879,1,0,0:0:0:0:
64,192,126015,1,0,0:0:0:0:
320,192,126152,1,0,0:0:0:0:
192,192,126220,1,0,0:0:0:0:
64,192,126288,1,0,0:0:0:0:
192,192,126356,1,0,0:0:0:0:
320,192,126425,1,0,0:0:0:0:
192,192,126561,1,0,0:0:0:0:
64,192,126561,1,0,0:0:0:0:
320,192,126697,1,0,0:0:0:0:
192,192,126765,1,0,0:0:0:0:
64,192,126834,1,0,0:0:0:0:
192,192,126902,1,0,0:0:0:0:
320,192,126970,1,0,0:0:0:0:
64,192,126970,1,0,0:0:0:0:
192,192,127106,1,0,0:0:0:0:
320,192,127175,1,0,0:0:0:0:
320,192,127311,1,0,0:0:0:0:
192,192,127379,1,0,0:0:0:0:
64,192,127379,1,0,0:0:0:0:
64,192,127515,1,0,0:0:0:0:
320,192,127652,1,0,0:0:0:0:
192,192,127652,1,0,0:0:0:0:
64,192,127788,1,0,0:0:0:0:
192,192,127788,1,0,0:0:0:0:
64,192,127925,1,0,0:0:0:0:
320,192,127925,1,0,0:0:0:0:
192,192,128061,1,0,0:0:0:0:
320,192,128061,1,0,0:0:0:0:
192,192,128197,1,0,0:0:0:0:
64,192,128197,1,0,0:0:0:0:
64,192,128334,1,0,0:0:0:0:
320,192,128334,1,0,0:0:0:0:
192,192,128470,1,0,0:0:0:0:
320,192,128470,1,0,0:0:0:0:
64,192,128606,1,0,0:0:0:0:
192,192,128606,1,0,0:0:0:0:
320,192,128675,1,0,0:0:0:0:
192,192,128743,1,0,0:0:0:0:
64,192,128811,1,0,0:0:0:0:
320,192,128879,1,0,0:0:0:0:
192,192,128879,1,0,0:0:0:0:
64,192,129015,1,0,0:0:0:0:
192,192,129015,1,0,0:0:0:0:
320,192,129084,1,0,0:0:0:0:
192,192,129152,1,0,0:0:0:0:
64,192,129220,1,0,0:0:0:0:
192,192,129288,1,0,0:0:0:0:
320,192,129288,1,0,0:0:0:0:
64,192,129425,1,0,0:0:0:0:
192,192,129425,1,0,0:0:0:0:
320,192,129561,1,0,0:0:0:0:
192,192,129561,1,0,0:0:0:0:
64,192,129561,1,0,0:0:0:0:
