osu file format v14

[General]
AudioFilename: audio.mp3
AudioLeadIn: 0
PreviewTime: 39377
Countdown: 0
SampleSet: Normal
StackLeniency: 0.7
Mode: 1
LetterboxInBreaks: 0
WidescreenStoryboard: 0

[Editor]
Bookmarks: 4540,6735,10686,11564,11857,20345,20637,20784,20930,21223,29418,30589,35271,44637,56052,57515,58686,61906,62784,63369,65710,66589,67467,68052,76832,77418,86637,96149,105515,109028,114003,121320,133613
DistanceSpacing: 1
BeatDivisor: 4
GridSize: 4
TimelineZoom: 2.2

[Metadata]
Title:Revolver (Sped Up Ver.)
TitleUnicode:Revolver (Sped Up Ver.)
Artist:buelow
ArtistUnicode:bülow
Creator:Undead Alice
Version:Babero's Inner Oni
Source:
Tags:bulow english pop slim-san slim san slim_san UndeadAlice drum and & bass dnb lLenin iLenin LordTimeWaste LTW babero speed John Doe John_Doe JohnDoe liku The Law The_Law megan d&b synthpop
BeatmapID:4288731
BeatmapSetID:2053260

[Difficulty]
HPDrainRate:6
CircleSize:2
OverallDifficulty:6.5
ApproachRate:10
SliderMultiplier:1.4
SliderTickRate:1

[Events]
//Background and Video events
0,0,"100006639_p0.jpg",0,0
//Break Periods
2,30797,34829
2,105723,109756
//Storyboard Layer 0 (Background)
//Storyboard Layer 1 (Fail)
//Storyboard Layer 2 (Pass)
//Storyboard Layer 3 (Foreground)
//Storyboard Layer 4 (Overlay)
//Storyboard Sound Samples

[TimingPoints]
158,292.682926829268,4,1,0,70,1,0
158,-142.857142857143,4,1,0,70,0,0
1616,-142.857142857143,4,1,0,70,0,0
1762,-141.826268562999,4,1,0,70,0,0
1909,-138.861706887983,4,1,0,70,0,0
2055,-134.420529655955,4,1,0,70,0,0
2201,-129.045155138811,4,1,0,70,0,0
2274,-126.187178071855,4,1,0,70,0,0
2348,-123.264504316375,4,1,0,70,0,0
2421,-120.414406283969,4,1,0,70,0,0
2494,-117.647058823529,4,1,0,70,0,0
10982,-117.647058823529,4,1,0,70,0,0
11128,-117.179443944566,4,1,0,70,0,0
11201,-116.607489133567,4,1,0,70,0,0
11274,-115.829505041259,4,1,0,70,0,0
11348,-114.852386594224,4,1,0,70,0,0
11421,-113.728209261131,4,1,0,70,0,0
11494,-112.473261808526,4,1,0,70,0,0
11567,-111.117486399576,4,1,0,70,0,0
11713,-108.224767716701,4,1,0,70,0,0
11860,-105.263157894737,4,1,0,70,0,0
20055,-105.263157894737,4,1,0,70,0,0
20348,-107.543179608987,4,1,0,70,0,0
20640,-114.275598569159,4,1,0,70,0,0
20787,-119.226964105789,4,1,0,70,0,0
20933,-125,4,1,0,70,0,0
21231,-133.333333333333,4,1,0,70,0,0
29421,-133.333333333333,4,1,0,70,0,0
29713,-130.753535919088,4,1,0,70,0,0
30006,-124.000120014729,4,1,0,70,0,0
30152,-119.78506640947,4,1,0,70,0,0
30226,-117.570813373608,4,1,0,70,0,0
30299,-115.382047221568,4,1,0,70,0,0
30445,-111.111111111111,4,1,0,70,0,0
30597,-108.108108108108,4,1,0,70,0,0
30743,-142.857142857143,4,1,0,70,0,0
37031,-142.857142857143,4,1,0,70,0,0
37177,-139.138187221397,4,1,0,70,0,0
37323,-135.607947633667,4,1,0,70,0,0
37470,-132.230004518753,4,1,0,70,0,0
37616,-129.037592327197,4,1,0,70,0,0
37762,-125.995694294941,4,1,0,70,0,0
37909,-123.074496609011,4,1,0,70,0,0
38055,-120.304229405417,4,1,0,70,0,0
38201,-117.655928029351,4,1,0,70,0,0
38348,-115.104730061953,4,1,0,70,0,0
38494,-112.678090103966,4,1,0,70,0,0
38640,-110.351654567738,4,1,0,70,0,0
38787,-108.104363888248,4,1,0,70,0,0
38933,-105.961164169646,4,1,0,70,0,0
39079,-92.5925925925926,4,1,0,70,0,0
39372,-100,4,1,0,70,0,0
39518,-99.2470741035659,4,1,0,70,0,0
39665,-97.1454471926383,4,1,0,70,0,0
39738,-95.7371385446627,4,1,0,70,0,0
39811,-94.1802551131559,4,1,0,70,0,0
39884,-92.5476994176721,4,1,0,70,0,0
39962,-90.9090909090909,4,1,0,70,0,1
48445,-90.9090909090909,4,1,0,70,0,1
48592,-93.7633489961555,4,1,0,70,0,1
48738,-96.7813051146384,4,1,0,70,0,1
49031,-103.464529813811,4,1,0,70,0,1
49328,-111.111111111111,4,1,0,70,0,0
55762,-111.111111111111,4,1,0,70,0,0
56055,-120.585177406044,4,1,0,70,0,0
56348,-125,4,1,0,70,0,0
57518,-125,4,1,0,70,0,0
57592,-123.330525809169,4,1,0,70,0,0
57665,-121.726738317202,4,1,0,70,0,0
57811,-118.641125065108,4,1,0,70,0,0
57957,-115.708076988203,4,1,0,70,0,0
58104,-112.89789624408,4,1,0,70,0,0
58250,-110.238761023876,4,1,0,70,0,0
58396,-107.702006934959,4,1,0,70,0,0
58470,-106.46032405484,4,1,0,70,0,0
58543,-105.263157894737,4,1,0,70,0,0
58694,-100,4,1,0,70,0,0
58987,-142.857142857143,4,1,0,70,0,0
65421,-142.857142857143,4,1,0,70,0,0
65713,-150.445583827915,4,1,0,70,0,0
66006,-153.846153846154,4,1,0,70,0,0
66592,-153.846153846154,4,1,0,70,0,0
66738,-141.202959150852,4,1,0,70,0,0
66884,-130.480011888839,4,1,0,70,0,0
67031,-121.212121212121,4,1,0,70,0,0
67177,-113.224579276549,4,1,0,70,0,0
67323,-106.224668804065,4,1,0,70,0,0
67470,-100,4,1,0,70,0,0
67616,-99.2470741035659,4,1,0,70,0,0
67762,-97.1633686737121,4,1,0,70,0,0
67835,-95.7576014139724,4,1,0,70,0,0
67909,-94.1802551131559,4,1,0,70,0,0
67982,-92.5476994176721,4,1,0,70,0,0
68060,-90.9090909090909,4,1,0,70,0,1
76250,-90.9090909090909,4,1,0,70,0,1
76323,-93.0946396181852,4,1,0,70,0,1
76396,-95.2287240899973,4,1,0,70,0,1
76470,-97.1663447543148,4,1,0,70,0,1
76548,-98.6837671792841,4,1,0,70,0,0
76689,-100,4,1,0,70,0,0
76835,-100,4,1,0,70,0,0
76982,-99.2394861744215,4,1,0,70,0,0
77128,-97.1544131218801,4,1,0,70,0,0
77201,-95.7499223909783,4,1,0,70,0,0
77274,-94.1967398387221,4,1,0,70,0,0
77348,-92.5448892990972,4,1,0,70,0,0
77426,-90.9090909090909,4,1,0,70,0,1
85621,-90.9090909090909,4,1,0,70,0,0
85909,-96.3905008848829,4,1,0,70,0,0
86055,-99.376246446302,4,1,0,70,0,0
86201,-102.552874720848,4,1,0,70,0,0
86348,-105.963261243326,4,1,0,70,0,0
86494,-109.582631480442,4,1,0,70,0,0
86640,-113.457998255983,4,1,0,70,0,0
86713,-115.500320560241,4,1,0,70,0,0
86787,-117.647058823529,4,1,0,70,0,0
94689,-117.647058823529,4,1,0,70,0,0
94835,-114.293152824785,4,1,0,70,0,0
94909,-112.665212370076,4,1,0,70,0,0
94982,-111.104080987029,4,1,0,70,0,0
95128,-108.108108108108,4,1,0,70,0,0
95274,-105.269468257299,4,1,0,70,0,0
95421,-102.55811237005,4,1,0,70,0,0
95567,-100,4,1,0,70,0,0
95713,-102.559607293128,4,1,0,70,0,0
95860,-105.27262911643,4,1,0,70,0,0
96006,-108.113102938459,4,1,0,70,0,0
96079,-109.591607343574,4,1,0,70,0,0
96152,-111.111111111111,4,1,0,70,0,0
104348,-111.111111111111,4,1,0,70,0,0
104494,-110.80363527153,4,1,0,70,0,0
104640,-109.90640076088,4,1,0,70,0,0
104787,-108.479810744285,4,1,0,70,0,0
104933,-106.651435334653,4,1,0,70,0,0
105079,-104.54210306491,4,1,0,70,0,0
105226,-102.271382158553,4,1,0,70,0,0
105372,-100,4,1,0,70,0,0
105523,-98.0392156862745,4,1,0,70,0,0
105670,-142.857142857143,4,1,0,70,0,0
111957,-142.857142857143,4,1,0,70,0,0
112104,-139.114939114939,4,1,0,70,0,0
112250,-135.587332831587,4,1,0,70,0,0
112396,-132.234204731523,4,1,0,70,0,0
112543,-129.021595416483,4,1,0,70,0,0
112689,-125.981710597095,4,1,0,70,0,0
112835,-123.081774227454,4,1,0,70,0,0
112982,-120.293800400637,4,1,0,70,0,0
113128,-117.647058823529,4,1,0,70,0,0
113274,-115.114278692553,4,1,0,70,0,0
113421,-112.671990763014,4,1,0,70,0,0
113567,-110.346777233321,4,1,0,70,0,0
113713,-108.115594127966,4,1,0,70,0,0
113860,-105.958467176401,4,1,0,70,0,0
114006,-92.5925925925926,4,1,0,70,0,0
114299,-100,4,1,0,70,0,0
114445,-99.2470741035659,4,1,0,70,0,0
114592,-97.1454471926383,4,1,0,70,0,0
114665,-95.7371385446627,4,1,0,70,0,0
114738,-94.1802551131559,4,1,0,70,0,0
114811,-92.5476994176721,4,1,0,70,0,0
114889,-90.9090909090909,4,1,0,70,0,1
123079,-90.9090909090909,4,1,0,70,0,1
123152,-92.885144959716,4,1,0,70,0,1
123226,-94.924950383253,4,1,0,70,0,1
123299,-96.9192538775086,4,1,0,70,0,1
123377,-98.8357017669054,4,1,0,70,0,0
123518,-102.177890906311,4,1,0,70,0,0
123665,-104.460266608922,4,1,0,70,0,0
123811,-105.263157894737,4,1,0,70,0,0
123957,-104.460266608922,4,1,0,70,0,0
124104,-102.177890906311,4,1,0,70,0,0
124255,-98.8357017669054,4,1,0,70,0,1
124323,-96.9192538775086,4,1,0,70,0,1
124396,-94.924950383253,4,1,0,70,0,1
124470,-92.885144959716,4,1,0,70,0,1
124543,-90.9090909090909,4,1,0,70,0,1
133323,-90.9090909090909,4,1,0,70,0,1
133470,-91.8771429951224,4,1,0,70,0,1
133621,-92.8592346739555,4,1,0,70,0,0
134787,-101.56687932093,4,1,0,70,0,0
135957,-112.066680411157,4,1,0,70,0,0
137128,-125,4,1,0,70,0,0

[HitObjects]
448,64,158,5,2,0:0:0:0:
64,64,450,1,0,0:0:0:0:
448,64,743,1,2,0:0:0:0:
64,64,889,1,0,0:0:0:0:
64,64,1036,1,0,0:0:0:0:
64,64,1182,1,0,0:0:0:0:
448,64,1328,1,2,0:0:0:0:
448,64,1475,1,2,0:0:0:0:
64,64,1621,1,0,0:0:0:0:
64,64,1767,1,0,0:0:0:0:
448,64,1914,1,2,0:0:0:0:
64,64,2060,1,0,0:0:0:0:
448,64,2206,1,2,0:0:0:0:
448,64,2279,1,2,0:0:0:0:
64,64,2353,1,0,0:0:0:0:
64,64,2426,1,0,0:0:0:0:
448,64,2499,1,2,0:0:0:0:
64,64,2645,1,0,0:0:0:0:
64,64,2792,1,0,0:0:0:0:
64,64,2938,1,0,0:0:0:0:
448,64,3084,1,2,0:0:0:0:
64,64,3231,1,0,0:0:0:0:
64,64,3523,1,0,0:0:0:0:
448,64,3670,1,2,0:0:0:0:
64,64,3816,1,0,0:0:0:0:
448,64,4109,1,2,0:0:0:0:
64,64,4255,1,0,0:0:0:0:
64,64,4401,1,0,0:0:0:0:
448,64,4548,1,2,0:0:0:0:
64,64,4694,1,0,0:0:0:0:
448,64,4840,1,2,0:0:0:0:
448,64,4987,1,2,0:0:0:0:
64,64,5133,1,0,0:0:0:0:
64,64,5279,1,0,0:0:0:0:
448,64,5426,1,2,0:0:0:0:
448,64,5572,1,2,0:0:0:0:
64,64,5865,1,0,0:0:0:0:
448,64,6011,1,2,0:0:0:0:
64,64,6157,1,0,0:0:0:0:
64,64,6450,1,0,0:0:0:0:
64,64,6597,1,0,0:0:0:0:
448,64,6743,1,2,0:0:0:0:
64,64,6889,1,0,0:0:0:0:
64,64,7036,1,0,0:0:0:0:
64,64,7109,1,0,0:0:0:0:
448,64,7182,1,2,0:0:0:0:
64,64,7328,1,0,0:0:0:0:
448,64,7475,1,2,0:0:0:0:
448,64,7621,1,2,0:0:0:0:
64,64,7767,1,0,0:0:0:0:
448,64,8060,1,2,0:0:0:0:
448,64,8133,1,2,0:0:0:0:
64,64,8206,1,0,0:0:0:0:
448,64,8353,1,2,0:0:0:0:
64,64,8645,1,0,0:0:0:0:
64,64,8792,1,0,0:0:0:0:
448,64,8938,1,2,0:0:0:0:
64,64,9231,1,0,0:0:0:0:
448,64,9377,1,2,0:0:0:0:
64,64,9523,1,0,0:0:0:0:
64,64,9816,1,0,0:0:0:0:
448,64,9962,1,2,0:0:0:0:
448,64,10109,1,2,0:0:0:0:
64,64,10182,1,0,0:0:0:0:
448,64,10255,1,2,0:0:0:0:
64,64,10401,1,0,0:0:0:0:
448,64,10548,1,2,0:0:0:0:
448,64,10694,1,2,0:0:0:0:
64,64,10840,1,0,0:0:0:0:
448,64,10987,1,2,0:0:0:0:
64,64,11133,1,0,0:0:0:0:
64,64,11206,1,0,0:0:0:0:
448,64,11279,1,2,0:0:0:0:
448,64,11353,1,2,0:0:0:0:
64,64,11426,1,0,0:0:0:0:
64,64,11499,1,0,0:0:0:0:
448,64,11572,1,2,0:0:0:0:
448,64,11718,1,2,0:0:0:0:
64,64,11865,1,0,0:0:0:0:
64,64,12011,1,0,0:0:0:0:
448,64,12157,1,2,0:0:0:0:
448,64,12304,1,2,0:0:0:0:
448,64,12450,1,2,0:0:0:0:
64,64,12597,1,0,0:0:0:0:
64,64,12670,1,0,0:0:0:0:
448,64,12743,1,2,0:0:0:0:
64,64,12889,1,0,0:0:0:0:
64,64,13036,1,0,0:0:0:0:
64,64,13182,1,0,0:0:0:0:
448,64,13328,1,2,0:0:0:0:
64,64,13621,1,0,0:0:0:0:
448,64,13767,1,2,0:0:0:0:
64,64,13914,1,0,0:0:0:0:
448,64,14060,1,2,0:0:0:0:
448,64,14133,1,2,0:0:0:0:
64,64,14206,1,0,0:0:0:0:
448,64,14353,1,2,0:0:0:0:
448,64,14499,1,2,0:0:0:0:
64,64,14645,1,0,0:0:0:0:
448,64,14792,1,2,0:0:0:0:
448,64,14938,1,2,0:0:0:0:
64,64,15084,1,0,0:0:0:0:
448,64,15231,1,2,0:0:0:0:
64,64,15304,1,0,0:0:0:0:
448,64,15377,1,2,0:0:0:0:
64,64,15523,1,0,0:0:0:0:
448,64,15670,1,2,0:0:0:0:
448,64,15962,1,2,0:0:0:0:
448,64,16109,1,2,0:0:0:0:
64,64,16255,1,0,0:0:0:0:
64,64,16328,1,0,0:0:0:0:
448,64,16401,1,2,0:0:0:0:
448,64,16475,1,2,0:0:0:0:
64,64,16548,1,0,0:0:0:0:
448,64,16694,1,2,0:0:0:0:
64,64,16840,1,0,0:0:0:0:
64,64,16914,1,0,0:0:0:0:
448,64,16987,1,2,0:0:0:0:
64,64,17133,1,0,0:0:0:0:
448,64,17279,1,8,0:0:0:0:
448,64,17426,1,2,0:0:0:0:
64,64,17572,1,0,0:0:0:0:
448,64,17718,1,2,0:0:0:0:
448,64,17792,1,8,0:0:0:0:
64,64,17865,1,0,0:0:0:0:
448,64,18011,1,2,0:0:0:0:
64,64,18157,1,0,0:0:0:0:
448,64,18304,1,2,0:0:0:0:
64,64,18377,1,0,0:0:0:0:
448,64,18450,1,2,0:0:0:0:
64,64,18597,1,0,0:0:0:0:
448,64,18743,1,2,0:0:0:0:
64,64,18889,1,0,0:0:0:0:
448,64,18962,1,2,0:0:0:0:
64,64,19036,1,0,0:0:0:0:
64,64,19109,1,0,0:0:0:0:
448,64,19182,1,2,0:0:0:0:
64,64,19328,1,0,0:0:0:0:
448,64,19475,1,2,0:0:0:0:
448,64,19621,1,2,0:0:0:0:
64,64,19767,1,0,0:0:0:0:
64,64,19914,1,0,0:0:0:0:
448,64,20060,1,2,0:0:0:0:
448,320,20353,1,6,0:0:0:0:
64,64,20645,1,0,0:0:0:0:
64,64,20792,1,0,0:0:0:0:
448,320,20938,1,6,0:0:0:0:
448,64,21231,1,2,0:0:0:0:
64,64,21523,1,0,0:0:0:0:
64,64,21816,1,0,0:0:0:0:
448,64,22109,1,2,0:0:0:0:
64,64,22401,1,0,0:0:0:0:
64,64,22694,1,0,0:0:0:0:
448,64,22987,1,2,0:0:0:0:
448,64,23279,1,2,0:0:0:0:
64,64,23572,1,0,0:0:0:0:
64,64,23865,1,0,0:0:0:0:
448,64,24157,1,2,0:0:0:0:
448,64,24450,1,8,0:0:0:0:
64,320,24743,1,4,0:0:0:0:
64,320,25328,1,4,0:0:0:0:
448,64,25621,1,8,0:0:0:0:
448,64,25914,1,2,0:0:0:0:
64,64,26206,1,0,0:0:0:0:
448,64,26499,1,2,0:0:0:0:
64,64,26792,1,0,0:0:0:0:
64,64,27084,1,0,0:0:0:0:
64,64,27377,1,0,0:0:0:0:
448,64,27670,1,2,0:0:0:0:
64,64,27962,1,0,0:0:0:0:
64,64,28255,1,0,0:0:0:0:
64,64,28548,1,0,0:0:0:0:
448,64,28840,1,2,0:0:0:0:
448,64,29133,1,2,0:0:0:0:
448,64,29279,1,2,0:0:0:0:
64,64,29426,1,0,0:0:0:0:
448,64,29718,1,2,0:0:0:0:
64,64,30011,1,0,0:0:0:0:
448,64,30157,1,2,0:0:0:0:
448,64,30231,1,2,0:0:0:0:
64,64,30304,1,0,0:0:0:0:
448,64,30450,1,2,0:0:0:0:
64,64,30597,1,0,0:0:0:0:
64,64,35279,5,0,0:0:0:0:
64,64,35572,1,0,0:0:0:0:
64,64,35865,1,0,0:0:0:0:
64,64,36157,1,0,0:0:0:0:
64,64,36450,1,0,0:0:0:0:
64,64,36743,1,0,0:0:0:0:
64,64,37036,1,0,0:0:0:0:
64,64,37182,1,0,0:0:0:0:
64,64,37328,1,0,0:0:0:0:
448,64,37475,1,8,0:0:0:0:
448,64,37621,1,8,0:0:0:0:
64,64,37767,1,0,0:0:0:0:
64,64,37914,1,0,0:0:0:0:
448,64,38060,1,8,0:0:0:0:
448,64,38206,1,8,0:0:0:0:
64,64,38353,1,0,0:0:0:0:
64,64,38499,1,0,0:0:0:0:
448,64,38645,1,8,0:0:0:0:
448,64,38792,1,8,0:0:0:0:
448,64,38938,1,8,0:0:0:0:
64,320,39084,1,4,0:0:0:0:
64,64,39377,1,0,0:0:0:0:
448,64,39523,1,2,0:0:0:0:
64,64,39670,1,0,0:0:0:0:
64,64,39743,1,0,0:0:0:0:
448,64,39816,1,2,0:0:0:0:
448,64,39889,1,2,0:0:0:0:
64,64,39962,1,0,0:0:0:0:
448,64,40255,1,2,0:0:0:0:
64,64,40401,1,0,0:0:0:0:
448,64,40548,1,2,0:0:0:0:
448,64,40621,1,2,0:0:0:0:
64,64,40694,1,0,0:0:0:0:
448,64,40840,1,2,0:0:0:0:
64,64,40987,1,0,0:0:0:0:
448,64,41060,1,0,0:0:0:0:
64,64,41133,1,8,0:0:0:0:
448,64,41206,1,0,0:0:0:0:
448,64,41279,1,2,0:0:0:0:
64,64,41426,1,0,0:0:0:0:
448,64,41572,1,2,0:0:0:0:
64,64,41718,1,0,0:0:0:0:
64,64,41792,1,0,0:0:0:0:
448,64,41865,1,2,0:0:0:0:
64,64,42011,1,0,0:0:0:0:
448,64,42157,1,2,0:0:0:0:
64,64,42231,1,0,0:0:0:0:
448,64,42304,1,2,0:0:0:0:
448,64,42377,1,2,0:0:0:0:
64,64,42450,1,0,0:0:0:0:
448,64,42597,1,2,0:0:0:0:
64,64,42743,1,0,0:0:0:0:
448,64,42889,1,2,0:0:0:0:
448,64,42962,1,2,0:0:0:0:
64,64,43036,1,0,0:0:0:0:
448,64,43182,1,2,0:0:0:0:
64,64,43328,1,0,0:0:0:0:
64,64,43401,1,0,0:0:0:0:
448,64,43475,1,2,0:0:0:0:
448,64,43548,1,2,0:0:0:0:
64,64,43621,1,0,0:0:0:0:
448,64,43767,1,2,0:0:0:0:
64,64,43914,1,0,0:0:0:0:
448,64,43987,1,2,0:0:0:0:
64,64,44060,1,0,0:0:0:0:
448,64,44206,1,2,0:0:0:0:
448,64,44353,1,2,0:0:0:0:
64,64,44499,1,0,0:0:0:0:
448,64,44572,1,8,0:0:0:0:
64,64,44645,1,0,0:0:0:0:
64,64,44718,1,0,0:0:0:0:
448,64,44792,1,2,0:0:0:0:
64,64,44938,1,0,0:0:0:0:
448,64,45084,1,2,0:0:0:0:
448,64,45157,1,2,0:0:0:0:
64,64,45231,1,0,0:0:0:0:
64,64,45304,1,0,0:0:0:0:
448,64,45377,1,2,0:0:0:0:
64,64,45523,1,0,0:0:0:0:
448,64,45670,1,2,0:0:0:0:
64,64,45743,1,0,0:0:0:0:
448,64,45816,1,2,0:0:0:0:
448,64,45889,1,2,0:0:0:0:
64,64,45962,1,0,0:0:0:0:
448,64,46109,1,2,0:0:0:0:
64,64,46255,1,0,0:0:0:0:
448,64,46401,1,2,0:0:0:0:
64,64,46475,1,0,0:0:0:0:
448,64,46548,1,8,0:0:0:0:
64,64,46694,1,0,0:0:0:0:
448,64,46840,1,8,0:0:0:0:
448,64,46914,1,8,0:0:0:0:
64,64,46987,1,0,0:0:0:0:
448,64,47060,1,8,0:0:0:0:
64,64,47133,1,0,0:0:0:0:
64,64,47206,1,0,0:0:0:0:
448,64,47279,1,8,0:0:0:0:
64,64,47426,1,0,0:0:0:0:
64,64,47499,1,0,0:0:0:0:
448,64,47572,1,8,0:0:0:0:
448,64,47645,1,8,0:0:0:0:
64,64,47718,1,0,0:0:0:0:
448,64,47792,1,8,0:0:0:0:
64,64,47865,1,0,0:0:0:0:
448,64,48011,1,8,0:0:0:0:
448,64,48084,1,8,0:0:0:0:
64,64,48157,1,0,0:0:0:0:
64,64,48231,1,0,0:0:0:0:
448,64,48304,1,8,0:0:0:0:
64,64,48377,1,0,0:0:0:0:
448,64,48450,1,8,0:0:0:0:
64,64,48597,1,0,0:0:0:0:
448,64,48743,1,2,0:0:0:0:
64,320,49036,1,4,0:0:0:0:
64,320,49328,1,4,0:0:0:0:
64,64,49621,1,0,0:0:0:0:
448,64,49767,1,2,0:0:0:0:
64,64,49914,1,0,0:0:0:0:
64,64,50060,1,0,0:0:0:0:
448,64,50206,1,6,0:0:0:0:
64,64,50499,1,4,0:0:0:0:
448,64,50792,1,2,0:0:0:0:
64,64,50938,1,0,0:0:0:0:
448,64,51084,1,2,0:0:0:0:
64,64,51231,1,0,0:0:0:0:
64,64,51304,1,0,0:0:0:0:
448,64,51377,1,2,0:0:0:0:
64,64,51670,1,0,0:0:0:0:
448,64,51962,1,2,0:0:0:0:
64,64,52255,1,0,0:0:0:0:
64,64,52401,1,0,0:0:0:0:
448,64,52548,1,2,0:0:0:0:
64,64,52840,1,0,0:0:0:0:
448,64,53133,1,2,0:0:0:0:
448,64,53206,1,2,0:0:0:0:
64,64,53279,1,0,0:0:0:0:
448,64,53426,1,2,0:0:0:0:
64,64,53572,1,0,0:0:0:0:
64,64,53645,1,0,0:0:0:0:
64,64,53718,1,0,0:0:0:0:
64,64,54011,1,0,0:0:0:0:
64,64,54304,1,0,0:0:0:0:
64,64,54597,1,0,0:0:0:0:
448,64,54889,1,2,0:0:0:0:
64,64,55182,1,0,0:0:0:0:
448,64,55475,1,2,0:0:0:0:
448,64,55767,1,2,0:0:0:0:
64,64,56060,1,0,0:0:0:0:
64,64,56353,1,0,0:0:0:0:
448,64,56645,1,2,0:0:0:0:
64,64,56938,1,0,0:0:0:0:
448,64,57231,1,2,0:0:0:0:
448,64,57523,1,2,0:0:0:0:
448,64,57597,1,2,0:0:0:0:
64,64,57670,1,0,0:0:0:0:
448,64,57816,1,2,0:0:0:0:
64,64,57962,1,0,0:0:0:0:
448,64,58109,1,2,0:0:0:0:
64,64,58255,1,0,0:0:0:0:
448,64,58401,1,2,0:0:0:0:
448,64,58475,1,2,0:0:0:0:
448,64,58548,1,2,0:0:0:0:
64,64,58694,1,0,0:0:0:0:
448,64,58987,1,2,0:0:0:0:
448,64,59279,1,2,0:0:0:0:
448,64,59572,1,2,0:0:0:0:
64,64,59865,1,0,0:0:0:0:
64,64,60157,1,0,0:0:0:0:
448,64,60450,1,2,0:0:0:0:
448,64,60743,1,2,0:0:0:0:
64,64,61036,1,0,0:0:0:0:
64,64,61328,1,0,0:0:0:0:
448,64,61621,1,2,0:0:0:0:
64,64,61914,1,0,0:0:0:0:
64,64,62060,1,0,0:0:0:0:
448,64,62206,1,8,0:0:0:0:
448,64,62353,1,2,0:0:0:0:
64,64,62499,1,0,0:0:0:0:
64,64,62792,1,0,0:0:0:0:
64,64,63084,1,0,0:0:0:0:
448,64,63377,1,2,0:0:0:0:
64,64,63670,1,0,0:0:0:0:
448,64,63962,1,2,0:0:0:0:
448,64,64255,1,2,0:0:0:0:
64,64,64548,1,0,0:0:0:0:
64,64,64840,1,0,0:0:0:0:
448,64,65133,1,2,0:0:0:0:
64,64,65426,1,0,0:0:0:0:
64,64,65718,1,0,0:0:0:0:
64,64,66011,1,0,0:0:0:0:
448,64,66304,1,2,0:0:0:0:
64,64,66597,1,0,0:0:0:0:
64,64,66743,1,0,0:0:0:0:
448,64,66889,1,2,0:0:0:0:
64,64,67036,1,0,0:0:0:0:
64,64,67182,1,0,0:0:0:0:
64,64,67328,1,0,0:0:0:0:
448,64,67475,1,2,0:0:0:0:
448,64,67621,1,2,0:0:0:0:
64,64,67767,1,0,0:0:0:0:
64,64,67840,1,0,0:0:0:0:
448,64,67914,1,2,0:0:0:0:
64,64,67987,1,0,0:0:0:0:
448,64,68060,1,2,0:0:0:0:
448,64,68353,1,2,0:0:0:0:
64,64,68499,1,0,0:0:0:0:
448,64,68645,1,2,0:0:0:0:
448,64,68718,1,2,0:0:0:0:
64,64,68792,1,0,0:0:0:0:
448,64,68938,1,2,0:0:0:0:
64,64,69084,1,0,0:0:0:0:
448,64,69157,1,0,0:0:0:0:
64,64,69231,1,8,0:0:0:0:
448,64,69304,1,0,0:0:0:0:
448,64,69377,1,2,0:0:0:0:
64,64,69523,1,0,0:0:0:0:
448,64,69670,1,2,0:0:0:0:
64,64,69816,1,0,0:0:0:0:
64,64,69889,1,0,0:0:0:0:
448,64,69962,1,2,0:0:0:0:
64,64,70109,1,0,0:0:0:0:
448,64,70255,1,2,0:0:0:0:
64,64,70328,1,0,0:0:0:0:
448,64,70401,1,2,0:0:0:0:
448,64,70475,1,2,0:0:0:0:
64,64,70548,1,0,0:0:0:0:
448,64,70694,1,2,0:0:0:0:
64,64,70840,1,0,0:0:0:0:
448,64,70987,1,2,0:0:0:0:
448,64,71060,1,2,0:0:0:0:
64,64,71133,1,0,0:0:0:0:
448,64,71279,1,2,0:0:0:0:
64,64,71426,1,0,0:0:0:0:
64,64,71499,1,0,0:0:0:0:
448,64,71572,1,2,0:0:0:0:
448,64,71645,1,2,0:0:0:0:
64,64,71718,1,0,0:0:0:0:
448,64,71865,1,2,0:0:0:0:
64,64,72011,1,0,0:0:0:0:
448,64,72084,1,2,0:0:0:0:
64,64,72157,1,0,0:0:0:0:
448,64,72304,1,2,0:0:0:0:
448,64,72450,1,2,0:0:0:0:
64,64,72597,1,0,0:0:0:0:
448,64,72670,1,8,0:0:0:0:
64,64,72743,1,0,0:0:0:0:
64,64,72816,1,0,0:0:0:0:
448,64,72889,1,2,0:0:0:0:
64,64,73036,1,0,0:0:0:0:
448,64,73182,1,2,0:0:0:0:
448,64,73255,1,2,0:0:0:0:
64,64,73328,1,0,0:0:0:0:
64,64,73401,1,0,0:0:0:0:
448,64,73475,1,2,0:0:0:0:
64,64,73621,1,0,0:0:0:0:
448,64,73767,1,2,0:0:0:0:
64,64,73840,1,0,0:0:0:0:
448,64,73914,1,2,0:0:0:0:
448,64,73987,1,2,0:0:0:0:
64,64,74060,1,0,0:0:0:0:
448,64,74206,1,2,0:0:0:0:
64,64,74353,1,0,0:0:0:0:
448,64,74499,1,2,0:0:0:0:
64,64,74572,1,0,0:0:0:0:
448,64,74645,1,8,0:0:0:0:
64,64,74792,1,0,0:0:0:0:
448,64,74938,1,8,0:0:0:0:
448,64,75011,1,0,0:0:0:0:
64,64,75084,1,0,0:0:0:0:
448,64,75157,1,0,0:0:0:0:
64,64,75231,1,8,0:0:0:0:
64,64,75304,1,8,0:0:0:0:
448,64,75377,1,0,0:0:0:0:
64,64,75523,1,8,0:0:0:0:
64,64,75597,1,0,0:0:0:0:
448,64,75670,1,8,0:0:0:0:
448,64,75743,1,8,0:0:0:0:
64,64,75816,1,0,0:0:0:0:
448,64,75889,1,0,0:0:0:0:
64,64,75962,1,8,0:0:0:0:
448,64,76109,1,0,0:0:0:0:
448,64,76182,1,0,0:0:0:0:
64,64,76255,1,8,0:0:0:0:
64,64,76328,1,0,0:0:0:0:
448,64,76401,1,0,0:0:0:0:
64,64,76475,1,0,0:0:0:0:
448,64,76548,1,8,0:0:0:0:
64,64,76694,1,0,0:0:0:0:
448,64,76840,1,8,0:0:0:0:
448,64,76987,1,8,0:0:0:0:
64,64,77133,1,0,0:0:0:0:
64,64,77206,1,0,0:0:0:0:
448,64,77279,1,8,0:0:0:0:
64,64,77353,1,0,0:0:0:0:
448,64,77426,1,2,0:0:0:0:
64,64,77572,1,0,0:0:0:0:
448,64,77718,1,2,0:0:0:0:
448,64,77792,1,2,0:0:0:0:
64,64,77865,1,0,0:0:0:0:
448,64,78011,1,2,0:0:0:0:
64,64,78157,1,0,0:0:0:0:
448,64,78231,1,2,0:0:0:0:
64,64,78304,1,0,0:0:0:0:
448,64,78377,1,0,0:0:0:0:
448,64,78450,1,2,0:0:0:0:
64,64,78597,1,0,0:0:0:0:
448,64,78743,1,2,0:0:0:0:
64,64,78889,1,0,0:0:0:0:
64,64,78962,1,0,0:0:0:0:
448,64,79036,1,2,0:0:0:0:
64,64,79182,1,0,0:0:0:0:
448,64,79328,1,2,0:0:0:0:
64,64,79401,1,0,0:0:0:0:
448,64,79475,1,2,0:0:0:0:
448,64,79548,1,2,0:0:0:0:
64,64,79621,1,0,0:0:0:0:
448,64,79767,1,2,0:0:0:0:
64,64,79914,1,0,0:0:0:0:
448,64,80060,1,2,0:0:0:0:
448,64,80133,1,2,0:0:0:0:
64,64,80206,1,0,0:0:0:0:
448,64,80353,1,2,0:0:0:0:
64,64,80499,1,0,0:0:0:0:
64,64,80572,1,0,0:0:0:0:
448,64,80645,1,2,0:0:0:0:
448,64,80718,1,2,0:0:0:0:
64,64,80792,1,0,0:0:0:0:
448,64,80938,1,2,0:0:0:0:
64,64,81084,1,0,0:0:0:0:
448,64,81157,1,2,0:0:0:0:
64,64,81231,1,0,0:0:0:0:
448,64,81377,1,2,0:0:0:0:
448,64,81523,1,2,0:0:0:0:
64,64,81670,1,0,0:0:0:0:
448,64,81743,1,8,0:0:0:0:
64,64,81816,1,0,0:0:0:0:
64,64,81889,1,0,0:0:0:0:
448,64,81962,1,2,0:0:0:0:
64,64,82109,1,0,0:0:0:0:
448,64,82255,1,2,0:0:0:0:
448,64,82328,1,2,0:0:0:0:
64,64,82401,1,0,0:0:0:0:
64,64,82475,1,0,0:0:0:0:
448,64,82548,1,2,0:0:0:0:
64,64,82694,1,0,0:0:0:0:
448,64,82840,1,2,0:0:0:0:
64,64,82914,1,0,0:0:0:0:
448,64,82987,1,2,0:0:0:0:
448,64,83060,1,2,0:0:0:0:
64,64,83133,1,0,0:0:0:0:
448,64,83279,1,2,0:0:0:0:
64,64,83426,1,0,0:0:0:0:
448,64,83572,1,2,0:0:0:0:
64,64,83645,1,0,0:0:0:0:
448,64,83718,1,8,0:0:0:0:
64,64,83865,1,0,0:0:0:0:
448,64,84011,1,8,0:0:0:0:
448,64,84084,1,0,0:0:0:0:
64,64,84157,1,0,0:0:0:0:
448,64,84231,1,0,0:0:0:0:
64,64,84304,1,8,0:0:0:0:
64,64,84377,1,8,0:0:0:0:
448,64,84450,1,0,0:0:0:0:
64,64,84597,1,8,0:0:0:0:
64,64,84670,1,0,0:0:0:0:
448,64,84743,1,8,0:0:0:0:
448,64,84816,1,8,0:0:0:0:
64,64,84889,1,0,0:0:0:0:
448,64,84962,1,0,0:0:0:0:
64,64,85036,1,8,0:0:0:0:
448,64,85182,1,0,0:0:0:0:
448,64,85255,1,0,0:0:0:0:
64,64,85328,1,8,0:0:0:0:
64,64,85401,1,0,0:0:0:0:
448,64,85475,1,0,0:0:0:0:
64,64,85548,1,0,0:0:0:0:
448,64,85621,1,8,0:0:0:0:
448,64,85914,1,8,0:0:0:0:
64,64,86060,1,0,0:0:0:0:
448,64,86206,1,2,0:0:0:0:
64,64,86353,1,0,0:0:0:0:
448,64,86499,1,2,0:0:0:0:
448,64,86645,1,2,0:0:0:0:
448,64,86718,1,2,0:0:0:0:
64,64,86792,1,0,0:0:0:0:
64,64,87084,1,0,0:0:0:0:
448,64,87231,1,2,0:0:0:0:
448,64,87304,1,2,0:0:0:0:
448,64,87377,1,2,0:0:0:0:
64,64,87523,1,0,0:0:0:0:
64,64,87670,1,0,0:0:0:0:
448,64,87816,1,2,0:0:0:0:
64,64,87962,1,0,0:0:0:0:
64,64,88036,1,0,0:0:0:0:
448,64,88109,1,2,0:0:0:0:
64,64,88255,1,0,0:0:0:0:
448,64,88401,1,2,0:0:0:0:
448,64,88475,1,2,0:0:0:0:
448,64,88548,1,2,0:0:0:0:
64,64,88694,1,0,0:0:0:0:
448,64,88840,1,2,0:0:0:0:
448,64,88987,1,2,0:0:0:0:
64,64,89133,1,0,0:0:0:0:
64,64,89426,1,0,0:0:0:0:
448,64,89572,1,2,0:0:0:0:
448,64,89645,1,2,0:0:0:0:
448,64,89718,1,2,0:0:0:0:
64,64,89865,1,0,0:0:0:0:
448,64,90011,1,2,0:0:0:0:
448,64,90157,1,2,0:0:0:0:
448,64,90304,1,2,0:0:0:0:
64,64,90450,1,0,0:0:0:0:
448,64,90597,1,2,0:0:0:0:
64,64,90743,1,0,0:0:0:0:
64,64,90816,1,0,0:0:0:0:
448,64,90889,1,2,0:0:0:0:
64,64,91036,1,0,0:0:0:0:
448,64,91182,1,2,0:0:0:0:
448,64,91328,1,2,0:0:0:0:
64,64,91475,1,0,0:0:0:0:
64,64,91767,1,0,0:0:0:0:
448,64,91914,1,2,0:0:0:0:
448,64,91987,1,2,0:0:0:0:
448,64,92060,1,2,0:0:0:0:
64,64,92206,1,0,0:0:0:0:
448,64,92353,1,2,0:0:0:0:
448,64,92499,1,2,0:0:0:0:
64,64,92645,1,0,0:0:0:0:
64,64,92792,1,0,0:0:0:0:
448,64,92938,1,2,0:0:0:0:
448,64,93084,1,2,0:0:0:0:
64,64,93157,1,0,0:0:0:0:
448,64,93231,1,8,0:0:0:0:
64,64,93377,1,0,0:0:0:0:
448,64,93523,1,8,0:0:0:0:
64,64,93670,1,0,0:0:0:0:
64,64,93743,1,0,0:0:0:0:
448,64,93816,1,2,0:0:0:0:
64,64,93962,1,0,0:0:0:0:
448,64,94109,1,2,0:0:0:0:
64,64,94255,1,0,0:0:0:0:
64,64,94328,1,0,0:0:0:0:
448,64,94401,1,2,0:0:0:0:
64,64,94548,1,0,0:0:0:0:
64,64,94694,1,0,0:0:0:0:
448,64,94840,1,8,0:0:0:0:
448,64,94914,1,2,0:0:0:0:
64,320,94987,1,4,0:0:0:0:
448,64,95133,1,2,0:0:0:0:
64,320,95279,1,4,0:0:0:0:
448,64,95426,1,2,0:0:0:0:
64,320,95572,1,4,0:0:0:0:
448,64,95718,1,8,0:0:0:0:
448,64,95865,1,2,0:0:0:0:
64,64,96011,1,0,0:0:0:0:
64,64,96084,1,0,0:0:0:0:
448,64,96157,1,2,0:0:0:0:
448,64,96450,1,2,0:0:0:0:
64,64,96597,1,0,0:0:0:0:
448,64,96743,1,2,0:0:0:0:
448,64,96816,1,2,0:0:0:0:
64,64,96889,1,0,0:0:0:0:
64,64,97036,1,0,0:0:0:0:
448,64,97182,1,2,0:0:0:0:
448,64,97328,1,2,0:0:0:0:
64,64,97475,1,0,0:0:0:0:
64,64,97621,1,0,0:0:0:0:
448,64,97767,1,2,0:0:0:0:
64,64,97840,1,0,0:0:0:0:
448,64,97914,1,8,0:0:0:0:
64,64,98060,1,0,0:0:0:0:
448,64,98206,1,2,0:0:0:0:
448,64,98353,1,2,0:0:0:0:
64,64,98499,1,0,0:0:0:0:
448,64,98792,1,2,0:0:0:0:
64,64,98938,1,0,0:0:0:0:
64,64,99011,1,0,0:0:0:0:
448,64,99084,1,2,0:0:0:0:
64,64,99231,1,0,0:0:0:0:
448,64,99377,1,2,0:0:0:0:
448,64,99523,1,2,0:0:0:0:
448,64,99670,1,2,0:0:0:0:
64,64,99816,1,0,0:0:0:0:
448,64,99962,1,2,0:0:0:0:
448,64,100109,1,2,0:0:0:0:
64,64,100182,1,0,0:0:0:0:
448,64,100255,1,2,0:0:0:0:
64,64,100401,1,0,0:0:0:0:
64,64,100548,1,0,0:0:0:0:
448,64,100694,1,2,0:0:0:0:
448,64,100840,1,2,0:0:0:0:
448,64,101133,1,2,0:0:0:0:
448,64,101206,1,2,0:0:0:0:
64,64,101279,1,0,0:0:0:0:
448,64,101426,1,2,0:0:0:0:
64,64,101572,1,0,0:0:0:0:
64,64,101645,1,0,0:0:0:0:
448,64,101718,1,2,0:0:0:0:
64,64,101865,1,0,0:0:0:0:
448,64,102011,1,2,0:0:0:0:
448,64,102157,1,2,0:0:0:0:
64,64,102304,1,0,0:0:0:0:
64,64,102450,1,0,0:0:0:0:
448,64,102597,1,2,0:0:0:0:
448,64,102670,1,2,0:0:0:0:
448,64,102743,1,2,0:0:0:0:
64,64,102889,1,0,0:0:0:0:
448,64,103036,1,2,0:0:0:0:
64,64,103182,1,0,0:0:0:0:
64,64,103328,1,0,0:0:0:0:
448,64,103475,1,2,0:0:0:0:
64,64,103621,1,0,0:0:0:0:
64,64,103694,1,0,0:0:0:0:
448,64,103767,1,2,0:0:0:0:
448,64,103914,1,2,0:0:0:0:
64,64,104060,1,0,0:0:0:0:
448,64,104206,1,2,0:0:0:0:
448,64,104279,1,2,0:0:0:0:
64,64,104353,1,0,0:0:0:0:
64,64,104499,1,0,0:0:0:0:
448,320,104645,1,6,0:0:0:0:
64,64,104792,1,0,0:0:0:0:
448,320,104938,1,6,0:0:0:0:
64,64,105084,1,0,0:0:0:0:
448,320,105231,1,12,0:0:0:0:
64,64,105377,1,0,0:0:0:0:
64,64,105523,1,0,0:0:0:0:
64,64,110206,5,0,0:0:0:0:
64,64,110499,1,0,0:0:0:0:
64,64,110792,1,0,0:0:0:0:
64,64,111084,1,0,0:0:0:0:
64,64,111377,1,0,0:0:0:0:
64,64,111670,1,0,0:0:0:0:
64,64,111962,1,0,0:0:0:0:
64,64,112109,1,0,0:0:0:0:
64,64,112255,1,0,0:0:0:0:
448,64,112401,1,8,0:0:0:0:
448,64,112548,1,8,0:0:0:0:
64,64,112694,1,0,0:0:0:0:
64,64,112840,1,0,0:0:0:0:
448,64,112987,1,8,0:0:0:0:
448,64,113133,1,8,0:0:0:0:
64,64,113279,1,0,0:0:0:0:
64,64,113426,1,0,0:0:0:0:
448,64,113572,1,8,0:0:0:0:
448,64,113718,1,8,0:0:0:0:
448,64,113865,1,8,0:0:0:0:
64,320,114011,1,4,0:0:0:0:
448,64,114304,1,2,0:0:0:0:
64,64,114450,1,0,0:0:0:0:
448,64,114597,1,8,0:0:0:0:
448,64,114670,1,8,0:0:0:0:
64,64,114743,1,0,0:0:0:0:
448,64,114816,1,2,0:0:0:0:
64,64,114889,1,0,0:0:0:0:
448,64,115182,1,2,0:0:0:0:
64,64,115328,1,0,0:0:0:0:
448,64,115475,1,2,0:0:0:0:
448,64,115548,1,2,0:0:0:0:
64,64,115621,1,0,0:0:0:0:
448,64,115767,1,2,0:0:0:0:
64,64,115914,1,0,0:0:0:0:
448,64,115987,1,0,0:0:0:0:
64,64,116060,1,8,0:0:0:0:
448,64,116133,1,0,0:0:0:0:
448,64,116206,1,2,0:0:0:0:
64,64,116353,1,0,0:0:0:0:
448,64,116499,1,2,0:0:0:0:
64,64,116645,1,0,0:0:0:0:
64,64,116718,1,0,0:0:0:0:
448,64,116792,1,2,0:0:0:0:
64,64,116938,1,0,0:0:0:0:
448,64,117084,1,2,0:0:0:0:
64,64,117157,1,0,0:0:0:0:
448,64,117231,1,2,0:0:0:0:
448,64,117304,1,2,0:0:0:0:
64,64,117377,1,0,0:0:0:0:
448,64,117523,1,2,0:0:0:0:
64,64,117670,1,0,0:0:0:0:
448,64,117816,1,2,0:0:0:0:
448,64,117889,1,2,0:0:0:0:
64,64,117962,1,0,0:0:0:0:
448,64,118109,1,2,0:0:0:0:
64,64,118255,1,0,0:0:0:0:
64,64,118328,1,0,0:0:0:0:
448,64,118401,1,2,0:0:0:0:
448,64,118475,1,2,0:0:0:0:
64,64,118548,1,0,0:0:0:0:
448,64,118694,1,2,0:0:0:0:
64,64,118840,1,0,0:0:0:0:
448,64,118914,1,2,0:0:0:0:
64,64,118987,1,0,0:0:0:0:
448,64,119133,1,2,0:0:0:0:
448,64,119279,1,2,0:0:0:0:
64,64,119426,1,0,0:0:0:0:
448,64,119499,1,8,0:0:0:0:
64,64,119572,1,0,0:0:0:0:
64,64,119645,1,0,0:0:0:0:
448,64,119718,1,2,0:0:0:0:
64,64,119865,1,0,0:0:0:0:
448,64,120011,1,2,0:0:0:0:
448,64,120084,1,2,0:0:0:0:
64,64,120157,1,0,0:0:0:0:
64,64,120231,1,0,0:0:0:0:
448,64,120304,1,2,0:0:0:0:
64,64,120450,1,0,0:0:0:0:
448,64,120597,1,2,0:0:0:0:
64,64,120670,1,0,0:0:0:0:
448,64,120743,1,2,0:0:0:0:
448,64,120816,1,2,0:0:0:0:
64,64,120889,1,0,0:0:0:0:
448,64,121036,1,2,0:0:0:0:
64,64,121182,1,0,0:0:0:0:
448,64,121328,1,2,0:0:0:0:
64,64,121401,1,0,0:0:0:0:
448,64,121475,1,8,0:0:0:0:
64,64,121621,1,0,0:0:0:0:
448,64,121767,1,8,0:0:0:0:
448,64,121840,1,8,0:0:0:0:
64,64,121914,1,0,0:0:0:0:
448,64,121987,1,8,0:0:0:0:
64,64,122060,1,0,0:0:0:0:
64,64,122133,1,0,0:0:0:0:
448,64,122206,1,8,0:0:0:0:
64,64,122353,1,0,0:0:0:0:
64,64,122426,1,0,0:0:0:0:
448,64,122499,1,8,0:0:0:0:
448,64,122572,1,8,0:0:0:0:
64,64,122645,1,0,0:0:0:0:
448,64,122718,1,8,0:0:0:0:
64,64,122792,1,0,0:0:0:0:
448,64,122938,1,8,0:0:0:0:
448,64,123011,1,8,0:0:0:0:
64,64,123084,1,0,0:0:0:0:
64,64,123157,1,0,0:0:0:0:
448,64,123231,1,8,0:0:0:0:
64,64,123304,1,0,0:0:0:0:
448,64,123377,1,8,0:0:0:0:
64,64,123523,1,0,0:0:0:0:
448,64,123670,1,2,0:0:0:0:
64,64,123816,1,0,0:0:0:0:
448,64,123962,1,8,0:0:0:0:
64,64,124109,1,0,0:0:0:0:
448,64,124255,1,2,0:0:0:0:
64,64,124328,1,0,0:0:0:0:
64,64,124401,1,0,0:0:0:0:
64,64,124475,1,0,0:0:0:0:
448,64,124548,1,2,0:0:0:0:
64,64,124694,1,0,0:0:0:0:
448,64,124840,1,2,0:0:0:0:
448,64,124914,1,2,0:0:0:0:
64,64,124987,1,0,0:0:0:0:
448,64,125133,1,2,0:0:0:0:
64,64,125279,1,0,0:0:0:0:
448,64,125426,1,8,0:0:0:0:
448,64,125499,1,8,0:0:0:0:
64,64,125572,1,0,0:0:0:0:
448,64,125645,1,8,0:0:0:0:
64,64,125718,1,0,0:0:0:0:
64,64,125792,1,0,0:0:0:0:
448,64,125865,1,2,0:0:0:0:
64,64,126011,1,0,0:0:0:0:
448,64,126157,1,2,0:0:0:0:
448,64,126231,1,2,0:0:0:0:
64,64,126304,1,0,0:0:0:0:
448,64,126450,1,2,0:0:0:0:
64,64,126597,1,0,0:0:0:0:
64,64,126670,1,0,0:0:0:0:
448,64,126743,1,8,0:0:0:0:
448,64,126816,1,2,0:0:0:0:
64,64,126889,1,0,0:0:0:0:
448,64,127036,1,2,0:0:0:0:
64,64,127182,1,0,0:0:0:0:
448,64,127255,1,2,0:0:0:0:
64,64,127328,1,0,0:0:0:0:
448,64,127475,1,2,0:0:0:0:
448,64,127621,1,0,0:0:0:0:
448,64,127767,1,8,0:0:0:0:
64,64,127840,1,0,0:0:0:0:
64,64,127914,1,0,0:0:0:0:
64,64,127987,1,0,0:0:0:0:
448,64,128060,1,2,0:0:0:0:
273,222,128133,1,8,0:0:0:0:
64,64,128206,1,0,0:0:0:0:
448,64,128353,1,8,0:0:0:0:
448,64,128426,1,2,0:0:0:0:
64,64,128499,1,0,0:0:0:0:
64,64,128572,1,0,0:0:0:0:
448,64,128645,1,8,0:0:0:0:
297,203,128718,1,0,0:0:0:0:
64,64,128792,1,8,0:0:0:0:
448,64,128938,1,0,0:0:0:0:
448,64,129084,1,8,0:0:0:0:
64,64,129231,1,0,0:0:0:0:
448,64,129377,1,2,0:0:0:0:
64,64,129450,1,0,0:0:0:0:
448,64,129523,1,2,0:0:0:0:
448,64,129597,1,2,0:0:0:0:
64,64,129670,1,0,0:0:0:0:
448,64,129816,1,2,0:0:0:0:
64,64,129962,1,0,0:0:0:0:
448,64,130109,1,2,0:0:0:0:
64,64,130182,1,0,0:0:0:0:
448,64,130255,1,8,0:0:0:0:
448,64,130328,1,8,0:0:0:0:
64,64,130401,1,0,0:0:0:0:
64,64,130475,1,0,0:0:0:0:
448,64,130548,1,2,0:0:0:0:
64,64,130694,1,0,0:0:0:0:
448,64,130840,1,8,0:0:0:0:
448,64,130914,1,2,0:0:0:0:
64,64,130987,1,0,0:0:0:0:
448,64,131133,1,2,0:0:0:0:
64,64,131279,1,0,0:0:0:0:
64,64,131353,1,0,0:0:0:0:
448,64,131426,1,8,0:0:0:0:
64,64,131499,1,0,0:0:0:0:
448,64,131572,1,8,0:0:0:0:
64,64,131718,1,0,0:0:0:0:
448,64,131865,1,2,0:0:0:0:
64,64,131938,1,0,0:0:0:0:
448,64,132011,1,2,0:0:0:0:
64,64,132157,1,0,0:0:0:0:
448,64,132304,1,2,0:0:0:0:
64,64,132450,1,0,0:0:0:0:
64,64,132523,1,0,0:0:0:0:
448,64,132597,1,8,0:0:0:0:
448,64,132670,1,0,0:0:0:0:
64,64,132743,1,0,0:0:0:0:
230,213,132816,1,0,0:0:0:0:
448,64,132889,1,8,0:0:0:0:
64,64,133036,1,0,0:0:0:0:
448,64,133109,1,0,0:0:0:0:
64,64,133182,1,2,0:0:0:0:
64,64,133255,1,2,0:0:0:0:
448,64,133328,1,0,0:0:0:0:
64,64,133475,1,0,0:0:0:0:
448,64,133621,1,2,0:0:0:0:
448,64,134792,1,8,0:0:0:0:
64,64,135962,1,0,0:0:0:0:
64,64,137133,1,0,0:0:0:0:
