osu file format v14

[General]
AudioFilename: audio.ogg
AudioLeadIn: 0
PreviewTime: 79934
Countdown: 0
SampleSet: Soft
StackLeniency: 0.7
Mode: 3
LetterboxInBreaks: 0
SpecialStyle: 0
WidescreenStoryboard: 1

[Editor]
DistanceSpacing: 1
BeatDivisor: 4
GridSize: 16
TimelineZoom: 1.8

[Metadata]
Title:Retribution
TitleUnicode:Retribution
Artist:brz1128+suimag
ArtistUnicode:brz1128+すいマグ
Creator:Hugged
Version:Insane
Source:
Tags:Gothic Hardcore Piano Harpsicord Electronic Instrumental Chordstream Chordjack Pastel breeze collection すいマグ すいかマグノリア散るちゃん suika magnolia chiru-chan
BeatmapID:3941969
BeatmapSetID:1910399

[Difficulty]
HPDrainRate:7.5
CircleSize:10
OverallDifficulty:7.5
ApproachRate:5
SliderMultiplier:1.4
SliderTickRate:1

[Events]
//Background and Video events
0,0,"peakpx.jpg",0,0
//Break Periods
//Storyboard Layer 0 (Background)
//Storyboard Layer 1 (Fail)
//Storyboard Layer 2 (Pass)
//Storyboard Layer 3 (Foreground)
//Storyboard Layer 4 (Overlay)
//Storyboard Sound Samples

[TimingPoints]
1619,315.78947368421,4,2,1,25,1,0
62250,-100,4,2,1,25,0,1
71092,-100,4,2,1,25,0,0
72355,-100,4,2,1,25,0,1
81197,-100,4,2,1,25,0,0
82461,-100,4,2,1,25,0,1
91303,-100,4,2,1,25,0,0
92566,-100,4,2,1,25,0,1
102671,-100,4,2,1,25,0,0

[HitObjects]
25,192,1619,5,0,0:0:0:70:kick.wav
76,192,1619,1,0,0:0:0:70:finish.wav
230,192,1619,1,0,0:0:0:0:
332,192,1619,1,0,0:0:0:0:
486,192,1619,1,0,0:0:0:0:
128,192,1934,1,0,0:0:0:0:
281,192,1934,1,0,0:0:0:0:
230,192,2092,1,0,0:0:0:0:
384,192,2092,1,0,0:0:0:0:
281,192,2408,1,0,0:0:0:0:
435,192,2408,1,0,0:0:0:0:
179,192,2566,1,0,0:0:0:0:
332,192,2566,1,0,0:0:0:0:
76,192,2724,1,0,0:0:0:0:
230,192,2724,1,0,0:0:0:0:
332,192,2882,1,0,0:0:0:0:
486,192,2882,1,0,0:0:0:0:
25,192,3040,1,0,0:0:0:0:
179,192,3040,1,0,0:0:0:0:
281,192,3197,1,0,0:0:0:0:
435,192,3197,1,0,0:0:0:0:
76,192,3355,1,0,0:0:0:0:
230,192,3355,1,0,0:0:0:0:
332,192,3513,1,0,0:0:0:0:
486,192,3513,1,0,0:0:0:0:
25,192,3829,1,0,0:0:0:0:
179,192,3829,1,0,0:0:0:0:
281,192,4145,1,0,0:0:0:0:
435,192,4145,1,0,0:0:0:0:
179,192,4461,1,0,0:0:0:0:
332,192,4461,1,0,0:0:0:0:
281,192,4618,1,0,0:0:0:0:
435,192,4618,1,0,0:0:0:0:
25,192,4934,1,0,0:0:0:0:
179,192,4934,1,0,0:0:0:0:
128,192,5092,1,0,0:0:0:0:
281,192,5092,1,0,0:0:0:0:
230,192,5250,1,0,0:0:0:0:
384,192,5250,1,0,0:0:0:0:
332,192,5408,1,0,0:0:0:0:
486,192,5408,1,0,0:0:0:0:
25,192,5566,1,0,0:0:0:0:
179,192,5566,1,0,0:0:0:0:
230,192,5724,1,0,0:0:0:0:
384,192,5724,1,0,0:0:0:0:
128,192,5882,1,0,0:0:0:0:
281,192,5882,1,0,0:0:0:0:
25,192,6040,1,0,0:0:0:0:
179,192,6040,1,0,0:0:0:0:
179,192,6513,1,0,0:0:0:0:
384,192,6513,1,0,0:0:0:0:
25,192,6671,1,0,0:0:0:0:
230,192,6671,1,0,0:0:0:0:
179,192,6987,1,0,0:0:0:0:
384,192,6987,1,0,0:0:0:0:
25,192,7145,1,0,0:0:0:0:
230,192,7145,1,0,0:0:0:0:
25,192,7461,1,0,0:0:0:0:
230,192,7461,1,0,0:0:0:0:
128,192,7618,1,0,0:0:0:0:
332,192,7618,1,0,0:0:0:0:
230,192,7776,1,0,0:0:0:0:
435,192,7776,1,0,0:0:0:0:
281,192,7934,1,0,0:0:0:0:
486,192,7934,1,0,0:0:0:0:
128,192,8250,1,0,0:0:0:0:
332,192,8250,1,0,0:0:0:0:
281,192,8408,1,0,0:0:0:0:
486,192,8408,1,0,0:0:0:0:
230,192,8724,1,0,0:0:0:0:
435,192,8724,1,0,0:0:0:0:
128,192,8882,1,0,0:0:0:0:
332,192,8882,1,0,0:0:0:0:
25,192,9040,1,0,0:0:0:0:
230,192,9040,1,0,0:0:0:0:
179,192,9197,1,0,0:0:0:0:
435,192,9197,1,0,0:0:0:0:
128,192,9355,1,0,0:0:0:0:
384,192,9355,1,0,0:0:0:0:
76,192,9513,1,0,0:0:0:0:
332,192,9513,1,0,0:0:0:0:
230,192,9671,1,0,0:0:0:0:
486,192,9671,1,0,0:0:0:0:
179,192,9829,1,0,0:0:0:0:
435,192,9829,1,0,0:0:0:0:
128,192,9987,1,0,0:0:0:0:
384,192,9987,1,0,0:0:0:0:
25,192,10145,1,0,0:0:0:0:
281,192,10145,1,0,0:0:0:0:
179,192,10303,1,0,0:0:0:0:
435,192,10303,1,0,0:0:0:0:
76,192,10461,1,0,0:0:0:0:
332,192,10461,1,0,0:0:0:0:
230,192,10618,1,0,0:0:0:0:
486,192,10618,1,0,0:0:0:0:
230,192,10934,1,0,0:0:0:0:
486,192,10934,1,0,0:0:0:0:
281,192,11250,128,0,11408:0:0:0:0:
76,192,11250,128,0,11408:0:0:0:0:
332,192,11408,128,0,11566:0:0:0:0:
128,192,11408,128,0,11566:0:0:0:0:
384,192,11566,128,0,11724:0:0:0:0:
179,192,11566,128,0,11724:0:0:0:0:
25,192,11724,1,0,0:0:0:70:finish.wav
230,192,11724,1,0,0:0:0:0:
281,192,11724,1,0,0:0:0:0:
486,192,11724,1,0,0:0:0:0:
128,192,12040,1,0,0:0:0:0:
281,192,12040,1,0,0:0:0:0:
230,192,12197,1,0,0:0:0:0:
384,192,12197,1,0,0:0:0:0:
25,192,12355,1,0,0:0:0:0:
179,192,12355,1,0,0:0:0:0:
486,192,12355,1,0,0:0:0:0:
230,192,12513,1,0,0:0:0:0:
384,192,12513,1,0,0:0:0:0:
128,192,12671,1,0,0:0:0:0:
281,192,12671,1,0,0:0:0:0:
25,192,12829,1,0,0:0:0:0:
179,192,12829,1,0,0:0:0:0:
281,192,12987,1,0,0:0:0:0:
486,192,12987,1,0,0:0:0:0:
25,192,13145,1,0,0:0:0:0:
230,192,13145,1,0,0:0:0:0:
332,192,13303,1,0,0:0:0:0:
435,192,13303,1,0,0:0:0:0:
76,192,13461,1,0,0:0:0:0:
179,192,13461,1,0,0:0:0:0:
230,192,13618,1,0,0:0:0:0:
281,192,13618,1,0,0:0:0:0:
486,192,13618,1,0,0:0:0:0:
25,192,13934,1,0,0:0:0:0:
230,192,13934,1,0,0:0:0:0:
281,192,13934,1,0,0:0:0:0:
179,192,14250,1,0,0:0:0:0:
332,192,14250,1,0,0:0:0:0:
435,192,14250,1,0,0:0:0:0:
76,192,14566,1,0,0:0:0:0:
230,192,14566,1,0,0:0:0:0:
179,192,14724,1,0,0:0:0:0:
332,192,14724,1,0,0:0:0:0:
25,192,14882,1,0,0:0:0:0:
281,192,14882,1,0,0:0:0:0:
486,192,14882,1,0,0:0:0:0:
230,192,15040,1,0,0:0:0:0:
384,192,15040,1,0,0:0:0:0:
128,192,15197,1,0,0:0:0:0:
281,192,15197,1,0,0:0:0:0:
25,192,15355,1,0,0:0:0:0:
179,192,15355,1,0,0:0:0:0:
332,192,15513,1,0,0:0:0:0:
486,192,15513,1,0,0:0:0:0:
76,192,15671,1,0,0:0:0:0:
230,192,15671,1,0,0:0:0:0:
281,192,15829,1,0,0:0:0:0:
435,192,15829,1,0,0:0:0:0:
25,192,15987,1,0,0:0:0:0:
179,192,15987,1,0,0:0:0:0:
128,192,16145,1,0,0:0:0:0:
230,192,16145,1,0,0:0:0:0:
281,192,16145,1,0,0:0:0:0:
384,192,16145,1,0,0:0:0:0:
25,192,16461,1,0,0:0:0:0:
179,192,16461,1,0,0:0:0:0:
486,192,16461,1,0,0:0:0:0:
76,192,16776,1,0,0:0:0:70:finish.wav
230,192,16776,1,0,0:0:0:0:
332,192,16776,1,0,0:0:0:0:
435,192,16776,1,0,0:0:0:0:
25,192,17092,1,0,0:0:0:0:
281,192,17092,1,0,0:0:0:0:
230,192,17250,1,0,0:0:0:0:
486,192,17250,1,0,0:0:0:0:
76,192,17408,1,0,0:0:0:0:
281,192,17408,1,0,0:0:0:0:
435,192,17408,1,0,0:0:0:0:
25,192,17566,1,0,0:0:0:0:
230,192,17566,1,0,0:0:0:0:
128,192,17724,1,0,0:0:0:0:
332,192,17724,1,0,0:0:0:0:
230,192,17882,1,0,0:0:0:0:
435,192,17882,1,0,0:0:0:0:
76,192,18040,1,0,0:0:0:70:finish.wav
179,192,18040,1,0,0:0:0:0:
281,192,18040,1,0,0:0:0:0:
486,192,18040,1,0,0:0:0:0:
230,192,18197,1,0,0:0:0:0:
384,192,18197,1,0,0:0:0:0:
128,192,18355,1,0,0:0:0:0:
281,192,18355,1,0,0:0:0:0:
25,192,18513,1,0,0:0:0:0:
179,192,18513,1,0,0:0:0:0:
230,192,18671,1,0,0:0:0:0:
281,192,18671,1,0,0:0:0:0:
486,192,18671,1,0,0:0:0:0:
76,192,18829,1,0,0:0:0:0:
332,192,18829,1,0,0:0:0:0:
128,192,18987,1,0,0:0:0:0:
384,192,18987,1,0,0:0:0:0:
179,192,19145,1,0,0:0:0:0:
435,192,19145,1,0,0:0:0:0:
25,192,19303,1,0,0:0:0:70:finish.wav
230,192,19303,1,0,0:0:0:0:
281,192,19303,1,0,0:0:0:0:
486,192,19303,1,0,0:0:0:0:
76,192,19618,1,0,0:0:0:0:
332,192,19618,1,0,0:0:0:0:
25,192,19934,1,0,0:0:0:70:finish.wav
230,192,19934,1,0,0:0:0:0:
281,192,19934,1,0,0:0:0:0:
486,192,19934,1,0,0:0:0:0:
179,192,20092,1,0,0:0:0:0:
384,192,20092,1,0,0:0:0:0:
128,192,20250,1,0,0:0:0:0:
332,192,20250,1,0,0:0:0:0:
76,192,20408,1,0,0:0:0:0:
281,192,20408,1,0,0:0:0:0:
128,192,20566,1,0,0:0:0:70:kick.wav
179,192,20566,1,0,0:0:0:70:crash.wav
435,192,20566,1,0,0:0:0:0:
486,192,20566,1,0,0:0:0:0:
128,192,20724,1,0,0:0:0:70:kick.wav
179,192,20724,1,0,0:0:0:70:crash.wav
435,192,20724,1,0,0:0:0:0:
486,192,20724,1,0,0:0:0:0:
281,192,20882,1,0,0:0:0:0:
230,192,20961,1,0,0:0:0:0:
25,192,21040,1,0,0:0:0:70:kick.wav
76,192,21040,1,0,0:0:0:70:crash.wav
332,192,21040,1,0,0:0:0:0:
384,192,21040,1,0,0:0:0:0:
25,192,21197,1,0,0:0:0:70:kick.wav
76,192,21197,1,0,0:0:0:70:crash.wav
332,192,21197,1,0,0:0:0:0:
384,192,21197,1,0,0:0:0:0:
230,192,21355,1,0,0:0:0:0:
486,192,21355,1,0,0:0:0:0:
25,192,21513,1,0,0:0:0:0:
179,192,21513,1,0,0:0:0:0:
281,192,21513,1,0,0:0:0:0:
332,192,21671,1,0,0:0:0:0:
25,192,21829,1,0,0:0:0:70:kick.wav
76,192,21829,1,0,0:0:0:70:finish.wav
179,192,21829,1,0,0:0:0:0:
281,192,21829,1,0,0:0:0:0:
486,192,21829,1,0,0:0:0:0:
384,192,21987,1,0,0:0:0:0:
332,192,22066,1,0,0:0:0:0:
128,192,22145,1,0,0:0:0:70:kick.wav
281,192,22145,1,0,0:0:0:0:
25,192,22303,1,0,0:0:0:0:
230,192,22303,1,0,0:0:0:0:
486,192,22303,1,0,0:0:0:0:
128,192,22461,1,0,0:0:0:70:kick.wav
332,192,22461,1,0,0:0:0:0:
384,192,22540,1,0,0:0:0:0:
25,192,22618,1,0,0:0:0:0:
230,192,22618,1,0,0:0:0:0:
435,192,22618,1,0,0:0:0:0:
332,192,22697,1,0,0:0:0:0:
25,192,22776,1,0,0:0:0:70:kick.wav
230,192,22776,1,0,0:0:0:0:
435,192,22776,1,0,0:0:0:0:
179,192,22934,1,0,0:0:0:0:
128,192,23092,1,0,0:0:0:70:kick.wav
384,192,23092,1,0,0:0:0:0:
76,192,23250,1,0,0:0:0:0:
281,192,23250,1,0,0:0:0:0:
486,192,23250,1,0,0:0:0:0:
230,192,23408,1,0,0:0:0:70:kick.wav
384,192,23408,1,0,0:0:0:0:
128,192,23487,1,0,0:0:0:0:
25,192,23566,1,0,0:0:0:0:
281,192,23566,1,0,0:0:0:0:
486,192,23566,1,0,0:0:0:0:
230,192,23724,1,0,0:0:0:70:kick.wav
332,192,23724,1,0,0:0:0:0:
435,192,23724,1,0,0:0:0:0:
179,192,23882,1,0,0:0:0:0:
281,192,23882,1,0,0:0:0:0:
25,192,24040,1,0,0:0:0:70:kick.wav
128,192,24040,1,0,0:0:0:0:
230,192,24040,1,0,0:0:0:0:
179,192,24197,1,0,0:0:0:0:
281,192,24197,1,0,0:0:0:0:
230,192,24355,1,0,0:0:0:70:kick.wav
332,192,24355,1,0,0:0:0:0:
435,192,24355,1,0,0:0:0:0:
76,192,24513,1,0,0:0:0:0:
128,192,24592,1,0,0:0:0:0:
179,192,24671,1,0,0:0:0:70:kick.wav
384,192,24671,1,0,0:0:0:0:
25,192,24829,1,0,0:0:0:0:
332,192,24829,1,0,0:0:0:0:
435,192,24829,1,0,0:0:0:0:
128,192,24987,1,0,0:0:0:70:kick.wav
384,192,24987,1,0,0:0:0:0:
179,192,25066,1,0,0:0:0:0:
230,192,25145,1,0,0:0:0:0:
332,192,25145,1,0,0:0:0:0:
435,192,25145,1,0,0:0:0:0:
25,192,25224,1,0,0:0:0:0:
230,192,25303,1,0,0:0:0:70:kick.wav
332,192,25303,1,0,0:0:0:0:
435,192,25303,1,0,0:0:0:0:
128,192,25461,1,0,0:0:0:0:
25,192,25618,1,0,0:0:0:70:kick.wav
230,192,25618,1,0,0:0:0:70:finish.wav
281,192,25618,1,0,0:0:0:0:
435,192,25618,1,0,0:0:0:0:
486,192,25618,1,0,0:0:0:0:
128,192,25776,1,0,0:0:0:70:kick.wav
179,192,25776,1,0,0:0:0:0:
332,192,25776,1,0,0:0:0:0:
384,192,25776,1,0,0:0:0:0:
128,192,25934,1,0,0:0:0:70:kick.wav
179,192,25934,1,0,0:0:0:0:
332,192,25934,1,0,0:0:0:0:
384,192,25934,1,0,0:0:0:0:
128,192,26092,1,0,0:0:0:70:kick.wav
179,192,26092,1,0,0:0:0:0:
332,192,26092,1,0,0:0:0:0:
384,192,26092,1,0,0:0:0:0:
25,192,26250,1,0,0:0:0:70:kick.wav
230,192,26250,1,0,0:0:0:0:
281,192,26250,1,0,0:0:0:0:
486,192,26250,1,0,0:0:0:0:
179,192,26408,1,0,0:0:0:0:
332,192,26408,1,0,0:0:0:0:
76,192,26566,1,0,0:0:0:0:
230,192,26566,1,0,0:0:0:0:
281,192,26566,1,0,0:0:0:0:
179,192,26724,1,0,0:0:0:0:
332,192,26724,1,0,0:0:0:0:
435,192,26724,1,0,0:0:0:0:
25,192,26882,1,0,0:0:0:70:kick.wav
76,192,26882,1,0,0:0:0:70:finish.wav
230,192,26882,1,0,0:0:0:0:
281,192,26882,1,0,0:0:0:0:
486,192,26882,1,0,0:0:0:0:
128,192,27040,1,0,0:0:0:0:
179,192,27118,1,0,0:0:0:0:
230,192,27197,1,0,0:0:0:70:kick.wav
384,192,27197,1,0,0:0:0:0:
25,192,27355,1,0,0:0:0:0:
281,192,27355,1,0,0:0:0:0:
486,192,27355,1,0,0:0:0:0:
179,192,27513,1,0,0:0:0:70:kick.wav
384,192,27513,1,0,0:0:0:0:
128,192,27592,1,0,0:0:0:0:
76,192,27671,1,0,0:0:0:0:
281,192,27671,1,0,0:0:0:0:
486,192,27671,1,0,0:0:0:0:
179,192,27750,1,0,0:0:0:0:
76,192,27829,1,0,0:0:0:70:kick.wav
281,192,27829,1,0,0:0:0:0:
486,192,27829,1,0,0:0:0:0:
332,192,27987,1,0,0:0:0:0:
128,192,28145,1,0,0:0:0:70:kick.wav
384,192,28145,1,0,0:0:0:0:
25,192,28303,1,0,0:0:0:0:
230,192,28303,1,0,0:0:0:0:
435,192,28303,1,0,0:0:0:0:
128,192,28461,1,0,0:0:0:70:kick.wav
281,192,28461,1,0,0:0:0:0:
384,192,28540,1,0,0:0:0:0:
25,192,28618,1,0,0:0:0:0:
230,192,28618,1,0,0:0:0:0:
486,192,28618,1,0,0:0:0:0:
76,192,28776,1,0,0:0:0:70:kick.wav
179,192,28776,1,0,0:0:0:0:
281,192,28776,1,0,0:0:0:0:
230,192,28934,1,0,0:0:0:0:
332,192,28934,1,0,0:0:0:0:
281,192,29092,1,0,0:0:0:70:kick.wav
384,192,29092,1,0,0:0:0:0:
486,192,29092,1,0,0:0:0:0:
230,192,29250,1,0,0:0:0:0:
332,192,29250,1,0,0:0:0:0:
76,192,29408,1,0,0:0:0:70:kick.wav
179,192,29408,1,0,0:0:0:0:
281,192,29408,1,0,0:0:0:0:
435,192,29566,1,0,0:0:0:0:
384,192,29645,1,0,0:0:0:0:
128,192,29724,1,0,0:0:0:70:kick.wav
332,192,29724,1,0,0:0:0:0:
76,192,29882,1,0,0:0:0:0:
179,192,29882,1,0,0:0:0:0:
486,192,29882,1,0,0:0:0:0:
128,192,30040,1,0,0:0:0:70:kick.wav
384,192,30040,1,0,0:0:0:0:
332,192,30118,1,0,0:0:0:0:
76,192,30197,1,0,0:0:0:0:
179,192,30197,1,0,0:0:0:0:
281,192,30197,1,0,0:0:0:0:
486,192,30276,1,0,0:0:0:0:
76,192,30355,1,0,0:0:0:70:kick.wav
179,192,30355,1,0,0:0:0:0:
281,192,30355,1,0,0:0:0:0:
384,192,30513,1,0,0:0:0:0:
25,192,30671,1,0,0:0:0:70:kick.wav
76,192,30671,1,0,0:0:0:70:finish.wav
230,192,30671,1,0,0:0:0:0:
281,192,30671,1,0,0:0:0:0:
486,192,30671,1,0,0:0:0:0:
332,192,30829,1,0,0:0:0:70:kick.wav
384,192,30829,1,0,0:0:0:0:
128,192,30908,1,0,0:0:0:70:kick.wav
179,192,30908,1,0,0:0:0:0:
230,192,30987,1,0,0:0:0:70:kick.wav
332,192,30987,1,0,0:0:0:0:
384,192,30987,1,0,0:0:0:0:
76,192,31145,1,0,0:0:0:70:kick.wav
128,192,31145,1,0,0:0:0:0:
384,192,31224,1,0,0:0:0:70:kick.wav
435,192,31224,1,0,0:0:0:0:
76,192,31303,1,0,0:0:0:70:kick.wav
128,192,31303,1,0,0:0:0:0:
281,192,31303,1,0,0:0:0:0:
179,192,31461,1,0,0:0:0:0:
332,192,31461,1,0,0:0:0:0:
25,192,31618,128,0,31855:0:0:0:0:
230,192,31618,128,0,31855:0:0:0:0:
281,192,31618,128,0,31855:0:0:0:0:
486,192,31618,128,0,31855:0:0:0:0:
76,192,31934,1,0,0:0:0:70:kick.wav
128,192,31934,1,0,0:0:0:70:finish.wav
179,192,31934,1,0,0:0:0:70:C4H.wav
332,192,31934,1,0,0:0:0:100:C6S_s.wav
435,192,31934,1,0,0:0:0:0:
230,192,32092,1,0,0:0:0:100:D#5S_Eb5S_s.wav
384,192,32092,1,0,0:0:0:0:
332,192,32171,1,0,0:0:0:100:G5S_s.wav
25,192,32250,1,0,0:0:0:70:kick.wav
281,192,32250,1,0,0:0:0:100:C6S_s.wav
128,192,32408,1,0,0:0:0:100:C6S_s.wav
332,192,32408,1,0,0:0:0:0:
179,192,32487,1,0,0:0:0:100:D6S_s.wav
230,192,32566,1,0,0:0:0:70:kick.wav
435,192,32566,1,0,0:0:0:100:D#6S_Eb6S_s.wav
384,192,32645,1,0,0:0:0:100:C6S_s.wav
332,192,32724,1,0,0:0:0:100:G5S_s.wav
281,192,32803,1,0,0:0:0:100:D#5S_Eb5S_s.wav
128,192,32882,1,0,0:0:0:70:kick.wav
486,192,32882,1,0,0:0:0:100:C6S_s.wav
435,192,32961,1,0,0:0:0:100:G5S_s.wav
384,192,33040,1,0,0:0:0:100:D#5S_Eb5S_s.wav
332,192,33118,1,0,0:0:0:100:C5S_s.wav
25,192,33197,1,0,0:0:0:70:kick.wav
230,192,33197,1,0,0:0:0:70:B3H.wav
486,192,33197,1,0,0:0:0:0:
128,192,33355,1,0,0:0:0:100:G5S_s.wav
281,192,33355,1,0,0:0:0:0:
384,192,33355,1,0,0:0:0:0:
332,192,33513,1,0,0:0:0:70:kick.wav
486,192,33513,1,0,0:0:0:100:F5S_s.wav
179,192,33592,1,0,0:0:0:100:G5S_s.wav
230,192,33671,1,0,0:0:0:100:G#5S_Ab5S_s.wav
281,192,33750,1,0,0:0:0:100:F5S_s.wav
25,192,33829,1,0,0:0:0:70:kick.wav
179,192,33829,1,0,0:0:0:100:G5S_s.wav
332,192,33908,1,0,0:0:0:100:F5S_s.wav
281,192,33987,1,0,0:0:0:100:D#5S_Eb5S_s.wav
230,192,34066,1,0,0:0:0:100:B4S_s.wav
76,192,34145,1,0,0:0:0:70:kick.wav
435,192,34145,1,0,0:0:0:100:D5S_s.wav
179,192,34224,1,0,0:0:0:100:B4S_s.wav
281,192,34303,1,0,0:0:0:100:D#5S_Eb5S_s.wav
384,192,34382,1,0,0:0:0:100:G5S_s.wav
25,192,34461,1,0,0:0:0:70:kick.wav
230,192,34461,1,0,0:0:0:70:A#3H_Bb3H.wav
486,192,34461,1,0,0:0:0:100:C6S_s.wav
128,192,34618,1,0,0:0:0:100:D#5S_Eb5S_s.wav
281,192,34618,1,0,0:0:0:0:
76,192,34697,1,0,0:0:0:100:G5S_s.wav
25,192,34776,1,0,0:0:0:70:kick.wav
435,192,34776,1,0,0:0:0:100:C6S_s.wav
179,192,34934,1,0,0:0:0:100:C6S_s.wav
332,192,34934,1,0,0:0:0:0:
128,192,35013,1,0,0:0:0:100:D6S_s.wav
76,192,35092,1,0,0:0:0:70:kick.wav
486,192,35092,1,0,0:0:0:100:D#6S_Eb6S_s.wav
332,192,35171,1,0,0:0:0:100:G5S_s.wav
230,192,35250,1,0,0:0:0:100:C6S_s.wav
281,192,35329,1,0,0:0:0:100:D6S_s.wav
25,192,35408,1,0,0:0:0:70:kick.wav
332,192,35408,1,0,0:0:0:100:D#6S_Eb6S_s.wav
179,192,35487,1,0,0:0:0:100:D6S_s.wav
281,192,35566,1,0,0:0:0:100:D#6S_Eb6S_s.wav
230,192,35645,1,0,0:0:0:100:F6S_s.wav
179,192,35724,1,0,0:0:0:70:kick.wav
332,192,35724,1,0,0:0:0:100:F#6H_Gb6H_s.wav
384,192,35724,1,0,0:0:0:0:
435,192,35724,1,0,0:0:0:0:
230,192,35882,1,0,0:0:0:70:kick.wav
332,192,35882,1,0,0:0:0:100:D6H_s.wav
384,192,35882,1,0,0:0:0:0:
435,192,35882,1,0,0:0:0:0:
76,192,36040,1,0,0:0:0:70:kick.wav
128,192,36040,1,0,0:0:0:100:C6H_s.wav
179,192,36040,1,0,0:0:0:0:
281,192,36040,1,0,0:0:0:0:
76,192,36197,1,0,0:0:0:70:kick.wav
128,192,36197,1,0,0:0:0:100:D6H_s.wav
179,192,36197,1,0,0:0:0:0:
332,192,36197,1,0,0:0:0:0:
25,192,36355,1,0,0:0:0:70:kick.wav
230,192,36355,1,0,0:0:0:70:crash.wav
281,192,36355,1,0,0:0:0:100:B5H_s.wav
384,192,36355,1,0,0:0:0:0:
486,192,36355,1,0,0:0:0:0:
179,192,36513,1,0,0:0:0:100:G5S_s.wav
332,192,36592,1,0,0:0:0:100:G5S_s.wav
179,192,36671,1,0,0:0:0:100:G5S_s.wav
332,192,36750,1,0,0:0:0:0:
179,192,36829,1,0,0:0:0:100:G5S_s.wav
332,192,36908,1,0,0:0:0:100:B5S_s.wav
25,192,36987,1,0,0:0:0:70:kick.wav
76,192,36987,1,0,0:0:0:70:finish.wav
230,192,36987,1,0,0:0:0:70:C4H.wav
281,192,36987,1,0,0:0:0:100:C6S_s.wav
486,192,36987,1,0,0:0:0:0:
128,192,37145,1,0,0:0:0:100:D#5S_Eb5S_s.wav
384,192,37145,1,0,0:0:0:0:
179,192,37224,1,0,0:0:0:100:G5S_s.wav
230,192,37303,1,0,0:0:0:70:kick.wav
486,192,37303,1,0,0:0:0:100:C6S_s.wav
128,192,37461,1,0,0:0:0:100:C6S_s.wav
384,192,37461,1,0,0:0:0:0:
332,192,37540,1,0,0:0:0:100:D6S_s.wav
76,192,37618,1,0,0:0:0:70:kick.wav
281,192,37618,1,0,0:0:0:100:D#6S_Eb6S_s.wav
128,192,37697,1,0,0:0:0:100:C6S_s.wav
179,192,37776,1,0,0:0:0:100:G5S_s.wav
230,192,37855,1,0,0:0:0:100:D#5S_Eb5S_s.wav
25,192,37934,1,0,0:0:0:70:kick.wav
384,192,37934,1,0,0:0:0:100:C6S_s.wav
76,192,38013,1,0,0:0:0:100:G5S_s.wav
128,192,38092,1,0,0:0:0:100:D#5S_Eb5S_s.wav
179,192,38171,1,0,0:0:0:100:C5S_s.wav
25,192,38250,1,0,0:0:0:70:kick.wav
281,192,38250,1,0,0:0:0:70:B3H.wav
486,192,38250,1,0,0:0:0:0:
128,192,38408,1,0,0:0:0:100:G5S_s.wav
230,192,38408,1,0,0:0:0:0:
384,192,38408,1,0,0:0:0:0:
25,192,38566,1,0,0:0:0:70:kick.wav
179,192,38566,1,0,0:0:0:100:F5S_s.wav
332,192,38645,1,0,0:0:0:100:G5S_s.wav
281,192,38724,1,0,0:0:0:100:G#5S_Ab5S_s.wav
230,192,38803,1,0,0:0:0:100:F5S_s.wav
332,192,38882,1,0,0:0:0:70:kick.wav
486,192,38882,1,0,0:0:0:100:G5S_s.wav
179,192,38961,1,0,0:0:0:100:F5S_s.wav
230,192,39040,1,0,0:0:0:100:D#5S_Eb5S_s.wav
281,192,39118,1,0,0:0:0:100:B4S_s.wav
76,192,39197,1,0,0:0:0:70:kick.wav
435,192,39197,1,0,0:0:0:100:D5S_s.wav
332,192,39276,1,0,0:0:0:100:B4S_s.wav
230,192,39355,1,0,0:0:0:100:D#5S_Eb5S_s.wav
128,192,39434,1,0,0:0:0:100:G5S_s.wav
25,192,39513,1,0,0:0:0:70:kick.wav
281,192,39513,1,0,0:0:0:70:A#3H_Bb3H.wav
486,192,39513,1,0,0:0:0:100:C6S_s.wav
230,192,39671,1,0,0:0:0:100:D#5S_Eb5S_s.wav
384,192,39671,1,0,0:0:0:0:
435,192,39750,1,0,0:0:0:100:G5S_s.wav
76,192,39829,1,0,0:0:0:70:kick.wav
486,192,39829,1,0,0:0:0:100:C6S_s.wav
230,192,39987,1,0,0:0:0:100:C6S_s.wav
332,192,39987,1,0,0:0:0:0:
384,192,40066,1,0,0:0:0:100:D6S_s.wav
25,192,40145,1,0,0:0:0:70:kick.wav
435,192,40145,1,0,0:0:0:100:D#6S_Eb6S_s.wav
179,192,40224,1,0,0:0:0:100:G5S_s.wav
281,192,40303,1,0,0:0:0:100:C6S_s.wav
230,192,40382,1,0,0:0:0:100:D6S_s.wav
179,192,40461,1,0,0:0:0:70:kick.wav
486,192,40461,1,0,0:0:0:100:D#6S_Eb6S_s.wav
332,192,40540,1,0,0:0:0:100:D6S_s.wav
230,192,40618,1,0,0:0:0:100:D#6S_Eb6S_s.wav
281,192,40697,1,0,0:0:0:100:F6S_s.wav
76,192,40776,1,0,0:0:0:70:kick.wav
128,192,40776,1,0,0:0:0:100:F#6H_Gb6H_s.wav
179,192,40776,1,0,0:0:0:0:
332,192,40776,1,0,0:0:0:0:
76,192,40934,1,0,0:0:0:70:kick.wav
128,192,40934,1,0,0:0:0:100:D6H_s.wav
179,192,40934,1,0,0:0:0:0:
281,192,40934,1,0,0:0:0:0:
230,192,41092,1,0,0:0:0:70:kick.wav
332,192,41092,1,0,0:0:0:100:F#6H_Gb6H_s.wav
384,192,41092,1,0,0:0:0:0:
435,192,41092,1,0,0:0:0:0:
179,192,41250,1,0,0:0:0:70:kick.wav
332,192,41250,1,0,0:0:0:100:A6H_s.wav
384,192,41250,1,0,0:0:0:0:
435,192,41250,1,0,0:0:0:0:
25,192,41408,1,0,0:0:0:70:kick.wav
128,192,41408,1,0,0:0:0:70:crash.wav
230,192,41408,1,0,0:0:0:100:G6H_s.wav
281,192,41408,1,0,0:0:0:0:
486,192,41408,1,0,0:0:0:0:
332,192,41566,1,0,0:0:0:100:G5S_s.wav
179,192,41645,1,0,0:0:0:100:G5S_s.wav
332,192,41724,1,0,0:0:0:100:G5S_s.wav
384,192,41724,1,0,0:0:0:0:
179,192,41882,1,0,0:0:0:100:G6S_s.wav
332,192,41961,1,0,0:0:0:100:B6S_s.wav
25,192,42040,1,0,0:0:0:70:kick.wav
76,192,42040,1,0,0:0:0:70:finish.wav
230,192,42040,1,0,0:0:0:100:C7S_s.wav
435,192,42040,1,0,0:0:0:0:
486,192,42040,1,0,0:0:0:0:
384,192,42197,1,0,0:0:0:0:
128,192,42276,1,0,0:0:0:0:
281,192,42355,1,0,0:0:0:0:
486,192,42355,1,0,0:0:0:0:
128,192,42513,1,0,0:0:0:0:
384,192,42592,1,0,0:0:0:0:
25,192,42671,1,0,0:0:0:0:
230,192,42671,1,0,0:0:0:0:
179,192,42987,1,0,0:0:0:0:
332,192,42987,1,0,0:0:0:0:
486,192,42987,1,0,0:0:0:0:
128,192,43145,1,0,0:0:0:0:
384,192,43224,1,0,0:0:0:0:
25,192,43303,1,0,0:0:0:0:
230,192,43303,1,0,0:0:0:0:
384,192,43461,1,0,0:0:0:0:
128,192,43540,1,0,0:0:0:0:
281,192,43618,1,0,0:0:0:0:
486,192,43618,1,0,0:0:0:0:
25,192,43934,1,0,0:0:0:0:
179,192,43934,1,0,0:0:0:0:
332,192,43934,1,0,0:0:0:0:
25,192,44092,1,0,0:0:0:0:
179,192,44092,1,0,0:0:0:0:
332,192,44092,1,0,0:0:0:0:
25,192,44250,128,0,44487:0:0:0:0:
179,192,44250,128,0,44487:0:0:0:0:
332,192,44250,128,0,44487:0:0:0:0:
25,192,44566,1,0,0:0:0:70:finish.wav
230,192,44566,1,0,0:0:0:0:
281,192,44566,1,0,0:0:0:0:
435,192,44566,1,0,0:0:0:0:
486,192,44566,1,0,0:0:0:0:
128,192,44724,1,0,0:0:0:0:
384,192,44803,1,0,0:0:0:0:
76,192,44882,1,0,0:0:0:0:
179,192,44882,1,0,0:0:0:0:
384,192,45040,1,0,0:0:0:0:
128,192,45118,1,0,0:0:0:0:
332,192,45197,1,0,0:0:0:0:
435,192,45197,1,0,0:0:0:0:
230,192,45513,1,0,0:0:0:0:
281,192,45513,1,0,0:0:0:0:
25,192,45513,1,0,0:0:0:0:
384,192,45671,1,0,0:0:0:0:
128,192,45750,1,0,0:0:0:0:
332,192,45829,1,0,0:0:0:0:
435,192,45829,1,0,0:0:0:0:
435,192,45987,1,0,0:0:0:0:
332,192,45987,1,0,0:0:0:0:
230,192,45987,1,0,0:0:0:0:
281,192,46145,1,0,0:0:0:0:
179,192,46145,1,0,0:0:0:0:
76,192,46145,1,0,0:0:0:0:
435,192,46303,1,0,0:0:0:0:
332,192,46303,1,0,0:0:0:0:
230,192,46303,1,0,0:0:0:0:
25,192,46461,1,0,0:0:0:0:
128,192,46461,1,0,0:0:0:0:
384,192,46618,1,0,0:0:0:0:
486,192,46618,1,0,0:0:0:0:
179,192,46776,1,0,0:0:0:0:
76,192,46776,1,0,0:0:0:0:
332,192,46934,1,0,0:0:0:0:
435,192,46934,1,0,0:0:0:0:
25,192,47092,1,0,0:0:0:70:finish.wav
76,192,47092,1,0,0:0:0:0:
230,192,47092,1,0,0:0:0:0:
281,192,47092,1,0,0:0:0:0:
486,192,47092,1,0,0:0:0:0:
384,192,47250,1,0,0:0:0:0:
179,192,47329,1,0,0:0:0:0:
332,192,47408,1,0,0:0:0:0:
486,192,47408,1,0,0:0:0:0:
128,192,47566,1,0,0:0:0:0:
332,192,47645,1,0,0:0:0:0:
25,192,47724,1,0,0:0:0:0:
179,192,47724,1,0,0:0:0:0:
76,192,48040,1,0,0:0:0:0:
435,192,48040,1,0,0:0:0:0:
281,192,48040,1,0,0:0:0:0:
128,192,48197,1,0,0:0:0:0:
332,192,48276,1,0,0:0:0:0:
25,192,48355,1,0,0:0:0:0:
179,192,48355,1,0,0:0:0:0:
384,192,48513,1,0,0:0:0:0:
179,192,48592,1,0,0:0:0:0:
332,192,48671,1,0,0:0:0:0:
486,192,48671,1,0,0:0:0:0:
179,192,48987,1,0,0:0:0:0:
332,192,48987,1,0,0:0:0:0:
486,192,48987,1,0,0:0:0:0:
179,192,49145,1,0,0:0:0:0:
332,192,49145,1,0,0:0:0:0:
486,192,49145,1,0,0:0:0:0:
179,192,49303,128,0,49540:0:0:0:0:
332,192,49303,128,0,49540:0:0:0:0:
486,192,49303,128,0,49540:0:0:0:0:
25,192,49618,1,0,0:0:0:70:finish.wav
76,192,49618,1,0,0:0:0:0:
230,192,49618,1,0,0:0:0:0:
281,192,49618,1,0,0:0:0:0:
486,192,49618,1,0,0:0:0:0:
332,192,49776,1,0,0:0:0:0:
128,192,49855,1,0,0:0:0:0:
281,192,49934,1,0,0:0:0:0:
435,192,49934,1,0,0:0:0:0:
179,192,50092,1,0,0:0:0:0:
384,192,50171,1,0,0:0:0:0:
76,192,50250,1,0,0:0:0:0:
230,192,50250,1,0,0:0:0:0:
25,192,50566,1,0,0:0:0:0:
486,192,50566,1,0,0:0:0:0:
281,192,50566,1,0,0:0:0:0:
179,192,50724,1,0,0:0:0:0:
384,192,50803,1,0,0:0:0:0:
76,192,50882,1,0,0:0:0:0:
230,192,50882,1,0,0:0:0:0:
128,192,51040,1,0,0:0:0:0:
281,192,51040,1,0,0:0:0:0:
486,192,51040,1,0,0:0:0:0:
25,192,51197,1,0,0:0:0:0:
230,192,51197,1,0,0:0:0:0:
384,192,51197,1,0,0:0:0:0:
128,192,51355,1,0,0:0:0:0:
281,192,51355,1,0,0:0:0:0:
486,192,51355,1,0,0:0:0:0:
332,192,51513,1,0,0:0:0:0:
435,192,51513,1,0,0:0:0:0:
230,192,51671,1,0,0:0:0:0:
128,192,51671,1,0,0:0:0:0:
281,192,51829,1,0,0:0:0:0:
384,192,51829,1,0,0:0:0:0:
179,192,51987,1,0,0:0:0:0:
76,192,51987,1,0,0:0:0:0:
25,192,52145,1,0,0:0:0:70:kick.wav
230,192,52145,1,0,0:0:0:70:finish.wav
281,192,52145,1,0,0:0:0:0:
435,192,52145,1,0,0:0:0:0:
486,192,52145,1,0,0:0:0:0:
179,192,52303,1,0,0:0:0:0:
332,192,52382,1,0,0:0:0:0:
76,192,52461,1,0,0:0:0:70:kick.wav
179,192,52461,1,0,0:0:0:0:
332,192,52618,1,0,0:0:0:0:
179,192,52697,1,0,0:0:0:0:
332,192,52776,1,0,0:0:0:70:kick.wav
435,192,52776,1,0,0:0:0:0:
230,192,52855,1,0,0:0:0:0:
179,192,52934,1,0,0:0:0:0:
128,192,53013,1,0,0:0:0:0:
76,192,53092,1,0,0:0:0:70:kick.wav
281,192,53092,1,0,0:0:0:0:
486,192,53092,1,0,0:0:0:0:
332,192,53250,1,0,0:0:0:0:
179,192,53329,1,0,0:0:0:0:
332,192,53408,1,0,0:0:0:70:kick.wav
435,192,53408,1,0,0:0:0:0:
179,192,53566,1,0,0:0:0:0:
332,192,53645,1,0,0:0:0:0:
76,192,53724,1,0,0:0:0:70:kick.wav
179,192,53724,1,0,0:0:0:0:
281,192,53803,1,0,0:0:0:0:
332,192,53882,1,0,0:0:0:0:
384,192,53961,1,0,0:0:0:0:
25,192,54040,1,0,0:0:0:70:kick.wav
230,192,54040,1,0,0:0:0:0:
486,192,54040,1,0,0:0:0:0:
128,192,54197,1,0,0:0:0:0:
281,192,54197,1,0,0:0:0:0:
384,192,54197,1,0,0:0:0:0:
25,192,54355,128,0,54592:0:0:0:70:kick.wav
230,192,54355,128,0,54592:0:0:0:0:
486,192,54355,128,0,54592:0:0:0:0:
25,192,54671,1,0,0:0:0:70:kick.wav
230,192,54671,1,0,0:0:0:0:
281,192,54671,1,0,0:0:0:0:
486,192,54671,1,0,0:0:0:0:
332,192,54829,1,0,0:0:0:0:
179,192,54908,1,0,0:0:0:0:
332,192,54987,1,0,0:0:0:70:kick.wav
486,192,54987,1,0,0:0:0:0:
179,192,55145,1,0,0:0:0:0:
332,192,55224,1,0,0:0:0:0:
25,192,55303,1,0,0:0:0:70:kick.wav
179,192,55303,1,0,0:0:0:0:
281,192,55382,1,0,0:0:0:0:
332,192,55461,1,0,0:0:0:0:
384,192,55540,1,0,0:0:0:0:
25,192,55618,1,0,0:0:0:70:kick.wav
230,192,55618,1,0,0:0:0:0:
435,192,55618,1,0,0:0:0:0:
179,192,55776,1,0,0:0:0:0:
332,192,55855,1,0,0:0:0:0:
25,192,55934,1,0,0:0:0:70:kick.wav
179,192,55934,1,0,0:0:0:0:
128,192,56092,1,0,0:0:0:0:
281,192,56092,1,0,0:0:0:0:
486,192,56092,1,0,0:0:0:0:
128,192,56250,1,0,0:0:0:70:kick.wav
281,192,56250,1,0,0:0:0:0:
486,192,56250,1,0,0:0:0:0:
128,192,56408,1,0,0:0:0:0:
281,192,56408,1,0,0:0:0:0:
486,192,56408,1,0,0:0:0:0:
179,192,56566,1,0,0:0:0:70:kick.wav
230,192,56566,1,0,0:0:0:0:
384,192,56566,1,0,0:0:0:0:
25,192,56724,1,0,0:0:0:0:
76,192,56724,1,0,0:0:0:0:
281,192,56724,1,0,0:0:0:0:
230,192,56882,1,0,0:0:0:0:
435,192,56882,1,0,0:0:0:0:
486,192,56882,1,0,0:0:0:0:
128,192,57040,1,0,0:0:0:0:
281,192,57040,1,0,0:0:0:0:
332,192,57040,1,0,0:0:0:0:
25,192,57197,1,0,0:0:0:70:kick.wav
179,192,57197,1,0,0:0:0:70:crash.wav
230,192,57197,1,0,0:0:0:0:
486,192,57197,1,0,0:0:0:0:
179,192,57355,1,0,0:0:0:70:kick.wav
230,192,57355,1,0,0:0:0:0:
179,192,57513,1,0,0:0:0:70:kick.wav
230,192,57513,1,0,0:0:0:0:
25,192,57671,128,0,57908:0:0:0:70:kick.wav
281,192,57671,128,0,57908:0:0:0:70:crash.wav
332,192,57671,128,0,57908:0:0:0:0:
486,192,57671,128,0,57908:0:0:0:0:
76,192,57987,1,0,0:0:0:70:kick.wav
128,192,57987,1,0,0:0:0:70:crash.wav
384,192,57987,1,0,0:0:0:0:
435,192,57987,1,0,0:0:0:0:
76,192,58145,1,0,0:0:0:70:kick.wav
128,192,58145,1,0,0:0:0:70:crash.wav
384,192,58145,1,0,0:0:0:0:
435,192,58145,1,0,0:0:0:0:
332,192,58303,1,0,0:0:0:70:kick.wav
179,192,58382,1,0,0:0:0:0:
332,192,58461,1,0,0:0:0:70:kick.wav
384,192,58461,1,0,0:0:0:0:
25,192,58618,1,0,0:0:0:70:kick.wav
230,192,58618,1,0,0:0:0:70:crash.wav
281,192,58618,1,0,0:0:0:0:
486,192,58618,1,0,0:0:0:0:
128,192,58934,1,0,0:0:0:70:kick.wav
179,192,58934,1,0,0:0:0:70:crash.wav
332,192,59013,1,0,0:0:0:70:kick.wav
384,192,59013,1,0,0:0:0:70:crash.wav
25,192,59092,1,0,0:0:0:70:kick.wav
230,192,59092,1,0,0:0:0:70:crash.wav
281,192,59092,1,0,0:0:0:0:
486,192,59092,1,0,0:0:0:0:
25,192,59250,1,0,0:0:0:70:kick.wav
230,192,59250,1,0,0:0:0:70:crash.wav
281,192,59250,1,0,0:0:0:0:
486,192,59250,1,0,0:0:0:0:
25,192,59408,128,0,59645:0:0:0:70:kick.wav
230,192,59408,128,0,59645:0:0:0:70:crash.wav
281,192,59408,128,0,59645:0:0:0:0:
486,192,59408,128,0,59645:0:0:0:0:
76,192,59724,1,0,0:0:0:0:
179,192,59882,1,0,0:0:0:0:
281,192,60040,1,0,0:0:0:0:
179,192,60197,1,0,0:0:0:0:
435,192,60355,1,0,0:0:0:0:
332,192,60513,1,0,0:0:0:0:
230,192,60671,1,0,0:0:0:0:
332,192,60829,1,0,0:0:0:0:
76,192,60987,1,0,0:0:0:70:kick.wav
230,192,60987,1,0,0:0:0:70:crash.wav
281,192,60987,1,0,0:0:0:0:
435,192,60987,1,0,0:0:0:0:
76,192,61145,1,0,0:0:0:70:kick.wav
230,192,61145,1,0,0:0:0:70:crash.wav
281,192,61145,1,0,0:0:0:0:
435,192,61145,1,0,0:0:0:0:
25,192,61461,1,0,0:0:0:70:kick.wav
179,192,61461,1,0,0:0:0:70:crash.wav
332,192,61461,1,0,0:0:0:0:
435,192,61461,1,0,0:0:0:0:
486,192,61461,1,0,0:0:0:0:
128,192,61618,1,0,0:0:0:0:
179,192,61697,1,0,0:0:0:0:
230,192,61776,1,0,0:0:0:0:
281,192,61776,1,0,0:0:0:0:
128,192,61934,1,0,0:0:0:0:
384,192,61934,1,0,0:0:0:0:
332,192,62013,1,0,0:0:0:0:
281,192,62092,1,0,0:0:0:0:
230,192,62092,1,0,0:0:0:0:
25,192,62250,1,0,0:0:0:70:kick.wav
76,192,62250,1,0,0:0:0:70:finish.wav
486,192,62250,1,0,0:0:0:0:
179,192,62250,1,0,0:0:0:0:
332,192,62250,1,0,0:0:0:0:
435,192,62408,1,0,0:0:0:0:
384,192,62487,1,0,0:0:0:0:
25,192,62566,1,0,0:0:0:70:kick.wav
230,192,62566,1,0,0:0:0:0:
332,192,62566,1,0,0:0:0:0:
179,192,62724,1,0,0:0:0:0:
281,192,62724,1,0,0:0:0:0:
486,192,62724,1,0,0:0:0:0:
25,192,62882,1,0,0:0:0:70:kick.wav
76,192,62882,1,0,0:0:0:0:
384,192,62882,1,0,0:0:0:0:
281,192,63040,1,0,0:0:0:0:
486,192,63040,1,0,0:0:0:0:
25,192,63197,1,0,0:0:0:70:kick.wav
230,192,63197,1,0,0:0:0:0:
435,192,63197,1,0,0:0:0:0:
179,192,63355,1,0,0:0:0:0:
384,192,63355,1,0,0:0:0:0:
25,192,63513,1,0,0:0:0:70:kick.wav
230,192,63513,1,0,0:0:0:0:
486,192,63513,1,0,0:0:0:0:
128,192,63671,1,0,0:0:0:0:
332,192,63671,1,0,0:0:0:0:
76,192,63829,1,0,0:0:0:70:kick.wav
281,192,63829,1,0,0:0:0:0:
486,192,63829,1,0,0:0:0:0:
25,192,63987,1,0,0:0:0:0:
230,192,63987,1,0,0:0:0:0:
179,192,64145,1,0,0:0:0:70:kick.wav
384,192,64145,1,0,0:0:0:0:
435,192,64145,1,0,0:0:0:0:
76,192,64303,1,0,0:0:0:0:
128,192,64382,1,0,0:0:0:0:
179,192,64461,1,0,0:0:0:70:kick.wav
332,192,64461,1,0,0:0:0:0:
384,192,64461,1,0,0:0:0:0:
230,192,64618,1,0,0:0:0:0:
179,192,64697,1,0,0:0:0:0:
128,192,64776,1,0,0:0:0:70:kick.wav
281,192,64776,1,0,0:0:0:0:
332,192,64776,1,0,0:0:0:0:
435,192,64934,1,0,0:0:0:0:
384,192,65013,1,0,0:0:0:0:
25,192,65092,1,0,0:0:0:70:kick.wav
128,192,65092,1,0,0:0:0:0:
332,192,65092,1,0,0:0:0:0:
179,192,65250,1,0,0:0:0:0:
281,192,65250,1,0,0:0:0:0:
486,192,65250,1,0,0:0:0:0:
25,192,65408,1,0,0:0:0:70:kick.wav
76,192,65408,1,0,0:0:0:0:
230,192,65566,1,0,0:0:0:0:
384,192,65566,1,0,0:0:0:0:
128,192,65724,1,0,0:0:0:70:kick.wav
281,192,65724,1,0,0:0:0:0:
486,192,65724,1,0,0:0:0:0:
179,192,65882,1,0,0:0:0:0:
332,192,65882,1,0,0:0:0:0:
25,192,66040,1,0,0:0:0:70:kick.wav
76,192,66040,1,0,0:0:0:0:
486,192,66040,1,0,0:0:0:0:
281,192,66197,1,0,0:0:0:0:
332,192,66250,1,0,0:0:0:0:
384,192,66303,1,0,0:0:0:0:
128,192,66355,1,0,0:0:0:70:kick.wav
230,192,66355,1,0,0:0:0:0:
435,192,66355,1,0,0:0:0:0:
76,192,66513,1,0,0:0:0:0:
384,192,66513,1,0,0:0:0:0:
25,192,66671,1,0,0:0:0:70:kick.wav
179,192,66671,1,0,0:0:0:0:
332,192,66671,1,0,0:0:0:0:
384,192,66829,1,0,0:0:0:0:
128,192,66908,1,0,0:0:0:0:
281,192,66987,1,0,0:0:0:70:kick.wav
230,192,67066,1,0,0:0:0:0:
384,192,67145,1,0,0:0:0:0:
128,192,67224,1,0,0:0:0:0:
25,192,67303,1,0,0:0:0:70:kick.wav
230,192,67303,1,0,0:0:0:70:finish.wav
281,192,67303,1,0,0:0:0:0:
435,192,67303,1,0,0:0:0:0:
486,192,67303,1,0,0:0:0:0:
384,192,67461,1,0,0:0:0:0:
332,192,67540,1,0,0:0:0:0:
76,192,67618,1,0,0:0:0:70:kick.wav
179,192,67618,1,0,0:0:0:0:
281,192,67618,1,0,0:0:0:0:
128,192,67776,1,0,0:0:0:0:
179,192,67855,1,0,0:0:0:0:
230,192,67934,1,0,0:0:0:70:kick.wav
332,192,67934,1,0,0:0:0:0:
435,192,67934,1,0,0:0:0:0:
25,192,68092,1,0,0:0:0:0:
179,192,68092,1,0,0:0:0:0:
128,192,68250,1,0,0:0:0:70:kick.wav
281,192,68250,1,0,0:0:0:0:
486,192,68250,1,0,0:0:0:0:
230,192,68408,1,0,0:0:0:0:
384,192,68408,1,0,0:0:0:0:
25,192,68566,1,0,0:0:0:70:kick.wav
179,192,68566,1,0,0:0:0:70:finish.wav
332,192,68566,1,0,0:0:0:0:
435,192,68566,1,0,0:0:0:0:
486,192,68566,1,0,0:0:0:0:
128,192,68724,1,0,0:0:0:0:
179,192,68803,1,0,0:0:0:0:
230,192,68882,1,0,0:0:0:70:kick.wav
281,192,68882,1,0,0:0:0:0:
486,192,68882,1,0,0:0:0:0:
384,192,69040,1,0,0:0:0:0:
332,192,69118,1,0,0:0:0:0:
25,192,69197,1,0,0:0:0:70:kick.wav
230,192,69197,1,0,0:0:0:0:
281,192,69197,1,0,0:0:0:0:
332,192,69355,1,0,0:0:0:0:
486,192,69355,1,0,0:0:0:0:
25,192,69513,1,0,0:0:0:70:kick.wav
230,192,69513,1,0,0:0:0:0:
384,192,69513,1,0,0:0:0:0:
128,192,69671,1,0,0:0:0:0:
281,192,69671,1,0,0:0:0:0:
25,192,69829,1,0,0:0:0:70:kick.wav
76,192,69829,1,0,0:0:0:70:finish.wav
179,192,69829,1,0,0:0:0:0:
332,192,69829,1,0,0:0:0:0:
486,192,69829,1,0,0:0:0:0:
281,192,69908,1,0,0:0:0:0:
230,192,69987,1,0,0:0:0:0:
179,192,70066,1,0,0:0:0:0:
128,192,70145,1,0,0:0:0:70:kick.wav
332,192,70145,1,0,0:0:0:0:
435,192,70145,1,0,0:0:0:0:
179,192,70303,1,0,0:0:0:0:
230,192,70382,1,0,0:0:0:0:
25,192,70461,1,0,0:0:0:70:kick.wav
281,192,70461,1,0,0:0:0:70:finish.wav
486,192,70461,1,0,0:0:0:0:
384,192,70540,1,0,0:0:0:0:
76,192,70618,1,0,0:0:0:0:
179,192,70618,1,0,0:0:0:0:
332,192,70618,1,0,0:0:0:0:
230,192,70776,1,0,0:0:0:70:kick.wav
435,192,70776,1,0,0:0:0:0:
486,192,70776,1,0,0:0:0:0:
25,192,70934,1,0,0:0:0:0:
76,192,70934,1,0,0:0:0:0:
281,192,70934,1,0,0:0:0:0:
332,192,71092,1,0,0:0:0:70:kick.wav
384,192,71092,1,0,0:0:0:70:crash.wav
435,192,71092,1,0,0:0:0:0:
486,192,71092,1,0,0:0:0:0:
332,192,71250,1,0,0:0:0:70:kick.wav
384,192,71250,1,0,0:0:0:70:crash.wav
435,192,71250,1,0,0:0:0:0:
486,192,71250,1,0,0:0:0:0:
25,192,71566,1,0,0:0:0:70:kick.wav
76,192,71566,1,0,0:0:0:70:crash.wav
128,192,71566,1,0,0:0:0:0:
179,192,71566,1,0,0:0:0:0:
230,192,71566,1,0,0:0:0:0:
128,192,71882,1,0,0:0:0:70:kick.wav
281,192,71882,1,0,0:0:0:70:crash.wav
435,192,71882,1,0,0:0:0:0:
486,192,71882,1,0,0:0:0:0:
25,192,72040,1,0,0:0:0:0:
128,192,72118,1,0,0:0:0:0:
230,192,72197,1,0,0:0:0:0:
25,192,72355,1,0,0:0:0:70:kick.wav
179,192,72355,1,0,0:0:0:70:finish.wav
281,192,72355,1,0,0:0:0:0:
384,192,72355,1,0,0:0:0:0:
435,192,72355,1,0,0:0:0:0:
76,192,72513,1,0,0:0:0:0:
128,192,72592,1,0,0:0:0:0:
179,192,72671,1,0,0:0:0:70:kick.wav
332,192,72671,1,0,0:0:0:0:
486,192,72671,1,0,0:0:0:0:
128,192,72829,1,0,0:0:0:0:
230,192,72829,1,0,0:0:0:0:
384,192,72829,1,0,0:0:0:0:
25,192,72987,1,0,0:0:0:70:kick.wav
76,192,72987,1,0,0:0:0:0:
435,192,72987,1,0,0:0:0:0:
179,192,73145,1,0,0:0:0:0:
332,192,73145,1,0,0:0:0:0:
128,192,73303,1,0,0:0:0:70:kick.wav
281,192,73303,1,0,0:0:0:0:
486,192,73303,1,0,0:0:0:0:
76,192,73461,1,0,0:0:0:0:
230,192,73461,1,0,0:0:0:0:
25,192,73618,1,0,0:0:0:70:kick.wav
281,192,73618,1,0,0:0:0:0:
486,192,73618,1,0,0:0:0:0:
179,192,73776,1,0,0:0:0:0:
384,192,73776,1,0,0:0:0:0:
25,192,73934,1,0,0:0:0:70:kick.wav
230,192,73934,1,0,0:0:0:0:
435,192,73934,1,0,0:0:0:0:
281,192,74092,1,0,0:0:0:0:
486,192,74092,1,0,0:0:0:0:
76,192,74250,1,0,0:0:0:70:kick.wav
128,192,74250,1,0,0:0:0:0:
332,192,74250,1,0,0:0:0:0:
435,192,74408,1,0,0:0:0:0:
384,192,74487,1,0,0:0:0:0:
128,192,74566,1,0,0:0:0:70:kick.wav
179,192,74566,1,0,0:0:0:0:
332,192,74566,1,0,0:0:0:0:
281,192,74724,1,0,0:0:0:0:
332,192,74803,1,0,0:0:0:0:
179,192,74882,1,0,0:0:0:70:kick.wav
230,192,74882,1,0,0:0:0:0:
384,192,74882,1,0,0:0:0:0:
76,192,75040,1,0,0:0:0:0:
128,192,75118,1,0,0:0:0:0:
179,192,75197,1,0,0:0:0:70:kick.wav
281,192,75197,1,0,0:0:0:0:
486,192,75197,1,0,0:0:0:0:
25,192,75355,1,0,0:0:0:0:
230,192,75355,1,0,0:0:0:0:
332,192,75355,1,0,0:0:0:0:
435,192,75513,1,0,0:0:0:70:kick.wav
486,192,75513,1,0,0:0:0:0:
25,192,75671,1,0,0:0:0:0:
179,192,75671,1,0,0:0:0:0:
128,192,75829,1,0,0:0:0:70:kick.wav
281,192,75829,1,0,0:0:0:0:
486,192,75829,1,0,0:0:0:0:
230,192,75987,1,0,0:0:0:0:
384,192,75987,1,0,0:0:0:0:
25,192,76145,1,0,0:0:0:70:kick.wav
435,192,76145,1,0,0:0:0:0:
486,192,76145,1,0,0:0:0:0:
230,192,76303,1,0,0:0:0:0:
179,192,76355,1,0,0:0:0:0:
128,192,76408,1,0,0:0:0:0:
76,192,76461,1,0,0:0:0:70:kick.wav
281,192,76461,1,0,0:0:0:0:
384,192,76461,1,0,0:0:0:0:
128,192,76618,1,0,0:0:0:0:
435,192,76618,1,0,0:0:0:0:
179,192,76776,1,0,0:0:0:70:kick.wav
332,192,76776,1,0,0:0:0:0:
486,192,76776,1,0,0:0:0:0:
128,192,76934,1,0,0:0:0:0:
384,192,77013,1,0,0:0:0:0:
230,192,77092,1,0,0:0:0:0:
281,192,77171,1,0,0:0:0:0:
128,192,77250,1,0,0:0:0:0:
384,192,77329,1,0,0:0:0:0:
25,192,77408,1,0,0:0:0:70:kick.wav
76,192,77408,1,0,0:0:0:70:crash.wav
230,192,77408,1,0,0:0:0:0:
281,192,77408,1,0,0:0:0:0:
486,192,77408,1,0,0:0:0:0:
128,192,77724,1,0,0:0:0:70:kick.wav
179,192,77724,1,0,0:0:0:70:crash.wav
332,192,77724,1,0,0:0:0:0:
384,192,77724,1,0,0:0:0:0:
76,192,77882,1,0,0:0:0:70:kick.wav
128,192,77882,1,0,0:0:0:70:crash.wav
384,192,77882,1,0,0:0:0:0:
435,192,77882,1,0,0:0:0:0:
25,192,78197,1,0,0:0:0:70:kick.wav
230,192,78197,1,0,0:0:0:0:
281,192,78197,1,0,0:0:0:0:
486,192,78197,1,0,0:0:0:0:
76,192,78355,1,0,0:0:0:70:kick.wav
179,192,78355,1,0,0:0:0:70:crash.wav
332,192,78355,1,0,0:0:0:0:
435,192,78355,1,0,0:0:0:0:
128,192,78513,1,0,0:0:0:0:
384,192,78513,1,0,0:0:0:0:
25,192,78671,1,0,0:0:0:70:kick.wav
76,192,78671,1,0,0:0:0:70:crash.wav
179,192,78671,1,0,0:0:0:0:
332,192,78671,1,0,0:0:0:0:
486,192,78671,1,0,0:0:0:0:
435,192,78829,1,0,0:0:0:0:
384,192,78908,1,0,0:0:0:0:
76,192,78987,1,0,0:0:0:70:kick.wav
128,192,78987,1,0,0:0:0:0:
281,192,78987,1,0,0:0:0:0:
332,192,78987,1,0,0:0:0:0:
128,192,79145,1,0,0:0:0:70:kick.wav
179,192,79145,1,0,0:0:0:70:crash.wav
332,192,79145,1,0,0:0:0:0:
384,192,79145,1,0,0:0:0:0:
25,192,79461,1,0,0:0:0:70:kick.wav
179,192,79461,1,0,0:0:0:70:crash.wav
281,192,79461,1,0,0:0:0:0:
486,192,79461,1,0,0:0:0:0:
76,192,79618,1,0,0:0:0:0:
230,192,79618,1,0,0:0:0:0:
384,192,79618,1,0,0:0:0:0:
128,192,79776,1,0,0:0:0:0:
281,192,79776,1,0,0:0:0:0:
25,192,79934,1,0,0:0:0:70:kick.wav
179,192,79934,1,0,0:0:0:70:finish.wav
332,192,79934,1,0,0:0:0:0:
435,192,79934,1,0,0:0:0:0:
486,192,79934,1,0,0:0:0:0:
281,192,80092,1,0,0:0:0:0:
179,192,80171,1,0,0:0:0:0:
76,192,80250,1,0,0:0:0:70:kick.wav
230,192,80250,1,0,0:0:0:0:
384,192,80250,1,0,0:0:0:0:
332,192,80408,1,0,0:0:0:0:
281,192,80487,1,0,0:0:0:0:
25,192,80566,1,0,0:0:0:70:kick.wav
128,192,80566,1,0,0:0:0:0:
230,192,80566,1,0,0:0:0:0:
486,192,80566,1,0,0:0:0:0:
179,192,80724,1,0,0:0:0:0:
332,192,80724,1,0,0:0:0:0:
76,192,80882,1,0,0:0:0:70:kick.wav
128,192,80882,1,0,0:0:0:0:
281,192,80882,1,0,0:0:0:0:
230,192,81040,1,0,0:0:0:0:
486,192,81040,1,0,0:0:0:0:
435,192,81040,1,0,0:0:0:0:
25,192,81197,1,0,0:0:0:70:kick.wav
76,192,81197,1,0,0:0:0:70:crash.wav
281,192,81197,1,0,0:0:0:0:
332,192,81197,1,0,0:0:0:0:
25,192,81355,1,0,0:0:0:70:kick.wav
76,192,81355,1,0,0:0:0:70:crash.wav
281,192,81355,1,0,0:0:0:0:
332,192,81355,1,0,0:0:0:0:
128,192,81671,1,0,0:0:0:70:kick.wav
179,192,81671,1,0,0:0:0:70:crash.wav
332,192,81671,1,0,0:0:0:0:
384,192,81671,1,0,0:0:0:0:
230,192,81750,1,0,0:0:0:70:kick.wav
281,192,81750,1,0,0:0:0:70:crash.wav
128,192,81829,1,0,0:0:0:70:kick.wav
179,192,81829,1,0,0:0:0:70:crash.wav
332,192,81829,1,0,0:0:0:0:
384,192,81829,1,0,0:0:0:0:
25,192,81987,1,0,0:0:0:70:kick.wav
230,192,81987,1,0,0:0:0:70:crash.wav
281,192,81987,1,0,0:0:0:0:
486,192,81987,1,0,0:0:0:0:
76,192,82145,1,0,0:0:0:0:
179,192,82224,1,0,0:0:0:0:
281,192,82303,1,0,0:0:0:0:
25,192,82461,128,0,82776:0:0:0:70:kick.wav
230,192,82461,128,0,82776:0:0:0:70:finish.wav
332,192,82461,1,0,0:0:0:0:
384,192,82461,1,0,0:0:0:0:
435,192,82461,1,0,0:0:0:0:
128,192,82776,1,0,0:0:0:70:kick.wav
281,192,82776,1,0,0:0:0:0:
486,192,82776,128,0,82934:0:0:0:0:
179,192,82934,1,0,0:0:0:0:
384,192,82934,128,0,83092:0:0:0:0:
25,192,83092,1,0,0:0:0:70:kick.wav
76,192,83092,1,0,0:0:0:0:
281,192,83092,128,0,83566:0:0:0:0:
179,192,83250,1,0,0:0:0:0:
384,192,83250,128,0,83566:0:0:0:0:
128,192,83408,1,0,0:0:0:70:kick.wav
230,192,83408,1,0,0:0:0:0:
486,192,83408,128,0,83566:0:0:0:0:
76,192,83566,128,0,83882:0:0:0:0:
179,192,83566,128,0,83882:0:0:0:0:
435,192,83724,1,0,0:0:0:70:kick.wav
486,192,83724,1,0,0:0:0:0:
230,192,83882,1,0,0:0:0:0:
332,192,83882,128,0,84513:0:0:0:0:
25,192,84040,1,0,0:0:0:70:kick.wav
76,192,84040,1,0,0:0:0:0:
384,192,84040,128,0,84513:0:0:0:0:
179,192,84197,1,0,0:0:0:0:
435,192,84197,128,0,84513:0:0:0:0:
128,192,84355,1,0,0:0:0:70:kick.wav
230,192,84355,1,0,0:0:0:0:
25,192,84513,128,0,84671:0:0:0:0:
179,192,84513,128,0,84671:0:0:0:0:
332,192,84671,128,0,84829:0:0:0:70:kick.wav
486,192,84671,128,0,84829:0:0:0:0:
25,192,84829,128,0,84987:0:0:0:0:
179,192,84829,128,0,84987:0:0:0:0:
230,192,84987,128,0,85145:0:0:0:70:kick.wav
435,192,84987,1,0,0:0:0:0:
486,192,84987,1,0,0:0:0:0:
76,192,85145,128,0,85303:0:0:0:0:
281,192,85145,1,0,0:0:0:0:
230,192,85303,128,0,85461:0:0:0:70:kick.wav
332,192,85303,1,0,0:0:0:0:
384,192,85303,1,0,0:0:0:0:
76,192,85461,128,0,85618:0:0:0:0:
281,192,85461,1,0,0:0:0:0:
230,192,85618,128,0,85776:0:0:0:70:kick.wav
435,192,85618,1,0,0:0:0:0:
486,192,85618,1,0,0:0:0:0:
76,192,85776,128,0,85934:0:0:0:0:
281,192,85776,1,0,0:0:0:0:
230,192,85934,128,0,86092:0:0:0:70:kick.wav
332,192,85934,1,0,0:0:0:0:
384,192,85934,1,0,0:0:0:0:
281,192,86092,128,0,86408:0:0:0:0:
486,192,86092,128,0,86408:0:0:0:0:
25,192,86250,1,0,0:0:0:70:kick.wav
76,192,86250,1,0,0:0:0:0:
179,192,86408,128,0,87040:0:0:0:0:
384,192,86408,1,0,0:0:0:0:
128,192,86566,128,0,87040:0:0:0:70:kick.wav
281,192,86566,1,0,0:0:0:0:
486,192,86566,1,0,0:0:0:0:
76,192,86724,128,0,87040:0:0:0:0:
384,192,86724,1,0,0:0:0:0:
332,192,86882,1,0,0:0:0:70:kick.wav
435,192,86882,1,0,0:0:0:0:
281,192,87040,1,0,0:0:0:0:
332,192,87118,1,0,0:0:0:0:
76,192,87197,1,0,0:0:0:70:kick.wav
179,192,87197,1,0,0:0:0:0:
384,192,87197,1,0,0:0:0:0:
230,192,87276,1,0,0:0:0:0:
281,192,87355,1,0,0:0:0:0:
332,192,87434,1,0,0:0:0:0:
25,192,87513,1,0,0:0:0:70:kick.wav
128,192,87513,1,0,0:0:0:70:finish.wav
230,192,87513,1,0,0:0:0:0:
384,192,87513,1,0,0:0:0:0:
435,192,87513,1,0,0:0:0:0:
332,192,87671,1,0,0:0:0:0:
281,192,87750,1,0,0:0:0:0:
25,192,87829,1,0,0:0:0:70:kick.wav
230,192,87829,1,0,0:0:0:0:
486,192,87829,1,0,0:0:0:0:
128,192,87908,1,0,0:0:0:0:
179,192,87987,1,0,0:0:0:0:
332,192,88066,1,0,0:0:0:0:
230,192,88145,1,0,0:0:0:70:kick.wav
281,192,88145,1,0,0:0:0:0:
435,192,88303,1,0,0:0:0:0:
384,192,88382,1,0,0:0:0:0:
25,192,88461,1,0,0:0:0:70:kick.wav
179,192,88461,1,0,0:0:0:0:
281,192,88461,1,0,0:0:0:0:
332,192,88540,1,0,0:0:0:0:
384,192,88618,1,0,0:0:0:0:
435,192,88697,1,0,0:0:0:0:
25,192,88776,1,0,0:0:0:70:kick.wav
76,192,88776,1,0,0:0:0:70:finish.wav
230,192,88776,1,0,0:0:0:0:
281,192,88776,1,0,0:0:0:0:
486,192,88776,1,0,0:0:0:0:
179,192,88934,1,0,0:0:0:0:
128,192,89013,1,0,0:0:0:0:
76,192,89092,1,0,0:0:0:70:kick.wav
281,192,89092,1,0,0:0:0:0:
384,192,89092,1,0,0:0:0:0:
230,192,89171,1,0,0:0:0:0:
179,192,89250,1,0,0:0:0:0:
230,192,89329,1,0,0:0:0:0:
25,192,89408,1,0,0:0:0:70:kick.wav
76,192,89408,1,0,0:0:0:0:
435,192,89408,1,0,0:0:0:0:
384,192,89487,1,0,0:0:0:0:
281,192,89566,1,0,0:0:0:0:
332,192,89645,1,0,0:0:0:0:
25,192,89724,128,0,89961:0:0:0:70:kick.wav
230,192,89724,128,0,89961:0:0:0:0:
384,192,89724,128,0,89961:0:0:0:0:
25,192,90040,1,0,0:0:0:70:kick.wav
230,192,90040,1,0,0:0:0:70:finish.wav
281,192,90040,1,0,0:0:0:0:
486,192,90040,1,0,0:0:0:0:
384,192,90118,1,0,0:0:0:0:
332,192,90197,1,0,0:0:0:0:
281,192,90276,1,0,0:0:0:0:
25,192,90355,1,0,0:0:0:70:kick.wav
230,192,90355,1,0,0:0:0:0:
486,192,90355,1,0,0:0:0:0:
128,192,90434,1,0,0:0:0:0:
179,192,90513,1,0,0:0:0:0:
230,192,90592,1,0,0:0:0:0:
25,192,90671,1,0,0:0:0:70:kick.wav
76,192,90671,1,0,0:0:0:70:finish.wav
281,192,90671,1,0,0:0:0:0:
486,192,90671,1,0,0:0:0:0:
384,192,90750,1,0,0:0:0:0:
332,192,90829,1,0,0:0:0:0:
281,192,90908,1,0,0:0:0:0:
25,192,90987,1,0,0:0:0:70:kick.wav
230,192,90987,1,0,0:0:0:0:
486,192,90987,1,0,0:0:0:0:
128,192,91066,1,0,0:0:0:0:
179,192,91145,1,0,0:0:0:0:
230,192,91224,1,0,0:0:0:0:
76,192,91303,1,0,0:0:0:70:kick.wav
332,192,91303,1,0,0:0:0:70:crash.wav
384,192,91303,1,0,0:0:0:0:
435,192,91303,1,0,0:0:0:0:
230,192,91540,1,0,0:0:0:0:
25,192,91618,1,0,0:0:0:70:kick.wav
281,192,91618,1,0,0:0:0:0:
486,192,91618,1,0,0:0:0:0:
76,192,91776,1,0,0:0:0:70:kick.wav
179,192,91776,1,0,0:0:0:70:crash.wav
332,192,91776,1,0,0:0:0:0:
435,192,91776,1,0,0:0:0:0:
128,192,92092,1,0,0:0:0:70:kick.wav
384,192,92092,1,0,0:0:0:0:
486,192,92250,1,0,0:0:0:0:
384,192,92329,1,0,0:0:0:0:
281,192,92408,1,0,0:0:0:0:
25,192,92566,1,0,0:0:0:70:kick.wav
128,192,92566,1,0,0:0:0:70:finish.wav
230,192,92566,1,0,0:0:0:0:
332,192,92566,1,0,0:0:0:0:
486,192,92566,1,0,0:0:0:0:
435,192,92724,1,0,0:0:0:0:
384,192,92803,1,0,0:0:0:0:
76,192,92882,1,0,0:0:0:70:kick.wav
179,192,92882,1,0,0:0:0:0:
332,192,92882,1,0,0:0:0:0:
128,192,93040,1,0,0:0:0:0:
281,192,93040,1,0,0:0:0:0:
435,192,93040,1,0,0:0:0:0:
76,192,93197,1,0,0:0:0:70:kick.wav
179,192,93197,1,0,0:0:0:0:
332,192,93197,1,0,0:0:0:0:
281,192,93355,1,0,0:0:0:0:
486,192,93355,1,0,0:0:0:0:
25,192,93513,1,0,0:0:0:70:kick.wav
230,192,93513,1,0,0:0:0:0:
435,192,93513,1,0,0:0:0:0:
179,192,93671,1,0,0:0:0:0:
384,192,93671,1,0,0:0:0:0:
25,192,93829,1,0,0:0:0:70:kick.wav
230,192,93829,1,0,0:0:0:0:
486,192,93829,1,0,0:0:0:0:
128,192,93987,1,0,0:0:0:0:
332,192,93987,1,0,0:0:0:0:
76,192,94145,1,0,0:0:0:70:kick.wav
281,192,94145,1,0,0:0:0:0:
435,192,94145,1,0,0:0:0:0:
25,192,94303,1,0,0:0:0:0:
230,192,94303,1,0,0:0:0:0:
179,192,94461,1,0,0:0:0:70:kick.wav
281,192,94461,1,0,0:0:0:0:
384,192,94461,1,0,0:0:0:0:
76,192,94618,1,0,0:0:0:0:
128,192,94697,1,0,0:0:0:0:
179,192,94776,1,0,0:0:0:70:kick.wav
332,192,94776,1,0,0:0:0:0:
486,192,94776,1,0,0:0:0:0:
230,192,94934,1,0,0:0:0:0:
179,192,95013,1,0,0:0:0:0:
128,192,95092,1,0,0:0:0:70:kick.wav
281,192,95092,1,0,0:0:0:0:
435,192,95092,1,0,0:0:0:0:
384,192,95250,1,0,0:0:0:0:
332,192,95329,1,0,0:0:0:0:
25,192,95408,1,0,0:0:0:70:kick.wav
179,192,95408,1,0,0:0:0:0:
281,192,95408,1,0,0:0:0:0:
76,192,95566,1,0,0:0:0:0:
230,192,95566,1,0,0:0:0:0:
332,192,95566,1,0,0:0:0:0:
435,192,95724,1,0,0:0:0:70:kick.wav
486,192,95724,1,0,0:0:0:0:
25,192,95882,1,0,0:0:0:0:
179,192,95882,1,0,0:0:0:0:
128,192,96040,1,0,0:0:0:70:kick.wav
281,192,96040,1,0,0:0:0:0:
486,192,96040,1,0,0:0:0:0:
230,192,96197,1,0,0:0:0:0:
384,192,96197,1,0,0:0:0:0:
25,192,96355,1,0,0:0:0:70:kick.wav
76,192,96355,1,0,0:0:0:0:
486,192,96355,1,0,0:0:0:0:
281,192,96513,1,0,0:0:0:0:
332,192,96566,1,0,0:0:0:0:
384,192,96618,1,0,0:0:0:0:
128,192,96671,1,0,0:0:0:70:kick.wav
230,192,96671,1,0,0:0:0:0:
435,192,96671,1,0,0:0:0:0:
76,192,96829,1,0,0:0:0:0:
384,192,96829,1,0,0:0:0:0:
25,192,96987,1,0,0:0:0:70:kick.wav
179,192,96987,1,0,0:0:0:70:crash.wav
332,192,96987,1,0,0:0:0:0:
384,192,97145,1,0,0:0:0:0:
128,192,97224,1,0,0:0:0:0:
281,192,97303,1,0,0:0:0:0:
230,192,97382,1,0,0:0:0:0:
384,192,97461,1,0,0:0:0:0:
128,192,97540,1,0,0:0:0:0:
25,192,97618,1,0,0:0:0:70:kick.wav
230,192,97618,1,0,0:0:0:70:crash.wav
281,192,97618,1,0,0:0:0:0:
435,192,97618,1,0,0:0:0:0:
486,192,97618,1,0,0:0:0:0:
128,192,97934,1,0,0:0:0:70:kick.wav
179,192,97934,1,0,0:0:0:70:crash.wav
332,192,97934,1,0,0:0:0:0:
384,192,97934,1,0,0:0:0:0:
76,192,98092,1,0,0:0:0:70:kick.wav
128,192,98092,1,0,0:0:0:70:crash.wav
384,192,98092,1,0,0:0:0:0:
435,192,98092,1,0,0:0:0:0:
25,192,98408,1,0,0:0:0:70:kick.wav
230,192,98408,1,0,0:0:0:0:
281,192,98408,1,0,0:0:0:0:
486,192,98408,1,0,0:0:0:0:
76,192,98566,1,0,0:0:0:70:kick.wav
179,192,98566,1,0,0:0:0:70:crash.wav
332,192,98566,1,0,0:0:0:0:
435,192,98566,1,0,0:0:0:0:
128,192,98724,1,0,0:0:0:0:
384,192,98724,1,0,0:0:0:0:
25,192,98882,1,0,0:0:0:70:kick.wav
179,192,98882,1,0,0:0:0:70:crash.wav
332,192,98882,1,0,0:0:0:0:
435,192,98882,1,0,0:0:0:0:
486,192,98882,1,0,0:0:0:0:
76,192,99040,1,0,0:0:0:0:
128,192,99118,1,0,0:0:0:0:
179,192,99197,1,0,0:0:0:70:kick.wav
230,192,99197,1,0,0:0:0:0:
384,192,99197,1,0,0:0:0:0:
435,192,99197,1,0,0:0:0:0:
128,192,99355,1,0,0:0:0:70:kick.wav
179,192,99355,1,0,0:0:0:70:crash.wav
332,192,99355,1,0,0:0:0:0:
384,192,99355,1,0,0:0:0:0:
25,192,99671,1,0,0:0:0:70:kick.wav
332,192,99671,1,0,0:0:0:0:
486,192,99671,1,0,0:0:0:0:
128,192,99829,1,0,0:0:0:0:
281,192,99829,1,0,0:0:0:0:
435,192,99829,1,0,0:0:0:0:
230,192,99987,1,0,0:0:0:0:
384,192,99987,1,0,0:0:0:0:
25,192,100145,1,0,0:0:0:70:kick.wav
76,192,100145,1,0,0:0:0:70:finish.wav
179,192,100145,1,0,0:0:0:0:
332,192,100145,1,0,0:0:0:0:
486,192,100145,1,0,0:0:0:0:
230,192,100303,1,0,0:0:0:0:
281,192,100382,1,0,0:0:0:0:
128,192,100461,1,0,0:0:0:70:kick.wav
332,192,100461,1,0,0:0:0:0:
435,192,100461,1,0,0:0:0:0:
179,192,100618,1,0,0:0:0:0:
230,192,100697,1,0,0:0:0:0:
25,192,100776,1,0,0:0:0:70:kick.wav
281,192,100776,1,0,0:0:0:0:
384,192,100776,1,0,0:0:0:0:
486,192,100776,1,0,0:0:0:0:
128,192,100934,1,0,0:0:0:0:
179,192,100934,1,0,0:0:0:0:
230,192,101092,1,0,0:0:0:70:kick.wav
332,192,101092,1,0,0:0:0:0:
435,192,101092,1,0,0:0:0:0:
128,192,101250,1,0,0:0:0:0:
281,192,101250,1,0,0:0:0:0:
179,192,101250,1,0,0:0:0:0:
25,192,101408,1,0,0:0:0:70:kick.wav
76,192,101408,1,0,0:0:0:70:crash.wav
435,192,101408,1,0,0:0:0:0:
486,192,101408,1,0,0:0:0:0:
25,192,101566,1,0,0:0:0:70:kick.wav
76,192,101566,1,0,0:0:0:70:crash.wav
435,192,101566,1,0,0:0:0:0:
486,192,101566,1,0,0:0:0:0:
128,192,101882,1,0,0:0:0:70:kick.wav
179,192,101882,1,0,0:0:0:70:crash.wav
332,192,101882,1,0,0:0:0:0:
384,192,101882,1,0,0:0:0:0:
230,192,101961,1,0,0:0:0:70:kick.wav
281,192,101961,1,0,0:0:0:70:crash.wav
128,192,102040,1,0,0:0:0:70:kick.wav
179,192,102040,1,0,0:0:0:70:crash.wav
332,192,102040,1,0,0:0:0:0:
384,192,102040,1,0,0:0:0:0:
486,192,102197,1,0,0:0:0:70:kick.wav
281,192,102197,1,0,0:0:0:70:crash.wav
230,192,102197,1,0,0:0:0:0:
25,192,102197,1,0,0:0:0:0:
76,192,102355,1,0,0:0:0:0:
179,192,102434,1,0,0:0:0:0:
281,192,102513,1,0,0:0:0:0:
25,192,102671,1,0,0:0:0:70:kick.wav
230,192,102671,1,0,0:0:0:70:finish.wav
332,192,102671,1,0,0:0:0:0:
384,192,102671,1,0,0:0:0:0:
435,192,102671,1,0,0:0:0:0:
128,192,102829,1,0,0:0:0:0:
281,192,102987,1,0,0:0:0:0:
486,192,102987,1,0,0:0:0:0:
76,192,103145,128,0,103461:0:0:0:0:
179,192,103145,128,0,103461:0:0:0:0:
332,192,103461,1,0,0:0:0:70:kick.wav
435,192,103461,1,0,0:0:0:0:
25,192,103618,1,0,0:0:0:0:
230,192,103618,1,0,0:0:0:0:
281,192,103776,1,0,0:0:0:0:
76,192,103934,1,0,0:0:0:70:kick.wav
435,192,103934,1,0,0:0:0:0:
76,192,104092,1,0,0:0:0:70:kick.wav
435,192,104092,1,0,0:0:0:0:
179,192,104250,1,0,0:0:0:0:
332,192,104250,1,0,0:0:0:0:
435,192,104408,1,0,0:0:0:0:
384,192,104487,1,0,0:0:0:70:kick.wav
25,192,104566,1,0,0:0:0:0:
281,192,104566,1,0,0:0:0:0:
332,192,104645,1,0,0:0:0:0:
128,192,104724,1,0,0:0:0:70:kick.wav
384,192,104724,1,0,0:0:0:0:
230,192,104882,1,0,0:0:0:0:
486,192,104882,1,0,0:0:0:0:
128,192,105040,1,0,0:0:0:0:
384,192,105040,1,0,0:0:0:0:
179,192,105197,1,0,0:0:0:70:kick.wav
332,192,105197,1,0,0:0:0:0:
179,192,105355,1,0,0:0:0:70:kick.wav
332,192,105355,1,0,0:0:0:0:
25,192,105513,1,0,0:0:0:0:
230,192,105513,1,0,0:0:0:0:
332,192,105671,128,0,105987:0:0:0:0:
435,192,105671,128,0,105987:0:0:0:0:
76,192,105987,1,0,0:0:0:70:kick.wav
179,192,105987,1,0,0:0:0:0:
281,192,106145,1,0,0:0:0:0:
486,192,106145,1,0,0:0:0:0:
230,192,106303,1,0,0:0:0:0:
179,192,106461,1,0,0:0:0:70:kick.wav
332,192,106461,1,0,0:0:0:0:
25,192,106618,1,0,0:0:0:70:kick.wav
230,192,106618,1,0,0:0:0:0:
384,192,106618,1,0,0:0:0:0:
128,192,106776,1,0,0:0:0:0:
281,192,106776,1,0,0:0:0:0:
486,192,106776,1,0,0:0:0:0:
25,192,106934,1,0,0:0:0:0:
230,192,106934,1,0,0:0:0:0:
384,192,106934,1,0,0:0:0:0:
76,192,107092,1,0,0:0:0:0:
435,192,107092,1,0,0:0:0:0:
486,192,107092,1,0,0:0:0:0:
179,192,107250,1,0,0:0:0:0:
332,192,107250,1,0,0:0:0:0:
25,192,107408,1,0,0:0:0:0:
76,192,107408,1,0,0:0:0:0:
435,192,107408,1,0,0:0:0:0:
384,192,107487,1,0,0:0:0:0:
179,192,107566,1,0,0:0:0:0:
332,192,107566,1,0,0:0:0:0:
281,192,107645,1,0,0:0:0:0:
25,192,107724,1,0,0:0:0:70:kick.wav
76,192,107724,1,0,0:0:0:70:finish.wav
230,192,107724,1,0,0:0:0:0:
435,192,107724,1,0,0:0:0:0:
486,192,107724,1,0,0:0:0:0:
384,192,107882,1,0,0:0:0:0:
332,192,107961,1,0,0:0:0:0:
128,192,108040,1,0,0:0:0:70:kick.wav
281,192,108040,1,0,0:0:0:0:
25,192,108197,1,0,0:0:0:0:
230,192,108197,1,0,0:0:0:0:
486,192,108197,1,0,0:0:0:0:
128,192,108355,1,0,0:0:0:70:kick.wav
332,192,108355,1,0,0:0:0:0:
384,192,108434,1,0,0:0:0:0:
25,192,108513,1,0,0:0:0:0:
230,192,108513,1,0,0:0:0:0:
435,192,108513,1,0,0:0:0:0:
332,192,108592,1,0,0:0:0:0:
25,192,108671,1,0,0:0:0:70:kick.wav
230,192,108671,1,0,0:0:0:0:
435,192,108671,1,0,0:0:0:0:
179,192,108829,1,0,0:0:0:0:
128,192,108987,1,0,0:0:0:70:kick.wav
384,192,108987,1,0,0:0:0:0:
76,192,109145,1,0,0:0:0:0:
281,192,109145,1,0,0:0:0:0:
486,192,109145,1,0,0:0:0:0:
230,192,109303,1,0,0:0:0:70:kick.wav
384,192,109303,1,0,0:0:0:0:
128,192,109382,1,0,0:0:0:0:
25,192,109461,1,0,0:0:0:0:
281,192,109461,1,0,0:0:0:0:
486,192,109461,1,0,0:0:0:0:
230,192,109618,1,0,0:0:0:70:kick.wav
332,192,109618,1,0,0:0:0:0:
435,192,109618,1,0,0:0:0:0:
179,192,109776,1,0,0:0:0:0:
281,192,109776,1,0,0:0:0:0:
25,192,109934,1,0,0:0:0:70:kick.wav
128,192,109934,1,0,0:0:0:0:
230,192,109934,1,0,0:0:0:0:
179,192,110092,1,0,0:0:0:0:
281,192,110092,1,0,0:0:0:0:
230,192,110250,1,0,0:0:0:70:kick.wav
332,192,110250,1,0,0:0:0:0:
435,192,110250,1,0,0:0:0:0:
76,192,110408,1,0,0:0:0:70:kick.wav
128,192,110408,1,0,0:0:0:0:
179,192,110408,1,0,0:0:0:0:
332,192,110566,1,0,0:0:0:70:kick.wav
384,192,110566,1,0,0:0:0:0:
435,192,110566,1,0,0:0:0:0:
76,192,110724,1,0,0:0:0:70:kick.wav
128,192,110724,1,0,0:0:0:0:
179,192,110724,1,0,0:0:0:0:
435,192,110882,1,0,0:0:0:70:kick.wav
486,192,110882,1,0,0:0:0:0:
179,192,110961,1,0,0:0:0:70:kick.wav
230,192,110961,1,0,0:0:0:0:
281,192,111040,1,0,0:0:0:70:kick.wav
332,192,111040,1,0,0:0:0:0:
25,192,111118,1,0,0:0:0:70:kick.wav
76,192,111118,1,0,0:0:0:0:
435,192,111197,1,0,0:0:0:70:kick.wav
486,192,111197,1,0,0:0:0:0:
179,192,111276,1,0,0:0:0:70:kick.wav
230,192,111276,1,0,0:0:0:0:
281,192,111355,1,0,0:0:0:70:kick.wav
332,192,111355,1,0,0:0:0:0:
25,192,111434,1,0,0:0:0:70:kick.wav
76,192,111434,1,0,0:0:0:0:
179,192,111513,1,0,0:0:0:70:kick.wav
230,192,111513,1,0,0:0:0:70:finish.wav
435,192,111513,1,0,0:0:0:0:
486,192,111513,1,0,0:0:0:0:
76,192,111671,1,0,0:0:0:70:kick.wav
128,192,111671,1,0,0:0:0:0:
332,192,111750,1,0,0:0:0:70:kick.wav
384,192,111750,1,0,0:0:0:0:
76,192,111829,1,0,0:0:0:70:kick.wav
128,192,111829,1,0,0:0:0:0:
281,192,111829,1,0,0:0:0:0:
384,192,111987,1,0,0:0:0:70:kick.wav
435,192,111987,1,0,0:0:0:0:
128,192,112066,1,0,0:0:0:70:kick.wav
179,192,112066,1,0,0:0:0:0:
230,192,112145,1,0,0:0:0:70:kick.wav
384,192,112145,1,0,0:0:0:0:
435,192,112145,1,0,0:0:0:0:
179,192,112303,1,0,0:0:0:70:kick.wav
332,192,112303,1,0,0:0:0:0:
25,192,112461,128,0,112697:0:0:0:70:kick.wav
230,192,112461,128,0,112697:0:0:0:0:
281,192,112461,128,0,112697:0:0:0:0:
486,192,112461,128,0,112697:0:0:0:0:
76,192,112776,1,0,0:0:0:70:kick.wav
128,192,112776,1,0,0:0:0:70:finish.wav
179,192,112776,1,0,0:0:0:70:C4H.wav
281,192,112776,1,0,0:0:0:100:C6S_s.wav
486,192,112776,1,0,0:0:0:0:
384,192,112934,1,0,0:0:0:100:D#5S_Eb5S_s.wav
332,192,113013,1,0,0:0:0:100:G5S_s.wav
25,192,113092,1,0,0:0:0:70:kick.wav
281,192,113092,1,0,0:0:0:100:C6S_s.wav
128,192,113250,1,0,0:0:0:100:C6S_s.wav
179,192,113329,1,0,0:0:0:100:D6S_s.wav
230,192,113408,1,0,0:0:0:70:kick.wav
435,192,113408,1,0,0:0:0:100:D#6S_Eb6S_s.wav
384,192,113487,1,0,0:0:0:100:C6S_s.wav
332,192,113566,1,0,0:0:0:100:G5S_s.wav
281,192,113645,1,0,0:0:0:100:D#5S_Eb5S_s.wav
128,192,113724,1,0,0:0:0:70:kick.wav
486,192,113724,1,0,0:0:0:100:C6S_s.wav
435,192,113803,1,0,0:0:0:100:G5S_s.wav
384,192,113882,1,0,0:0:0:100:D#5S_Eb5S_s.wav
332,192,113961,1,0,0:0:0:100:C5S_s.wav
25,192,114040,1,0,0:0:0:70:kick.wav
230,192,114040,1,0,0:0:0:70:B3H.wav
486,192,114040,1,0,0:0:0:0:
128,192,114197,1,0,0:0:0:100:G5S_s.wav
281,192,114197,1,0,0:0:0:0:
384,192,114197,1,0,0:0:0:0:
332,192,114355,1,0,0:0:0:70:kick.wav
486,192,114355,1,0,0:0:0:100:F5S_s.wav
179,192,114434,1,0,0:0:0:100:G5S_s.wav
230,192,114513,1,0,0:0:0:100:G#5S_Ab5S_s.wav
281,192,114592,1,0,0:0:0:100:F5S_s.wav
25,192,114671,1,0,0:0:0:70:kick.wav
179,192,114671,1,0,0:0:0:100:G5S_s.wav
332,192,114750,1,0,0:0:0:100:F5S_s.wav
281,192,114829,1,0,0:0:0:100:D#5S_Eb5S_s.wav
230,192,114908,1,0,0:0:0:100:B4S_s.wav
76,192,114987,1,0,0:0:0:70:kick.wav
435,192,114987,1,0,0:0:0:100:D5S_s.wav
179,192,115066,1,0,0:0:0:100:B4S_s.wav
281,192,115145,1,0,0:0:0:100:D#5S_Eb5S_s.wav
384,192,115224,1,0,0:0:0:100:G5S_s.wav
25,192,115303,1,0,0:0:0:70:kick.wav
230,192,115303,1,0,0:0:0:70:A#3H_Bb3H.wav
486,192,115303,1,0,0:0:0:100:C6S_s.wav
128,192,115461,1,0,0:0:0:100:D#5S_Eb5S_s.wav
281,192,115461,1,0,0:0:0:0:
76,192,115540,1,0,0:0:0:100:G5S_s.wav
25,192,115618,1,0,0:0:0:70:kick.wav
332,192,115618,1,0,0:0:0:100:C6S_s.wav
179,192,115776,1,0,0:0:0:100:C6S_s.wav
128,192,115855,1,0,0:0:0:100:D6S_s.wav
76,192,115934,1,0,0:0:0:70:kick.wav
486,192,115934,1,0,0:0:0:100:D#6S_Eb6S_s.wav
332,192,116013,1,0,0:0:0:100:G5S_s.wav
230,192,116092,1,0,0:0:0:100:C6S_s.wav
281,192,116171,1,0,0:0:0:100:D6S_s.wav
25,192,116250,1,0,0:0:0:70:kick.wav
332,192,116250,1,0,0:0:0:100:D#6S_Eb6S_s.wav
179,192,116329,1,0,0:0:0:100:D6S_s.wav
281,192,116408,1,0,0:0:0:100:D#6S_Eb6S_s.wav
230,192,116487,1,0,0:0:0:100:F6S_s.wav
179,192,116566,1,0,0:0:0:70:kick.wav
332,192,116566,1,0,0:0:0:100:F#6H_Gb6H_s.wav
384,192,116566,1,0,0:0:0:0:
435,192,116566,1,0,0:0:0:0:
230,192,116724,1,0,0:0:0:70:kick.wav
332,192,116724,1,0,0:0:0:100:D6H_s.wav
384,192,116724,1,0,0:0:0:0:
435,192,116724,1,0,0:0:0:0:
76,192,116882,1,0,0:0:0:70:kick.wav
128,192,116882,1,0,0:0:0:100:C6H_s.wav
179,192,116882,1,0,0:0:0:0:
281,192,116882,1,0,0:0:0:0:
76,192,117040,1,0,0:0:0:70:kick.wav
128,192,117040,1,0,0:0:0:100:D6H_s.wav
179,192,117040,1,0,0:0:0:0:
332,192,117040,1,0,0:0:0:0:
25,192,117197,1,0,0:0:0:70:kick.wav
230,192,117197,1,0,0:0:0:70:finish.wav
281,192,117197,1,0,0:0:0:100:B5H_s.wav
384,192,117197,1,0,0:0:0:0:
486,192,117197,1,0,0:0:0:0:
179,192,117355,1,0,0:0:0:100:G5S_s.wav
332,192,117434,1,0,0:0:0:100:G5S_s.wav
179,192,117513,1,0,0:0:0:100:G5S_s.wav
332,192,117592,1,0,0:0:0:0:
179,192,117671,1,0,0:0:0:100:G5S_s.wav
332,192,117750,1,0,0:0:0:100:B5S_s.wav
25,192,117829,1,0,0:0:0:70:kick.wav
76,192,117829,1,0,0:0:0:70:finish.wav
230,192,117829,1,0,0:0:0:70:C4H.wav
281,192,117829,1,0,0:0:0:100:C6S_s.wav
486,192,117829,1,0,0:0:0:0:
128,192,117987,1,0,0:0:0:100:D#5S_Eb5S_s.wav
179,192,118066,1,0,0:0:0:100:G5S_s.wav
230,192,118145,1,0,0:0:0:70:kick.wav
486,192,118145,1,0,0:0:0:100:C6S_s.wav
384,192,118303,1,0,0:0:0:100:C6S_s.wav
332,192,118382,1,0,0:0:0:100:D6S_s.wav
76,192,118461,1,0,0:0:0:70:kick.wav
281,192,118461,1,0,0:0:0:100:D#6S_Eb6S_s.wav
128,192,118540,1,0,0:0:0:100:C6S_s.wav
179,192,118618,1,0,0:0:0:100:G5S_s.wav
230,192,118697,1,0,0:0:0:100:D#5S_Eb5S_s.wav
25,192,118776,1,0,0:0:0:70:kick.wav
384,192,118776,1,0,0:0:0:100:C6S_s.wav
76,192,118855,1,0,0:0:0:100:G5S_s.wav
128,192,118934,1,0,0:0:0:100:D#5S_Eb5S_s.wav
179,192,119013,1,0,0:0:0:100:C5S_s.wav
25,192,119092,1,0,0:0:0:70:kick.wav
281,192,119092,1,0,0:0:0:70:B3H.wav
486,192,119092,1,0,0:0:0:0:
128,192,119250,1,0,0:0:0:100:G5S_s.wav
230,192,119250,1,0,0:0:0:0:
384,192,119250,1,0,0:0:0:0:
25,192,119408,1,0,0:0:0:70:kick.wav
179,192,119408,1,0,0:0:0:100:F5S_s.wav
332,192,119487,1,0,0:0:0:100:G5S_s.wav
281,192,119566,1,0,0:0:0:100:G#5S_Ab5S_s.wav
230,192,119645,1,0,0:0:0:100:F5S_s.wav
332,192,119724,1,0,0:0:0:70:kick.wav
486,192,119724,1,0,0:0:0:100:G5S_s.wav
179,192,119803,1,0,0:0:0:100:F5S_s.wav
230,192,119882,1,0,0:0:0:100:D#5S_Eb5S_s.wav
281,192,119961,1,0,0:0:0:100:B4S_s.wav
76,192,120040,1,0,0:0:0:70:kick.wav
435,192,120040,1,0,0:0:0:100:D5S_s.wav
332,192,120118,1,0,0:0:0:100:B4S_s.wav
230,192,120197,1,0,0:0:0:100:D#5S_Eb5S_s.wav
128,192,120276,1,0,0:0:0:100:G5S_s.wav
25,192,120355,1,0,0:0:0:70:kick.wav
281,192,120355,1,0,0:0:0:70:A#3H_Bb3H.wav
486,192,120355,1,0,0:0:0:100:C6S_s.wav
230,192,120513,1,0,0:0:0:100:D#5S_Eb5S_s.wav
384,192,120513,1,0,0:0:0:0:
435,192,120592,1,0,0:0:0:100:G5S_s.wav
179,192,120671,1,0,0:0:0:70:kick.wav
486,192,120671,1,0,0:0:0:100:C6S_s.wav
332,192,120829,1,0,0:0:0:100:C6S_s.wav
384,192,120908,1,0,0:0:0:100:D6S_s.wav
25,192,120987,1,0,0:0:0:70:kick.wav
435,192,120987,1,0,0:0:0:100:D#6S_Eb6S_s.wav
179,192,121066,1,0,0:0:0:100:G5S_s.wav
281,192,121145,1,0,0:0:0:100:C6S_s.wav
230,192,121224,1,0,0:0:0:100:D6S_s.wav
179,192,121303,1,0,0:0:0:70:kick.wav
486,192,121303,1,0,0:0:0:100:D#6S_Eb6S_s.wav
332,192,121382,1,0,0:0:0:100:D6S_s.wav
230,192,121461,1,0,0:0:0:100:D#6S_Eb6S_s.wav
281,192,121540,1,0,0:0:0:100:F6S_s.wav
76,192,121618,1,0,0:0:0:70:kick.wav
128,192,121618,1,0,0:0:0:100:F#6H_Gb6H_s.wav
179,192,121618,1,0,0:0:0:0:
332,192,121618,1,0,0:0:0:0:
76,192,121776,1,0,0:0:0:70:kick.wav
128,192,121776,1,0,0:0:0:100:D6H_s.wav
179,192,121776,1,0,0:0:0:0:
281,192,121776,1,0,0:0:0:0:
230,192,121934,1,0,0:0:0:70:kick.wav
332,192,121934,1,0,0:0:0:100:F#6H_Gb6H_s.wav
384,192,121934,1,0,0:0:0:0:
435,192,121934,1,0,0:0:0:0:
179,192,122092,1,0,0:0:0:70:kick.wav
332,192,122092,1,0,0:0:0:100:A6H_s.wav
384,192,122092,1,0,0:0:0:0:
435,192,122092,1,0,0:0:0:0:
25,192,122250,1,0,0:0:0:70:kick.wav
128,192,122250,1,0,0:0:0:70:finish.wav
230,192,122250,1,0,0:0:0:100:G6H_s.wav
281,192,122250,1,0,0:0:0:0:
486,192,122250,1,0,0:0:0:0:
332,192,122408,1,0,0:0:0:100:G5S_s.wav
179,192,122487,1,0,0:0:0:100:G5S_s.wav
332,192,122566,1,0,0:0:0:100:G5S_s.wav
384,192,122566,1,0,0:0:0:0:
179,192,122724,1,0,0:0:0:100:G6S_s.wav
332,192,122803,1,0,0:0:0:100:B6S_s.wav
25,192,122882,1,0,0:0:0:70:kick.wav
76,192,122882,1,0,0:0:0:70:crash.wav
230,192,122882,1,0,0:0:0:100:C7S_s.wav
435,192,122882,1,0,0:0:0:0:
486,192,122882,1,0,0:0:0:0:
76,192,123197,1,0,0:0:0:0:
128,192,123197,1,0,0:0:0:0:
179,192,123197,1,0,0:0:0:0:
25,192,123355,1,0,0:0:0:70:kick.wav
230,192,123355,1,0,0:0:0:70:crash.wav
281,192,123355,1,0,0:0:0:0:
384,192,123355,1,0,0:0:0:0:
486,192,123355,1,0,0:0:0:0:
25,192,123671,1,0,0:0:0:70:kick.wav
128,192,123671,1,0,0:0:0:70:crash.wav
230,192,123671,1,0,0:0:0:0:
281,192,123671,1,0,0:0:0:0:
486,192,123671,1,0,0:0:0:0:
25,192,123829,1,0,0:0:0:70:kick.wav
128,192,123829,1,0,0:0:0:70:crash.wav
230,192,123829,1,0,0:0:0:0:
281,192,123829,1,0,0:0:0:0:
486,192,123829,1,0,0:0:0:0:
332,192,124145,1,0,0:0:0:70:kick.wav
384,192,124145,1,0,0:0:0:0:
435,192,124145,1,0,0:0:0:0:
76,192,124303,1,0,0:0:0:70:kick.wav
128,192,124303,1,0,0:0:0:70:crash.wav
179,192,124303,1,0,0:0:0:0:
281,192,124303,1,0,0:0:0:0:
486,192,124303,1,0,0:0:0:0:
76,192,124618,1,0,0:0:0:70:kick.wav
128,192,124618,1,0,0:0:0:70:crash.wav
179,192,124618,1,0,0:0:0:0:
281,192,124618,1,0,0:0:0:0:
486,192,124618,1,0,0:0:0:0:
25,192,124776,1,0,0:0:0:70:kick.wav
230,192,124776,1,0,0:0:0:70:crash.wav
332,192,124776,1,0,0:0:0:0:
435,192,124776,1,0,0:0:0:0:
76,192,124934,1,0,0:0:0:70:kick.wav
179,192,124934,1,0,0:0:0:70:crash.wav
281,192,124934,1,0,0:0:0:0:
486,192,124934,1,0,0:0:0:0:
25,192,125092,1,0,0:0:0:70:kick.wav
230,192,125092,1,0,0:0:0:70:crash.wav
332,192,125092,1,0,0:0:0:0:
435,192,125092,1,0,0:0:0:0:
25,192,125408,128,0,126671:0:0:0:70:kick.wav
76,192,125408,128,0,126671:0:0:0:70:crash.wav
128,192,125408,128,0,126671:0:0:0:70:finish.wav
384,192,125408,128,0,126671:0:0:0:0:
435,192,125408,128,0,126671:0:0:0:0:
486,192,125408,128,0,126671:0:0:0:0:
