osu file format v14

[General]
AudioFilename: audio.ogg
AudioLeadIn: 0
PreviewTime: 79934
Countdown: 0
SampleSet: Soft
StackLeniency: 0.7
Mode: 3
LetterboxInBreaks: 0
SpecialStyle: 0
WidescreenStoryboard: 1

[Editor]
DistanceSpacing: 1
BeatDivisor: 2
GridSize: 16
TimelineZoom: 1.4

[Metadata]
Title:Retribution
TitleUnicode:Retribution
Artist:brz1128+suimag
ArtistUnicode:brz1128+すいマグ
Creator:Hugged
Version:Easy
Source:
Tags:Gothic Hardcore Piano Harpsicord Electronic Instrumental Chordstream Chordjack Pastel breeze collection すいマグ すいかマグノリア散るちゃん suika magnolia chiru-chan
BeatmapID:3940722
BeatmapSetID:1910399

[Difficulty]
HPDrainRate:6
CircleSize:10
OverallDifficulty:6
ApproachRate:5
SliderMultiplier:1.4
SliderTickRate:1

[Events]
//Background and Video events
0,0,"peakpx.jpg",0,0
//Break Periods
//Storyboard Layer 0 (Background)
//Storyboard Layer 1 (Fail)
//Storyboard Layer 2 (Pass)
//Storyboard Layer 3 (Foreground)
//Storyboard Layer 4 (Overlay)
//Storyboard Sound Samples

[TimingPoints]
1619,315.78947368421,4,2,1,25,1,0
62250,-100,4,2,1,25,0,1
71092,-100,4,2,1,25,0,0
72355,-100,4,2,1,25,0,1
81197,-100,4,2,1,25,0,0
82461,-100,4,2,1,25,0,1
91303,-100,4,2,1,25,0,0
92566,-100,4,2,1,25,0,1
102671,-100,4,2,1,25,0,0

[HitObjects]
25,192,1619,5,0,0:0:0:70:finish.wav
486,192,1619,1,0,0:0:0:70:kick.wav
332,192,1934,1,0,0:0:0:0:
179,192,2092,1,0,0:0:0:0:
332,192,2408,128,0,2882:0:0:0:0:
128,192,2882,1,0,0:0:0:0:
435,192,3197,1,0,0:0:0:0:
76,192,3513,1,0,0:0:0:0:
384,192,3829,1,0,0:0:0:0:
281,192,4145,1,0,0:0:0:0:
179,192,4461,1,0,0:0:0:0:
332,192,4618,1,0,0:0:0:0:
179,192,4934,128,0,5408:0:0:0:0:
281,192,5408,1,0,0:0:0:0:
435,192,5724,1,0,0:0:0:0:
76,192,6040,1,0,0:0:0:0:
230,192,6513,1,0,0:0:0:0:
486,192,6671,1,0,0:0:0:0:
179,192,6987,1,0,0:0:0:0:
332,192,7145,1,0,0:0:0:0:
179,192,7461,128,0,7934:0:0:0:0:
25,192,7934,1,0,0:0:0:0:
332,192,8250,1,0,0:0:0:0:
179,192,8408,1,0,0:0:0:0:
332,192,8724,128,0,9197:0:0:0:0:
76,192,9197,1,0,0:0:0:0:
179,192,9513,1,0,0:0:0:0:
281,192,9829,1,0,0:0:0:0:
384,192,10145,1,0,0:0:0:0:
128,192,10461,1,0,0:0:0:0:
384,192,10618,1,0,0:0:0:0:
384,192,10934,1,0,0:0:0:0:
281,192,11250,128,0,11724:0:0:0:0:
25,192,11724,1,0,0:0:0:70:finish.wav
486,192,11724,1,0,0:0:0:0:
179,192,12040,1,0,0:0:0:0:
435,192,12197,1,0,0:0:0:0:
76,192,12513,128,0,12987:0:0:0:0:
486,192,12987,1,0,0:0:0:0:
281,192,13303,1,0,0:0:0:0:
76,192,13618,1,0,0:0:0:0:
230,192,13934,1,0,0:0:0:0:
384,192,14250,1,0,0:0:0:0:
76,192,14566,1,0,0:0:0:0:
332,192,14724,1,0,0:0:0:0:
179,192,15040,128,0,15513:0:0:0:0:
25,192,15513,1,0,0:0:0:0:
230,192,15829,1,0,0:0:0:0:
384,192,16145,1,0,0:0:0:0:
179,192,16461,1,0,0:0:0:0:
25,192,16776,1,0,0:0:0:70:finish.wav
486,192,16776,1,0,0:0:0:0:
384,192,17092,1,0,0:0:0:0:
230,192,17250,1,0,0:0:0:0:
332,192,17566,128,0,18040:0:0:0:0:
25,192,18040,1,0,0:0:0:70:finish.wav
486,192,18040,1,0,0:0:0:0:
128,192,18355,1,0,0:0:0:0:
281,192,18513,1,0,0:0:0:0:
179,192,18829,128,0,19303:0:0:0:0:
25,192,19303,1,0,0:0:0:70:finish.wav
486,192,19303,1,0,0:0:0:0:
332,192,19618,1,0,0:0:0:0:
25,192,19934,1,0,0:0:0:70:finish.wav
486,192,19934,1,0,0:0:0:0:
179,192,20250,1,0,0:0:0:0:
435,192,20566,1,0,0:0:0:70:crash.wav
230,192,20724,1,0,0:0:0:70:crash.wav
76,192,21040,1,0,0:0:0:70:crash.wav
230,192,21197,1,0,0:0:0:70:crash.wav
281,192,21197,1,0,0:0:0:70:kick.wav
128,192,21513,1,0,0:0:0:0:
384,192,21513,1,0,0:0:0:0:
25,192,21829,1,0,0:0:0:70:finish.wav
486,192,21829,1,0,0:0:0:70:kick.wav
332,192,22145,1,0,0:0:0:70:kick.wav
128,192,22303,1,0,0:0:0:0:
435,192,22461,1,0,0:0:0:70:kick.wav
435,192,22776,1,0,0:0:0:70:kick.wav
230,192,23092,1,0,0:0:0:70:kick.wav
76,192,23408,1,0,0:0:0:70:kick.wav
384,192,23566,1,0,0:0:0:0:
179,192,23724,1,0,0:0:0:70:kick.wav
230,192,24040,1,0,0:0:0:70:kick.wav
486,192,24197,1,0,0:0:0:0:
25,192,24355,1,0,0:0:0:70:kick.wav
281,192,24671,1,0,0:0:0:70:kick.wav
179,192,24829,1,0,0:0:0:0:
384,192,24987,1,0,0:0:0:70:kick.wav
384,192,25303,1,0,0:0:0:70:kick.wav
25,192,25618,1,0,0:0:0:70:finish.wav
486,192,25618,1,0,0:0:0:70:kick.wav
230,192,25776,128,0,26250:0:0:0:70:kick.wav
332,192,26250,1,0,0:0:0:70:kick.wav
179,192,26566,1,0,0:0:0:0:
332,192,26724,1,0,0:0:0:0:
25,192,26882,1,0,0:0:0:70:finish.wav
486,192,26882,1,0,0:0:0:70:kick.wav
230,192,27197,1,0,0:0:0:70:kick.wav
332,192,27355,1,0,0:0:0:0:
128,192,27513,1,0,0:0:0:70:kick.wav
128,192,27829,1,0,0:0:0:70:kick.wav
486,192,28145,1,0,0:0:0:70:kick.wav
179,192,28461,1,0,0:0:0:70:kick.wav
332,192,28618,1,0,0:0:0:0:
25,192,28776,1,0,0:0:0:70:kick.wav
281,192,29092,1,0,0:0:0:70:kick.wav
128,192,29250,1,0,0:0:0:0:
486,192,29408,1,0,0:0:0:70:kick.wav
76,192,29724,1,0,0:0:0:70:kick.wav
332,192,29882,1,0,0:0:0:0:
230,192,30040,1,0,0:0:0:70:kick.wav
230,192,30355,1,0,0:0:0:70:kick.wav
25,192,30671,1,0,0:0:0:70:finish.wav
486,192,30671,1,0,0:0:0:70:kick.wav
281,192,30829,128,0,31303:0:0:0:70:kick.wav
76,192,31303,1,0,0:0:0:70:kick.wav
230,192,31461,1,0,0:0:0:0:
384,192,31618,1,0,0:0:0:0:
25,192,31934,1,0,0:0:0:70:finish.wav
486,192,31934,1,0,0:0:0:70:kick.wav
179,192,32250,1,0,0:0:0:70:kick.wav
76,192,32408,1,0,0:0:0:0:
435,192,32724,1,0,0:0:0:0:
332,192,32882,1,0,0:0:0:70:kick.wav
179,192,33040,1,0,0:0:0:0:
281,192,33197,1,0,0:0:0:70:kick.wav
25,192,33513,1,0,0:0:0:70:kick.wav
332,192,33671,1,0,0:0:0:0:
76,192,33829,1,0,0:0:0:70:kick.wav
486,192,34145,1,0,0:0:0:70:kick.wav
179,192,34303,1,0,0:0:0:0:
435,192,34461,1,0,0:0:0:70:kick.wav
25,192,34776,1,0,0:0:0:70:kick.wav
230,192,34934,1,0,0:0:0:0:
486,192,35250,1,0,0:0:0:0:
281,192,35408,1,0,0:0:0:70:kick.wav
76,192,35566,1,0,0:0:0:0:
179,192,35724,1,0,0:0:0:70:kick.wav
435,192,35724,1,0,0:0:0:0:
128,192,36040,1,0,0:0:0:70:kick.wav
384,192,36040,1,0,0:0:0:0:
76,192,36355,1,0,0:0:0:70:crash.wav
332,192,36355,1,0,0:0:0:70:kick.wav
25,192,36987,1,0,0:0:0:70:finish.wav
486,192,36987,1,0,0:0:0:70:kick.wav
281,192,37303,1,0,0:0:0:70:kick.wav
435,192,37461,1,0,0:0:0:0:
76,192,37776,1,0,0:0:0:0:
230,192,37934,1,0,0:0:0:70:kick.wav
332,192,38092,1,0,0:0:0:0:
179,192,38250,1,0,0:0:0:70:kick.wav
486,192,38566,1,0,0:0:0:70:kick.wav
128,192,38724,1,0,0:0:0:0:
332,192,38882,1,0,0:0:0:70:kick.wav
25,192,39197,1,0,0:0:0:70:kick.wav
384,192,39355,1,0,0:0:0:0:
179,192,39513,1,0,0:0:0:70:kick.wav
486,192,39829,1,0,0:0:0:70:kick.wav
230,192,39987,1,0,0:0:0:0:
25,192,40303,1,0,0:0:0:0:
281,192,40461,1,0,0:0:0:70:kick.wav
179,192,40618,1,0,0:0:0:0:
76,192,40776,1,0,0:0:0:70:kick.wav
332,192,40776,1,0,0:0:0:0:
128,192,41092,1,0,0:0:0:70:kick.wav
384,192,41092,1,0,0:0:0:0:
179,192,41408,1,0,0:0:0:70:crash.wav
435,192,41408,1,0,0:0:0:70:kick.wav
25,192,42040,1,0,0:0:0:70:finish.wav
486,192,42040,1,0,0:0:0:70:kick.wav
25,192,42355,1,0,0:0:0:0:
25,192,42671,1,0,0:0:0:0:
25,192,43145,1,0,0:0:0:0:
25,192,43461,1,0,0:0:0:0:
332,192,43934,1,0,0:0:0:0:
179,192,44092,1,0,0:0:0:0:
332,192,44250,1,0,0:0:0:0:
25,192,44566,1,0,0:0:0:70:finish.wav
486,192,44566,1,0,0:0:0:0:
486,192,44882,1,0,0:0:0:0:
486,192,45197,1,0,0:0:0:0:
486,192,45671,1,0,0:0:0:0:
25,192,45987,128,0,46461:0:0:0:0:
281,192,46461,1,0,0:0:0:0:
179,192,46776,1,0,0:0:0:0:
332,192,46934,1,0,0:0:0:0:
25,192,47092,1,0,0:0:0:70:finish.wav
486,192,47092,1,0,0:0:0:0:
281,192,47408,1,0,0:0:0:0:
281,192,47724,1,0,0:0:0:0:
281,192,48197,1,0,0:0:0:0:
281,192,48513,1,0,0:0:0:0:
76,192,48987,1,0,0:0:0:0:
435,192,49145,1,0,0:0:0:0:
76,192,49303,1,0,0:0:0:0:
25,192,49618,1,0,0:0:0:70:finish.wav
486,192,49618,1,0,0:0:0:0:
230,192,49934,1,0,0:0:0:0:
230,192,50250,1,0,0:0:0:0:
230,192,50724,1,0,0:0:0:0:
281,192,51040,128,0,51513:0:0:0:0:
128,192,51513,1,0,0:0:0:0:
332,192,51829,1,0,0:0:0:0:
179,192,51987,1,0,0:0:0:0:
25,192,52145,1,0,0:0:0:70:finish.wav
486,192,52145,1,0,0:0:0:70:kick.wav
281,192,52461,1,0,0:0:0:70:kick.wav
128,192,52776,1,0,0:0:0:70:kick.wav
384,192,53092,1,0,0:0:0:70:kick.wav
179,192,53408,1,0,0:0:0:70:kick.wav
332,192,53724,1,0,0:0:0:70:kick.wav
76,192,54040,1,0,0:0:0:70:kick.wav
179,192,54197,1,0,0:0:0:0:
281,192,54355,1,0,0:0:0:70:kick.wav
25,192,54671,1,0,0:0:0:70:kick.wav
332,192,54987,1,0,0:0:0:70:kick.wav
179,192,55303,1,0,0:0:0:70:kick.wav
486,192,55618,1,0,0:0:0:70:kick.wav
76,192,55934,1,0,0:0:0:70:kick.wav
384,192,56092,128,0,56566:0:0:0:0:
128,192,56566,1,0,0:0:0:70:kick.wav
281,192,56882,1,0,0:0:0:0:
230,192,57040,1,0,0:0:0:0:
25,192,57197,1,0,0:0:0:70:crash.wav
486,192,57197,1,0,0:0:0:70:kick.wav
25,192,57671,1,0,0:0:0:70:crash.wav
486,192,57671,1,0,0:0:0:70:kick.wav
384,192,57987,1,0,0:0:0:70:crash.wav
25,192,58145,1,0,0:0:0:70:crash.wav
230,192,58145,1,0,0:0:0:70:kick.wav
128,192,58461,1,0,0:0:0:70:kick.wav
281,192,58618,1,0,0:0:0:70:crash.wav
486,192,58618,1,0,0:0:0:70:kick.wav
384,192,58934,1,0,0:0:0:70:crash.wav
128,192,59092,1,0,0:0:0:70:crash.wav
384,192,59250,1,0,0:0:0:70:crash.wav
25,192,59408,1,0,0:0:0:70:crash.wav
230,192,59408,1,0,0:0:0:70:kick.wav
332,192,59724,1,0,0:0:0:0:
281,192,60040,1,0,0:0:0:0:
230,192,60355,1,0,0:0:0:0:
179,192,60671,1,0,0:0:0:0:
384,192,60987,1,0,0:0:0:70:crash.wav
128,192,61145,1,0,0:0:0:70:crash.wav
25,192,61461,1,0,0:0:0:70:crash.wav
486,192,61461,1,0,0:0:0:70:kick.wav
332,192,61776,128,0,62250:0:0:0:0:
76,192,62250,1,0,0:0:0:70:finish.wav
435,192,62250,1,0,0:0:0:70:kick.wav
179,192,62566,1,0,0:0:0:70:kick.wav
281,192,62724,1,0,0:0:0:0:
25,192,63040,1,0,0:0:0:0:
332,192,63197,1,0,0:0:0:70:kick.wav
179,192,63355,1,0,0:0:0:0:
435,192,63513,1,0,0:0:0:70:kick.wav
486,192,63513,1,0,0:0:0:0:
230,192,63829,1,0,0:0:0:70:kick.wav
281,192,63829,1,0,0:0:0:0:
25,192,64145,1,0,0:0:0:70:kick.wav
76,192,64145,1,0,0:0:0:0:
230,192,64461,1,0,0:0:0:70:kick.wav
281,192,64461,1,0,0:0:0:0:
486,192,64776,1,0,0:0:0:70:kick.wav
332,192,65092,1,0,0:0:0:70:kick.wav
76,192,65250,1,0,0:0:0:0:
486,192,65566,1,0,0:0:0:0:
179,192,65724,1,0,0:0:0:70:kick.wav
332,192,65882,1,0,0:0:0:0:
25,192,66040,1,0,0:0:0:70:kick.wav
230,192,66040,1,0,0:0:0:0:
332,192,66355,1,0,0:0:0:70:kick.wav
435,192,66355,1,0,0:0:0:0:
76,192,66671,1,0,0:0:0:70:kick.wav
179,192,66671,1,0,0:0:0:0:
384,192,66829,128,0,67303:0:0:0:0:
25,192,67303,1,0,0:0:0:70:finish.wav
230,192,67303,1,0,0:0:0:70:kick.wav
435,192,67618,1,0,0:0:0:70:kick.wav
332,192,67776,1,0,0:0:0:0:
384,192,68092,1,0,0:0:0:0:
76,192,68250,1,0,0:0:0:70:kick.wav
179,192,68408,1,0,0:0:0:0:
281,192,68566,1,0,0:0:0:70:finish.wav
486,192,68566,1,0,0:0:0:70:kick.wav
179,192,68882,1,0,0:0:0:70:kick.wav
76,192,69040,1,0,0:0:0:0:
128,192,69355,1,0,0:0:0:0:
332,192,69513,1,0,0:0:0:70:kick.wav
435,192,69671,1,0,0:0:0:0:
25,192,69829,1,0,0:0:0:70:finish.wav
281,192,69829,1,0,0:0:0:70:kick.wav
128,192,70145,1,0,0:0:0:70:kick.wav
230,192,70461,1,0,0:0:0:70:finish.wav
486,192,70461,1,0,0:0:0:70:kick.wav
384,192,70776,1,0,0:0:0:70:kick.wav
281,192,71092,1,0,0:0:0:70:crash.wav
230,192,71250,1,0,0:0:0:70:crash.wav
128,192,71566,1,0,0:0:0:70:crash.wav
384,192,71566,1,0,0:0:0:70:kick.wav
281,192,71882,128,0,72355:0:0:0:70:crash.wav
25,192,72355,1,0,0:0:0:70:finish.wav
486,192,72355,1,0,0:0:0:70:kick.wav
332,192,72671,1,0,0:0:0:70:kick.wav
230,192,72829,1,0,0:0:0:0:
486,192,73145,1,0,0:0:0:0:
179,192,73303,1,0,0:0:0:70:kick.wav
332,192,73461,1,0,0:0:0:0:
25,192,73618,1,0,0:0:0:70:kick.wav
486,192,73618,1,0,0:0:0:0:
230,192,73934,1,0,0:0:0:70:kick.wav
281,192,73934,1,0,0:0:0:0:
76,192,74250,1,0,0:0:0:70:kick.wav
435,192,74250,1,0,0:0:0:0:
179,192,74566,1,0,0:0:0:70:kick.wav
332,192,74566,1,0,0:0:0:0:
25,192,74882,1,0,0:0:0:70:kick.wav
179,192,75197,1,0,0:0:0:70:kick.wav
435,192,75355,1,0,0:0:0:0:
25,192,75671,1,0,0:0:0:0:
332,192,75829,1,0,0:0:0:70:kick.wav
179,192,75987,1,0,0:0:0:0:
281,192,76145,1,0,0:0:0:70:kick.wav
486,192,76145,1,0,0:0:0:0:
76,192,76461,1,0,0:0:0:70:kick.wav
179,192,76461,1,0,0:0:0:0:
332,192,76776,1,0,0:0:0:70:kick.wav
435,192,76776,1,0,0:0:0:0:
128,192,76934,128,0,77408:0:0:0:0:
281,192,77408,1,0,0:0:0:70:crash.wav
486,192,77408,1,0,0:0:0:70:kick.wav
179,192,77724,1,0,0:0:0:70:crash.wav
332,192,77882,1,0,0:0:0:70:crash.wav
128,192,78197,1,0,0:0:0:70:kick.wav
435,192,78355,1,0,0:0:0:70:crash.wav
332,192,78513,1,0,0:0:0:0:
25,192,78671,1,0,0:0:0:70:crash.wav
230,192,78671,1,0,0:0:0:70:kick.wav
435,192,78987,1,0,0:0:0:70:kick.wav
76,192,79145,1,0,0:0:0:70:crash.wav
384,192,79461,1,0,0:0:0:70:crash.wav
179,192,79618,1,0,0:0:0:0:
76,192,79776,1,0,0:0:0:0:
281,192,79934,1,0,0:0:0:70:finish.wav
486,192,79934,1,0,0:0:0:70:kick.wav
128,192,80250,1,0,0:0:0:70:kick.wav
332,192,80566,1,0,0:0:0:70:kick.wav
76,192,80882,1,0,0:0:0:70:kick.wav
486,192,81197,1,0,0:0:0:70:crash.wav
230,192,81355,1,0,0:0:0:70:crash.wav
25,192,81671,1,0,0:0:0:70:crash.wav
281,192,81829,1,0,0:0:0:70:crash.wav
179,192,81987,128,0,82461:0:0:0:70:crash.wav
25,192,82461,1,0,0:0:0:70:finish.wav
486,192,82461,1,0,0:0:0:70:kick.wav
332,192,82776,1,0,0:0:0:70:kick.wav
332,192,83092,1,0,0:0:0:70:kick.wav
332,192,83408,1,0,0:0:0:70:kick.wav
128,192,83566,1,0,0:0:0:0:
435,192,83882,1,0,0:0:0:0:
76,192,84040,1,0,0:0:0:70:kick.wav
384,192,84197,1,0,0:0:0:0:
179,192,84513,1,0,0:0:0:0:
332,192,84671,1,0,0:0:0:70:kick.wav
486,192,84829,1,0,0:0:0:0:
25,192,84987,1,0,0:0:0:70:kick.wav
25,192,85303,1,0,0:0:0:70:kick.wav
25,192,85618,1,0,0:0:0:70:kick.wav
25,192,85934,1,0,0:0:0:70:kick.wav
486,192,86092,1,0,0:0:0:0:
332,192,86408,1,0,0:0:0:0:
179,192,86566,1,0,0:0:0:70:kick.wav
25,192,86724,1,0,0:0:0:0:
384,192,87040,1,0,0:0:0:0:
128,192,87197,1,0,0:0:0:70:kick.wav
384,192,87355,1,0,0:0:0:0:
25,192,87513,1,0,0:0:0:70:finish.wav
230,192,87513,1,0,0:0:0:70:kick.wav
332,192,87829,1,0,0:0:0:70:kick.wav
332,192,88145,1,0,0:0:0:70:kick.wav
332,192,88461,1,0,0:0:0:70:kick.wav
281,192,88776,1,0,0:0:0:70:finish.wav
486,192,88776,1,0,0:0:0:70:kick.wav
179,192,89092,1,0,0:0:0:70:kick.wav
179,192,89408,1,0,0:0:0:70:kick.wav
179,192,89724,1,0,0:0:0:70:kick.wav
25,192,90040,1,0,0:0:0:70:finish.wav
486,192,90040,1,0,0:0:0:70:kick.wav
281,192,90355,1,0,0:0:0:70:kick.wav
25,192,90671,1,0,0:0:0:70:finish.wav
486,192,90671,1,0,0:0:0:70:kick.wav
230,192,90987,1,0,0:0:0:70:kick.wav
76,192,91303,1,0,0:0:0:70:crash.wav
281,192,91461,1,0,0:0:0:0:
230,192,91618,1,0,0:0:0:70:kick.wav
435,192,91776,1,0,0:0:0:70:crash.wav
25,192,92092,1,0,0:0:0:70:kick.wav
179,192,92250,1,0,0:0:0:0:
332,192,92408,1,0,0:0:0:0:
25,192,92566,1,0,0:0:0:70:finish.wav
486,192,92566,1,0,0:0:0:70:kick.wav
332,192,92882,1,0,0:0:0:70:kick.wav
230,192,93040,1,0,0:0:0:0:
486,192,93355,1,0,0:0:0:0:
179,192,93513,1,0,0:0:0:70:kick.wav
332,192,93671,1,0,0:0:0:0:
25,192,93829,1,0,0:0:0:70:kick.wav
76,192,93829,1,0,0:0:0:0:
281,192,94145,1,0,0:0:0:70:kick.wav
332,192,94145,1,0,0:0:0:0:
179,192,94461,1,0,0:0:0:70:kick.wav
230,192,94461,1,0,0:0:0:0:
435,192,94776,1,0,0:0:0:70:kick.wav
486,192,94776,1,0,0:0:0:0:
25,192,95092,1,0,0:0:0:70:kick.wav
179,192,95408,1,0,0:0:0:70:kick.wav
435,192,95566,1,0,0:0:0:0:
25,192,95882,1,0,0:0:0:0:
332,192,96040,1,0,0:0:0:70:kick.wav
179,192,96197,1,0,0:0:0:0:
281,192,96355,1,0,0:0:0:70:kick.wav
435,192,96355,1,0,0:0:0:0:
76,192,96671,1,0,0:0:0:70:kick.wav
230,192,96671,1,0,0:0:0:0:
332,192,96987,1,0,0:0:0:70:crash.wav
486,192,96987,1,0,0:0:0:70:kick.wav
128,192,97145,128,0,97618:0:0:0:0:
281,192,97618,1,0,0:0:0:70:crash.wav
486,192,97618,1,0,0:0:0:70:kick.wav
76,192,97934,1,0,0:0:0:70:crash.wav
179,192,98092,1,0,0:0:0:70:crash.wav
128,192,98408,1,0,0:0:0:70:kick.wav
435,192,98566,1,0,0:0:0:70:crash.wav
332,192,98724,1,0,0:0:0:0:
25,192,98882,1,0,0:0:0:70:crash.wav
230,192,98882,1,0,0:0:0:70:kick.wav
486,192,99197,1,0,0:0:0:70:kick.wav
281,192,99355,1,0,0:0:0:70:crash.wav
76,192,99671,1,0,0:0:0:70:kick.wav
332,192,99829,1,0,0:0:0:0:
179,192,99987,1,0,0:0:0:0:
281,192,100145,1,0,0:0:0:70:finish.wav
486,192,100145,1,0,0:0:0:70:kick.wav
128,192,100461,1,0,0:0:0:70:kick.wav
332,192,100776,1,0,0:0:0:70:kick.wav
25,192,101092,1,0,0:0:0:70:kick.wav
435,192,101408,1,0,0:0:0:70:crash.wav
230,192,101566,1,0,0:0:0:70:crash.wav
76,192,101882,1,0,0:0:0:70:crash.wav
281,192,102040,1,0,0:0:0:70:crash.wav
128,192,102355,1,0,0:0:0:0:
281,192,102513,1,0,0:0:0:0:
25,192,102671,1,0,0:0:0:70:finish.wav
486,192,102671,1,0,0:0:0:70:kick.wav
230,192,102987,1,0,0:0:0:0:
384,192,103145,1,0,0:0:0:0:
128,192,103461,1,0,0:0:0:70:kick.wav
281,192,103618,1,0,0:0:0:0:
332,192,103934,1,0,0:0:0:70:kick.wav
76,192,104092,1,0,0:0:0:70:kick.wav
435,192,104408,1,0,0:0:0:0:
179,192,104566,1,0,0:0:0:0:
179,192,104882,1,0,0:0:0:0:
486,192,105197,1,0,0:0:0:70:kick.wav
25,192,105513,1,0,0:0:0:0:
384,192,105671,1,0,0:0:0:0:
128,192,105987,1,0,0:0:0:70:kick.wav
486,192,106145,1,0,0:0:0:0:
25,192,106461,1,0,0:0:0:70:kick.wav
281,192,106618,128,0,107092:0:0:0:70:kick.wav
76,192,107092,1,0,0:0:0:0:
332,192,107408,1,0,0:0:0:0:
179,192,107566,1,0,0:0:0:0:
25,192,107724,1,0,0:0:0:70:finish.wav
486,192,107724,1,0,0:0:0:70:kick.wav
281,192,108040,1,0,0:0:0:70:kick.wav
128,192,108197,1,0,0:0:0:0:
384,192,108513,1,0,0:0:0:0:
230,192,108671,1,0,0:0:0:70:kick.wav
179,192,108987,1,0,0:0:0:70:kick.wav
435,192,109145,1,0,0:0:0:0:
76,192,109461,1,0,0:0:0:0:
332,192,109618,1,0,0:0:0:70:kick.wav
332,192,109934,1,0,0:0:0:70:kick.wav
25,192,110250,1,0,0:0:0:70:kick.wav
486,192,110566,1,0,0:0:0:70:kick.wav
128,192,110724,1,0,0:0:0:70:kick.wav
384,192,111040,1,0,0:0:0:70:kick.wav
25,192,111197,1,0,0:0:0:70:kick.wav
486,192,111513,1,0,0:0:0:70:finish.wav
230,192,111671,128,0,112145:0:0:0:70:kick.wav
435,192,112145,1,0,0:0:0:70:kick.wav
281,192,112303,1,0,0:0:0:70:kick.wav
128,192,112461,1,0,0:0:0:70:kick.wav
25,192,112776,1,0,0:0:0:70:finish.wav
486,192,112776,1,0,0:0:0:70:kick.wav
332,192,113092,1,0,0:0:0:70:kick.wav
435,192,113250,1,0,0:0:0:0:
76,192,113566,1,0,0:0:0:0:
179,192,113724,1,0,0:0:0:70:kick.wav
332,192,113882,1,0,0:0:0:0:
230,192,114040,1,0,0:0:0:70:kick.wav
486,192,114355,1,0,0:0:0:70:kick.wav
179,192,114513,1,0,0:0:0:0:
435,192,114671,1,0,0:0:0:70:kick.wav
25,192,114987,1,0,0:0:0:70:kick.wav
332,192,115145,1,0,0:0:0:0:
76,192,115303,1,0,0:0:0:70:kick.wav
486,192,115618,1,0,0:0:0:70:kick.wav
281,192,115776,1,0,0:0:0:0:
25,192,116092,1,0,0:0:0:0:
230,192,116250,1,0,0:0:0:70:kick.wav
435,192,116408,1,0,0:0:0:0:
76,192,116566,1,0,0:0:0:70:kick.wav
332,192,116566,1,0,0:0:0:0:
128,192,116882,1,0,0:0:0:70:kick.wav
384,192,116882,1,0,0:0:0:0:
179,192,117197,1,0,0:0:0:70:finish.wav
435,192,117197,1,0,0:0:0:70:kick.wav
25,192,117829,1,0,0:0:0:70:finish.wav
486,192,117829,1,0,0:0:0:70:kick.wav
230,192,118145,1,0,0:0:0:70:kick.wav
76,192,118303,1,0,0:0:0:0:
435,192,118618,1,0,0:0:0:0:
281,192,118776,1,0,0:0:0:70:kick.wav
179,192,118934,1,0,0:0:0:0:
332,192,119092,1,0,0:0:0:70:kick.wav
25,192,119408,1,0,0:0:0:70:kick.wav
384,192,119566,1,0,0:0:0:0:
179,192,119724,1,0,0:0:0:70:kick.wav
486,192,120040,1,0,0:0:0:70:kick.wav
128,192,120197,1,0,0:0:0:0:
332,192,120355,1,0,0:0:0:70:kick.wav
25,192,120671,1,0,0:0:0:70:kick.wav
281,192,120829,1,0,0:0:0:0:
486,192,121145,1,0,0:0:0:0:
230,192,121303,1,0,0:0:0:70:kick.wav
332,192,121461,1,0,0:0:0:0:
179,192,121618,1,0,0:0:0:70:kick.wav
435,192,121618,1,0,0:0:0:0:
76,192,121934,1,0,0:0:0:70:kick.wav
332,192,121934,1,0,0:0:0:0:
128,192,122250,1,0,0:0:0:70:finish.wav
384,192,122250,1,0,0:0:0:70:kick.wav
128,192,122882,1,0,0:0:0:70:crash.wav
179,192,122882,1,0,0:0:0:70:kick.wav
332,192,123355,1,0,0:0:0:70:crash.wav
384,192,123355,1,0,0:0:0:70:kick.wav
230,192,123671,1,0,0:0:0:70:crash.wav
25,192,123829,1,0,0:0:0:70:crash.wav
486,192,123829,1,0,0:0:0:70:kick.wav
25,192,124303,1,0,0:0:0:70:crash.wav
486,192,124303,1,0,0:0:0:70:kick.wav
384,192,124618,1,0,0:0:0:70:crash.wav
179,192,124776,1,0,0:0:0:70:crash.wav
332,192,124934,1,0,0:0:0:70:crash.wav
128,192,125092,1,0,0:0:0:70:crash.wav
25,192,125408,128,0,126671:0:0:0:70:finish.wav
486,192,125408,128,0,126671:0:0:0:70:crash.wav
