osu file format v14

[General]
AudioFilename: audio.mp3
AudioLeadIn: 0
PreviewTime: 23630
Countdown: 0
SampleSet: Soft
StackLeniency: 0.6
Mode: 0
LetterboxInBreaks: 0
EpilepsyWarning: 1
WidescreenStoryboard: 1

[Editor]
Bookmarks: 72130
DistanceSpacing: 1.3
BeatDivisor: 4
GridSize: 32
TimelineZoom: 2.4

[Metadata]
Title:timmy.
TitleUnicode:timmy.
Artist:brothel.
ArtistUnicode:brothel.
Creator:Est-
Version:renumi's normal.
Source:
Tags:chill wave cloud rap Desiigner XXL Freshman 2016 freestyle timmyturner Renumi TheDuckMask
BeatmapID:1185405
BeatmapSetID:560578

[Difficulty]
HPDrainRate:3
CircleSize:5
OverallDifficulty:4
ApproachRate:6
SliderMultiplier:2.3
SliderTickRate:1

[Events]
//Background and Video events
0,0,"ok.jpg",0,0
//Break Periods
//Storyboard Layer 0 (Background)
//Storyboard Layer 1 (Fail)
//Storyboard Layer 2 (Pass)
//Storyboard Layer 3 (Foreground)
//Storyboard Sound Samples

[TimingPoints]
20130,1000,4,2,1,40,1,0
24130,-100,4,2,1,40,0,1
25130,-100,4,2,2,40,0,1
25630,-100,4,2,1,40,0,1
27130,-100,4,2,2,40,0,1
27380,-100,4,2,1,40,0,1
29130,-100,4,2,2,40,0,1
29630,-100,4,2,1,40,0,1
31130,-100,4,2,2,40,0,0
31380,-100,4,2,1,40,0,0
32130,-100,4,2,1,40,0,1
33130,-100,4,2,2,40,0,1
33630,-100,4,2,1,40,0,1
35130,-100,4,2,2,40,0,1
35380,-100,4,2,1,40,0,1
37130,-100,4,2,2,40,0,1
37630,-100,4,2,1,40,0,1
39130,-100,4,2,2,40,0,1
39630,-100,4,2,1,40,0,1
40130,-100,4,2,1,40,0,0
40630,-100,4,2,1,40,0,0
41130,-100,4,2,2,40,0,0
41630,-100,4,2,1,40,0,0
43130,-100,4,2,2,40,0,0
43380,-100,4,2,1,40,0,0
45130,-100,4,2,2,40,0,0
45630,-100,4,2,1,40,0,0
47130,-100,4,2,1,40,0,0
47630,-100,4,2,1,40,0,0
48130,-100,4,2,1,40,0,1
48630,-100,4,2,1,40,0,1
49130,-100,4,2,2,40,0,1
49630,-100,4,2,1,40,0,1
51130,-100,4,2,2,40,0,1
51380,-100,4,2,1,40,0,1
53130,-100,4,2,2,40,0,1
53630,-100,4,2,1,40,0,1
55130,-100,4,2,2,40,0,1
55380,-100,4,2,1,40,0,1
56130,-100,4,2,1,40,0,0
56630,-100,4,2,1,40,0,0
57130,-100,4,2,2,40,0,0
57630,-100,4,2,1,40,0,0
59130,-100,4,2,2,40,0,0
59380,-100,4,2,1,40,0,0
61130,-100,4,2,2,40,0,0
61630,-100,4,2,1,40,0,0
63130,-100,4,2,2,40,0,0
63380,-100,4,2,1,40,0,0
65130,-100,4,2,2,40,0,0
65630,-100,4,2,1,40,0,0
67130,-100,4,2,2,40,0,0
67380,-100,4,2,1,40,0,0
69130,-100,4,2,2,40,0,0
69630,-100,4,2,1,40,0,0
71130,-100,4,2,2,40,0,0
71630,-100,4,2,1,40,0,0

[Colours]
Combo1 : 236,153,0
Combo2 : 75,75,75

[HitObjects]
123,158,24130,6,0,P|216:140|274:201,1,172.5,4|0,0:0|0:0,0:0:0:0:
300,244,25130,1,8,0:0:0:0:
216,340,25630,2,0,B|168:373|115:337|115:337|62:299|-4:338,1,230,8|0,0:0|0:0,0:0:0:0:
36,212,27130,1,8,0:0:0:0:
96,176,27380,2,0,L|210:180,1,115,8|8,0:0|0:0,0:0:0:0:
262,217,28130,6,0,L|382:221,2,115,8|8|8,0:0|0:0|0:0,0:0:0:0:
156,288,29630,2,0,B|158:204|158:204|163:196|163:196|166:116,1,172.5,8|0,0:0|0:0,0:0:0:0:
118,71,30630,2,0,P|166:51|222:83,1,115,0|8,0:0|0:0,0:0:0:0:
262,123,31380,2,0,P|310:150|362:130,1,115,8|0,0:0|0:0,0:0:0:0:
403,81,32130,6,0,B|400:159|400:159|395:167|395:167|393:251,1,172.5,4|0,0:0|0:0,0:0:0:0:
436,311,33130,1,8,0:0:0:0:
318,357,33630,2,0,B|146:353|146:353|203:316,1,230,8|0,0:0|0:0,0:0:0:0:
95,241,35130,1,8,0:0:0:0:
56,190,35380,2,0,P|34:137|65:83,1,115,8|8,0:0|0:0,0:0:0:0:
113,57,36130,6,0,B|165:58|165:58|170:62|170:62|226:63,2,115,8|8|8,0:0|0:0|0:0,0:0:0:0:
74,177,37630,2,0,B|156:180|156:180|164:184|164:184|252:186,1,172.5,8|0,0:0|0:0,0:0:0:0:
288,232,38630,1,0,0:0:0:0:
407,274,39130,2,8,P|424:217|389:163,1,115,8|0,0:0|0:0,0:0:0:0:
332,63,40130,6,0,B|278:61|278:61|272:58|272:58|215:57,1,115,4|0,0:0|0:0,0:0:0:0:
99,11,41130,1,8,0:0:0:0:
131,133,41630,2,0,B|128:215|128:215|124:224|124:224|121:305,1,172.5,8|0,0:0|0:0,0:0:0:0:
69,340,42630,2,0,P|117:368|177:336,1,115,0|8,0:0|0:0,0:0:0:0:
211,301,43380,2,0,P|262:279|310:307,1,115,8|8,0:0|0:0,0:0:0:0:
354,351,44130,6,0,L|358:234,1,115,8|8,0:0|0:0,0:0:0:0:
281,135,45130,1,8,0:0:0:0:
196,41,45630,2,0,B|249:42|249:42|259:39|259:39|418:43,1,172.5,8|0,0:0|0:0,0:0:0:0:
431,42,46630,1,0,0:0:0:0:
345,135,47130,2,0,B|341:262,1,115,4|0,0:0|0:0,0:0:0:0:
250,337,48130,6,0,B|212:335|212:335|202:331|202:331|135:330,1,115,4|2,0:0|0:0,0:0:0:0:
36,251,49130,1,8,0:0:0:0:
161,236,49630,2,0,P|200:163|145:86,1,172.5,8|0,0:0|0:0,0:0:0:0:
106,55,50630,2,0,B|143:56|143:56|153:60|153:60|220:61,1,115,2|8,0:0|0:0,0:0:0:0:
266,105,51380,2,0,L|399:109,1,115,8|8,0:0|0:0,0:0:0:0:
427,65,52130,6,0,L|423:198,1,115,8|10,0:0|0:0,0:0:0:0:
338,273,53130,1,8,0:0:0:0:
277,160,53630,2,0,P|355:133|424:180,1,172.5,8|0,0:0|0:0,0:0:0:0:
463,232,54630,2,0,B|461:294|461:294|458:299|458:299|457:346,1,115,2|8,0:0|0:0,0:0:0:0:
400,375,55380,2,0,L|285:371,1,115,8|0,0:0|0:0,0:0:0:0:
239,327,56130,6,0,B|177:325|177:325|172:322|172:322|125:321,2,115,4|0|8,0:0|0:0|0:0,0:0:0:0:
351,268,57630,2,0,B|354:144|354:144|360:134|360:134|362:40,1,230,8|0,0:0|0:0,0:0:0:0:
259,112,59130,1,8,0:0:0:0:
219,62,59380,2,0,L|104:60,1,115,8|8,0:0|0:0,0:0:0:0:
60,13,60130,6,0,L|56:131,2,115,8|8|8,0:0|0:0|0:0,0:0:0:0:
186,0,61630,2,0,B|184:80|184:80|179:86|179:86|177:170,1,172.5,8|0,0:0|0:0,0:0:0:0:
132,215,62630,1,0,0:0:0:0:
222,303,63130,1,8,0:0:0:0:
181,351,63380,2,0,B|295:354,1,115,8|0,0:0|0:0,0:0:0:0:
346,316,64130,6,0,L|461:318,2,115,8|0|8,0:0|0:0|0:0,0:0:0:0:
251,230,65630,2,0,B|252:118|252:118|256:114|256:114|257:1,1,230,8|0,0:0|0:0,0:0:0:0:
142,49,67130,1,8,0:0:0:0:
95,91,67380,2,0,B|91:205,1,115,8|8,0:0|0:0,0:0:0:0:
133,253,68130,6,0,L|129:371,2,115,8|8|8,0:0|0:0|0:0,0:0:0:0:
212,154,69630,2,0,B|296:156|296:156|302:161|302:161|383:162,1,172.5,8|0,0:0|0:0,0:0:0:0:
424,114,70630,1,0,0:0:0:0:
501,214,71130,1,8,0:0:0:0:
400,290,71630,6,0,B|348:289|348:289|343:285|343:285|286:284,1,115,4|0,0:0|0:0,0:0:0:0:
